osu file format v14

[General]
AudioFilename: audio.mp3
AudioLeadIn: 0
PreviewTime: 33663
Countdown: 0
SampleSet: Soft
StackLeniency: 0.4
Mode: 0
LetterboxInBreaks: 0
WidescreenStoryboard: 0

[Editor]
DistanceSpacing: 0.5
BeatDivisor: 4
GridSize: 8
TimelineZoom: 2.867273

[Metadata]
Title:Gyroscope
TitleUnicode:Gyroscope
Artist:The Dismemberment Plan
ArtistUnicode:The Dismemberment Plan
Creator:zglock
Version:Torque
Source:
Tags:Emergency and & I indie math rock english
BeatmapID:2549514
BeatmapSetID:1225970

[Difficulty]
HPDrainRate:6
CircleSize:4.5
OverallDifficulty:8.5
ApproachRate:9.4
SliderMultiplier:2.36
SliderTickRate:1

[Events]
//Background and Video events
0,0,"box.jpg",0,0
//Break Periods
//Storyboard Layer 0 (Background)
//Storyboard Layer 1 (Fail)
//Storyboard Layer 2 (Pass)
//Storyboard Layer 3 (Foreground)
//Storyboard Layer 4 (Overlay)
//Storyboard Sound Samples

[TimingPoints]
238,329.67032967033,4,2,1,80,1,0
814,-100,4,2,1,5,0,0
897,-100,4,2,1,80,0,0
2710,331.491712707183,4,2,1,80,1,0
2958,-100,4,2,1,5,0,0
3041,-100,4,2,1,80,0,0
5196,333.333333333334,4,2,1,80,1,0
5446,-100,4,2,1,5,0,0
5529,-100,4,2,1,80,0,0
7196,324.324324324325,4,2,1,80,1,0
7520,352.941176470589,4,2,1,80,1,0
7696,327.868852459017,4,2,1,80,1,0
7941,-100,4,2,1,5,0,0
8023,-100,4,2,1,80,0,0
8679,317.460317460318,4,2,1,80,1,0
8996,333.333333333334,4,2,1,80,1,0
9329,338.983050847458,4,2,1,80,1,0
9583,-100,4,2,1,5,0,0
9667,324.324324324325,4,2,1,80,1,0
9991,357.142857142858,4,2,1,80,1,0
10169,329.67032967033,4,2,1,70,1,0
10169,-133.333333333333,4,2,1,70,0,0
10416,-133.333333333333,4,2,1,5,0,0
10498,338.983050847458,4,2,1,70,1,0
10498,-133.333333333333,4,2,1,70,0,0
11514,329.67032967033,4,2,1,70,1,0
11514,-133.333333333333,4,2,1,70,0,0
12420,-133.333333333333,4,2,1,5,0,0
12503,337.078651685394,4,2,1,70,1,0
12503,-133.333333333333,4,2,1,70,0,0
12924,-133.333333333333,4,2,1,5,0,0
13008,338.983050847458,4,2,1,70,1,0
13008,-133.333333333333,4,2,1,70,0,0
14702,319.148936170213,4,2,1,70,1,0
14702,-133.333333333333,4,2,1,70,0,0
14941,-133.333333333333,4,2,1,5,0,0
15021,344.827586206897,4,2,1,70,1,0
15021,-133.333333333333,4,2,1,70,0,0
15193,329.67032967033,4,2,1,70,1,0
15193,-133.333333333333,4,2,1,70,0,0
15440,-133.333333333333,4,2,1,5,0,0
15522,-133.333333333333,4,2,1,70,0,0
15852,342.857142857143,4,2,1,70,1,0
15852,-133.333333333333,4,2,1,70,0,0
16537,329.67032967033,4,2,1,70,1,0
16537,-133.333333333333,4,2,1,70,0,0
17690,331.491712707183,4,2,1,70,1,0
17690,-133.333333333333,4,2,1,70,0,0
18684,324.324324324325,4,2,1,70,1,0
18684,-133.333333333333,4,2,1,70,0,0
19008,329.67032967033,4,2,1,70,1,0
19008,-133.333333333333,4,2,1,70,0,0
19997,333.333333333334,4,2,1,70,1,0
19997,-133.333333333333,4,2,1,70,0,0
20997,333.333333333334,4,2,1,70,1,0
20997,-133.333333333333,4,2,1,70,0,0
24663,326.08695652174,4,2,1,70,1,0
24663,-133.333333333333,4,2,1,70,0,0
24826,331.491712707183,4,2,1,70,1,0
24826,-133.333333333333,4,2,1,70,0,0
25074,-133.333333333333,4,2,1,5,0,0
25157,-133.333333333333,4,2,1,70,0,0
25820,315.789473684211,4,2,1,70,1,0
25820,-133.333333333333,4,2,1,70,0,0
26293,361.445783132531,4,2,1,70,1,0
26293,-133.333333333333,4,2,1,70,0,0
26473,326.08695652174,4,2,1,70,1,0
26473,-133.333333333333,4,2,1,70,0,0
27288,331.491712707183,4,2,1,70,1,0
27288,-133.333333333333,4,2,1,70,0,0
27536,-133.333333333333,4,2,1,5,0,0
27619,-133.333333333333,4,2,1,70,0,0
28945,322.580645161291,4,2,1,70,1,0
28945,-133.333333333333,4,2,1,70,0,0
29267,326.08695652174,4,2,1,70,1,0
29267,-133.333333333333,4,2,1,70,0,0
29756,346.820809248556,4,2,1,70,1,0
29756,-133.333333333333,4,2,1,70,0,0
30016,-133.333333333333,4,2,1,5,0,0
30102,329.670329670331,4,2,1,70,1,0
30102,-133.333333333333,4,2,1,70,0,0
30761,322.580645161291,4,2,1,70,1,0
30761,-133.333333333333,4,2,1,70,0,0
32373,337.078651685394,4,2,1,70,1,0
32373,-133.333333333333,4,2,1,70,0,0
32710,322.580645161291,4,2,1,70,1,0
32710,-133.333333333333,4,2,1,70,0,0
33032,338.983050847459,4,2,1,70,1,0
33032,-133.333333333333,4,2,1,70,0,0
33370,326.08695652174,4,2,1,70,1,0
33370,-133.333333333333,4,2,1,70,0,0
34185,335.195530726258,4,2,1,80,1,0
34185,-66.6666666666667,4,2,1,80,0,1
34436,-66.6666666666667,4,2,1,5,0,1
34520,-80,4,2,1,80,0,0
35190,340.909090909092,4,2,1,80,1,0
35190,-80,4,2,1,80,0,0
35871,324.324324324325,4,2,1,80,1,0
35871,-80,4,2,1,80,0,0
36114,-80,4,2,1,5,0,0
36195,335.195530726258,4,2,1,80,1,0
36195,-80,4,2,1,80,0,0
36530,348.837209302327,4,2,1,80,1,0
36530,-80,4,2,1,80,0,0
36704,329.670329670331,4,2,1,80,1,0
36704,-80,4,2,1,80,0,0
37363,340.909090909092,4,2,1,80,1,0
37363,-80,4,2,1,80,0,0
37874,-78.7401574803149,4,2,1,80,0,0
38044,327.868852459017,4,2,1,80,1,0
38044,-80,4,2,1,80,0,0
38125,-80,4,2,1,5,0,0
38207,-80,4,2,1,80,0,0
39027,370.370370370371,4,2,1,80,1,0
39027,-80,4,2,1,80,0,0
39212,326.08695652174,4,2,1,80,1,0
39212,-80,4,2,1,80,0,0
39456,-80,4,2,1,5,0,0
39538,-80,4,2,1,80,0,0
40597,-80,4,2,1,5,0,0
40679,-80,4,2,1,80,0,0
41168,348.837209302327,4,2,1,80,1,0
41168,-80,4,2,1,80,0,0
41516,322.580645161291,4,2,1,80,1,0
41516,-80,4,2,1,80,0,0
41757,-80,4,2,1,5,0,0
41838,342.857142857144,4,2,1,80,1,0
41838,-80,4,2,1,80,0,0
42095,-80,4,2,1,5,0,0
42180,-80,4,2,1,80,0,0
42523,312.500000000001,4,2,1,80,1,0
42523,-80,4,2,1,80,0,0
42835,377.358490566039,4,2,1,80,1,0
42835,-80,4,2,1,80,0,0
43023,317.460317460318,4,2,1,80,1,0
43023,-80,4,2,1,80,0,0
43261,-80,4,2,1,5,0,0
43340,-80,4,2,1,80,0,0
43657,389.610389610391,4,2,1,80,1,0
43657,-80,4,2,1,80,0,0
43851,326.08695652174,4,2,1,80,1,0
43851,-80,4,2,1,80,0,0
44014,325.203252032521,4,2,1,80,1,0
44014,-80,4,2,1,80,0,0
44501,333.333333333334,4,2,1,80,1,0
44501,-66.6666666666667,4,2,1,80,0,1
44751,-80,4,2,1,5,0,1
44834,-80,4,2,1,80,0,0
45834,331.491712707183,4,2,1,80,1,0
45834,-80,4,2,1,80,0,0
45916,-80,4,2,1,5,0,0
45999,-80,4,2,1,80,0,0
46745,-80,4,2,1,5,0,0
46828,-80,4,2,1,80,0,0
46994,327.868852459017,4,2,1,80,1,0
46994,-80,4,2,1,80,0,0
47977,338.983050847459,4,2,1,80,1,0
47977,-80,4,2,1,80,0,0
48146,-78.9889415481832,4,2,1,80,0,0
48315,329.670329670331,4,2,1,80,1,0
48315,-80,4,2,1,80,0,0
48397,-80,4,2,1,5,0,0
48479,-80,4,2,1,80,0,0
49468,326.08695652174,4,2,1,80,1,0
49468,-80,4,2,1,80,0,0
49712,-80,4,2,1,5,0,0
49794,-80,4,2,1,80,0,0
50446,337.078651685394,4,2,1,80,1,0
50446,-80,4,2,1,80,0,0
50783,326.08695652174,4,2,1,80,1,0
50783,-80,4,2,1,80,0,0
51761,314.136125654451,4,2,1,80,1,0
51761,-80,4,2,1,80,0,0
51996,-80,4,2,1,5,0,0
52075,344.827586206898,4,2,1,80,1,0
52075,-80,4,2,1,80,0,0
52333,-80,4,2,1,5,0,0
52419,-80,4,2,1,80,0,0
52764,310.880829015545,4,2,1,80,1,0
52764,-80,4,2,1,80,0,0
53074,357.142857142858,4,2,1,80,1,0
53074,-80,4,2,1,80,0,0
53252,320.855614973263,4,2,1,80,1,0
53252,-80,4,2,1,80,0,0
53492,-80,4,2,1,5,0,0
53572,317.460317460318,4,2,1,80,1,0
53572,-80,4,2,1,80,0,0
53889,333.333333333334,4,2,1,80,1,0
53889,-80,4,2,1,80,0,0
54722,348.837209302326,4,2,1,70,1,0
54722,-125,4,2,1,70,0,0
55419,342.857142857144,4,2,1,70,1,0
55419,-125,4,2,1,70,0,0
55761,327.868852459017,4,2,1,70,1,0
55761,-125,4,2,1,70,0,0
57072,346.820809248556,4,2,1,70,1,0
57072,-125,4,2,1,70,0,0
57245,333.333333333334,4,2,1,70,1,0
57245,-125,4,2,1,70,0,0
57495,-125,4,2,1,5,0,0
57578,-125,4,2,1,70,0,0
58578,346.820809248556,4,2,1,70,1,0
58578,-125,4,2,1,70,0,0
58924,329.670329670331,4,2,1,70,1,0
58924,-125,4,2,1,70,0,0
59583,314.136125654451,4,2,1,70,1,0
59583,-125,4,2,1,70,0,0
59740,-132.450331125828,4,2,1,70,0,0
59897,368.098159509203,4,2,1,70,1,0
59897,-125,4,2,1,70,0,0
59989,-125,4,2,1,5,0,0
60081,342.857142857144,4,2,1,70,1,0
60081,-125,4,2,1,70,0,0
60423,319.148936170214,4,2,1,70,1,0
60423,-125,4,2,1,70,0,0
60582,368.098159509204,4,2,1,70,1,0
60582,-125,4,2,1,70,0,0
60766,329.67032967033,4,2,1,70,1,0
60766,-125,4,2,1,70,0,0
61755,340.909090909092,4,2,1,70,1,0
61755,-125,4,2,1,70,0,0
62266,329.67032967033,4,2,1,70,1,0
62266,-125,4,2,1,70,0,0
62513,-125,4,2,1,5,0,0
62595,-125,4,2,1,70,0,0
66139,-125,4,2,1,5,0,0
66222,320.855614973263,4,2,1,70,1,0
66222,-125,4,2,1,70,0,0
66382,375.000000000001,4,2,1,70,1,0
66382,-125,4,2,1,70,0,0
66569,315.789473684211,4,2,1,70,1,0
66569,-125,4,2,1,70,0,0
66884,342.857142857143,4,2,1,70,1,0
66884,-133.333333333333,4,2,1,70,0,0
67141,-133.333333333333,4,2,1,5,0,0
67226,-133.333333333333,4,2,1,70,0,0
67912,331.491712707183,4,2,1,70,1,0
67912,-133.333333333333,4,2,1,70,0,0
69237,359.281437125749,4,2,1,70,1,0
69237,-133.333333333333,4,2,1,70,0,0
69416,331.491712707183,4,2,1,70,1,0
69416,-133.333333333333,4,2,1,70,0,0
69664,-133.333333333333,4,2,1,5,0,0
69747,-133.333333333333,4,2,1,70,0,0
70410,329.67032967033,4,2,1,70,1,0
70410,-133.333333333333,4,2,1,70,0,0
71893,330.123796423659,4,2,1,70,1,0
71893,-133.333333333333,4,2,1,70,0,0
72140,-133.333333333333,4,2,1,5,0,0
72223,331.491712707183,4,2,1,70,1,0
72223,-133.333333333333,4,2,1,70,0,0
73217,342.857142857144,4,2,1,70,1,0
73217,-133.333333333333,4,2,1,70,0,0
73902,326.08695652174,4,2,1,70,1,0
73902,-133.333333333333,4,2,1,70,0,0
74391,337.078651685394,4,2,1,70,1,0
74391,-133.333333333333,4,2,1,70,0,0
74643,-133.333333333333,4,2,1,5,0,0
74728,-133.333333333333,4,2,1,70,0,0
75402,320.855614973262,4,2,1,70,1,0
75402,-133.333333333333,4,2,1,70,0,0
75722,338.983050847458,4,2,1,70,1,0
75722,-133.333333333333,4,2,1,70,0,0
76060,333.333333333334,4,2,1,70,1,0
76060,-133.333333333333,4,2,1,70,0,0
77726,291.262135922331,4,2,1,70,1,0
77726,-133.333333333333,4,2,1,70,0,0
77871,398.671096345516,4,2,1,70,1,0
77871,-133.333333333333,4,2,1,70,0,0
78070,345.323741007195,4,2,1,70,1,0
78070,-133.333333333333,4,2,1,70,0,0
78415,315.789473684211,4,2,1,70,1,0
78415,-133.333333333333,4,2,1,70,0,0
78572,377.358490566039,4,2,1,70,1,0
78572,-133.333333333333,4,2,1,70,0,0
78760,310.880829015544,4,2,1,70,1,0
78760,-133.333333333333,4,2,1,70,0,0
79070,337.078651685394,4,2,1,70,1,0
79070,-133.333333333333,4,2,1,70,0,0
79322,-133.333333333333,4,2,1,5,0,0
79407,350.877192982457,4,2,1,70,1,0
79407,-133.333333333333,4,2,1,70,0,0
79757,338.983050847458,4,2,1,70,1,0
79757,-133.333333333333,4,2,1,70,0,0
80095,320.855614973263,4,2,1,70,1,0
80095,-133.333333333333,4,2,1,70,0,0
80415,326.08695652174,4,2,1,70,1,0
80415,-133.333333333333,4,2,1,70,0,0
81556,331.491712707183,4,2,1,70,1,0
81556,-133.333333333333,4,2,1,70,0,0
81804,-133.333333333333,4,2,1,5,0,0
81887,-133.333333333333,4,2,1,70,0,0
83544,340.909090909092,4,2,1,70,1,0
83544,-133.333333333333,4,2,1,70,0,0
84055,331.491712707183,4,2,1,70,1,0
84055,-133.333333333333,4,2,1,70,0,0
84303,-133.333333333333,4,2,1,5,0,0
84386,-133.333333333333,4,2,1,70,0,0
85380,317.460317460318,4,2,1,70,1,0
85380,-133.333333333333,4,2,1,70,0,0
85538,348.837209302326,4,2,1,70,1,0
85538,-133.333333333333,4,2,1,70,0,0
85712,331.491712707183,4,2,1,70,1,0
85712,-133.333333333333,4,2,1,70,0,0
86541,333.333333333334,4,2,1,70,1,0
86541,-133.333333333333,4,2,1,70,0,0
86791,-133.333333333333,4,2,1,5,0,0
86874,322.580645161291,4,2,1,70,1,0
86874,-133.333333333333,4,2,1,70,0,0
87761,-133.333333333333,4,2,1,5,0,0
87841,-133.333333333333,4,2,1,70,0,0
88003,350.877192982457,4,2,1,70,1,0
88003,-133.333333333333,4,2,1,70,0,0
88178,333.333333333334,4,2,1,70,1,0
88178,-133.333333333333,4,2,1,70,0,0
89178,333.333333333334,4,2,1,70,1,0
89178,-133.333333333333,4,2,1,70,0,0
89761,-133.333333333333,4,2,1,5,0,0
89844,-133.333333333333,4,2,1,70,0,0
90428,-133.333333333333,4,2,1,5,0,0
90511,-133.333333333333,4,2,1,70,0,0
90678,320.855614973263,4,2,1,70,1,0
90678,-133.333333333333,4,2,1,70,0,0
90838,335.195530726258,4,2,1,70,1,0
90838,-133.333333333333,4,2,1,70,0,0
91005,337.078651685394,4,2,1,70,1,0
91005,-66.6666666666667,4,2,1,80,0,1
91257,-66.6666666666667,4,2,1,5,0,1
91342,-80,4,2,1,80,0,0
92353,333.333333333334,4,2,1,70,1,0
92353,-80,4,2,1,80,0,0
93269,-80,4,2,1,5,0,0
93353,-80,4,2,1,80,0,0
93519,333.333333333334,4,2,1,70,1,0
93519,-80,4,2,1,80,0,0
94935,-80,4,2,1,5,0,0
95019,-80,4,2,1,80,0,0
95852,359.281437125749,4,2,1,70,1,0
95852,-80,4,2,1,80,0,0
96031,324.324324324325,4,2,1,70,1,0
96031,-80,4,2,1,80,0,0
96276,-80,4,2,1,5,0,0
96358,-80,4,2,1,80,0,0
96841,346.820809248556,4,2,1,70,1,0
96841,-80,4,2,1,80,0,0
97014,327.868852459017,4,2,1,70,1,0
97014,-80,4,2,1,80,0,0
98571,-80,4,2,1,5,0,0
98653,346.820809248556,4,2,1,70,1,0
98653,-80,4,2,1,80,0,0
98913,-80,4,2,1,5,0,0
98999,333.333333333334,4,2,1,70,1,0
98999,-80,4,2,1,80,0,0
99332,300.000000000001,4,2,1,70,1,0
99332,-80,4,2,1,80,0,0
99482,355.029585798817,4,2,1,70,1,0
99482,-80,4,2,1,80,0,0
99659,333.333333333334,4,2,1,70,1,0
99659,-80,4,2,1,80,0,0
100075,-80,4,2,1,5,0,0
100159,333.333333333333,4,2,1,70,1,0
100159,-80,4,2,1,80,0,0
100325,258.620689655173,4,2,1,70,1,0
100325,-80,4,2,1,80,0,0
100454,370.370370370371,4,2,1,70,1,0
100454,-80,4,2,1,80,0,0
100824,338.983050847459,4,2,1,70,1,0
100824,-80,4,2,1,80,0,0
101332,333.333333333334,4,2,1,70,1,0
101332,-66.6666666666667,4,2,1,80,0,1
101582,-80,4,2,1,5,0,0
101665,-80,4,2,1,80,0,0
102748,-80,4,2,1,5,0,0
102832,-80,4,2,1,80,0,0
102998,322.580645161291,4,2,1,70,1,0
102998,-80,4,2,1,80,0,0
103562,-80,4,2,1,5,0,0
103643,359.281437125749,4,2,1,70,1,0
103643,-80,4,2,1,80,0,0
103822,333.333333333334,4,2,1,70,1,0
103822,-80,4,2,1,80,0,0
105238,-80,4,2,1,5,0,0
105322,-80,4,2,1,80,0,0
106322,333.333333333334,4,2,1,70,1,0
106322,-80,4,2,1,80,0,0
106572,-80,4,2,1,5,0,0
106655,-80,4,2,1,80,0,0
107655,287.08133971292,4,2,1,70,1,0
107655,-80,4,2,1,80,0,0
107798,338.983050847459,4,2,1,70,1,0
107798,-80,4,2,1,80,0,0
107967,340.909090909092,4,2,1,70,1,0
107967,-80,4,2,1,80,0,0
108137,287.08133971292,4,2,1,70,1,0
108137,-80,4,2,1,80,0,0
108280,350.877192982457,4,2,1,70,1,0
108280,-80,4,2,1,80,0,0
108630,292.682926829269,4,2,1,70,1,0
108630,-80,4,2,1,80,0,0
108849,-80,4,2,1,5,0,0
108922,357.142857142858,4,2,1,70,1,0
108922,-80,4,2,1,80,0,0
109189,-80,4,2,1,5,0,0
109279,331.491712707183,4,2,1,70,1,0
109279,-80,4,2,1,80,0,0
109941,348.837209302326,4,2,1,70,1,0
109941,-80,4,2,1,80,0,0
110115,315.789473684211,4,2,1,70,1,0
110115,-80,4,2,1,80,0,0
110351,-80,4,2,1,5,0,0
110430,-80,4,2,1,80,0,0
110746,357.142857142858,4,2,1,70,1,0
110746,-80,4,2,1,80,0,0
111103,333.333333333334,4,2,1,70,1,0
111103,-80,4,2,1,80,0,0
111603,333.333333333334,4,2,1,70,1,1
111603,-74.0740740740741,4,2,1,80,0,1
111936,331.491712707183,4,2,1,70,1,1
111936,-74.0740740740741,4,2,1,80,0,1
112288,320.855614973263,4,2,1,70,1,1
112288,-74.0740740740741,4,2,1,80,0,1
112608,333.333333333334,4,2,1,70,1,1
112608,-74.0740740740741,4,2,1,80,0,1
112774,292.682926829269,4,2,1,70,1,1
112774,-74.0740740740741,4,2,1,80,0,1
113066,368.098159509203,4,2,1,70,1,1
113066,-74.0740740740741,4,2,1,80,0,1
113250,315.789473684211,4,2,1,70,1,1
113250,-74.0740740740741,4,2,1,80,0,1
113583,333.333333333334,4,2,1,70,1,1
113583,-74.0740740740741,4,2,1,80,0,1
114250,352.941176470589,4,2,1,70,1,1
114250,-74.0740740740741,4,2,1,80,0,1
114602,319.148936170214,4,2,1,70,1,1
114602,-74.0740740740741,4,2,1,80,0,1
114944,342.857142857144,4,2,1,70,1,1
114944,-74.0740740740741,4,2,1,80,0,1
115287,319.148936170213,4,2,1,70,1,1
115287,-74.0740740740741,4,2,1,80,0,1
115446,314.136125654451,4,2,1,70,1,1
115446,-74.0740740740741,4,2,1,80,0,1
115760,329.67032967033,4,2,1,70,1,1
115760,-74.0740740740741,4,2,1,80,0,1
115924,315.789473684211,4,2,1,70,1,1
115924,-74.0740740740741,4,2,1,80,0,1
116160,-74.0740740740741,4,2,1,5,0,1
116239,-74.0740740740741,4,2,1,80,0,1
116397,387.096774193549,4,2,1,70,1,1
116397,-74.0740740740741,4,2,1,80,0,1
116590,333.333333333334,4,2,1,70,1,1
116590,-74.0740740740741,4,2,1,80,0,1
116923,346.820809248555,4,2,1,70,1,1
116923,-74.0740740740741,4,2,1,80,0,1
117269,324.324324324325,4,2,1,70,1,1
117269,-74.0740740740741,4,2,1,80,0,1
117616,346.820809248556,4,2,1,70,1,1
117616,-74.0740740740741,4,2,1,80,0,1
118136,283.018867924529,4,2,1,70,1,1
118136,-74.0740740740741,4,2,1,80,0,1
118419,333.333333333334,4,2,1,70,1,1
118419,-74.0740740740741,4,2,1,80,0,1
118835,-74.0740740740741,4,2,1,5,0,1
118919,365.853658536586,4,2,1,70,1,1
118919,-74.0740740740741,4,2,1,80,0,1
119284,333.333333333334,4,2,1,70,1,1
119284,-74.0740740740741,4,2,1,80,0,1
120117,312.500000000001,4,2,1,70,1,1
120117,-74.0740740740741,4,2,1,80,0,1
120409,392.156862745099,4,2,1,70,1,1
120409,-74.0740740740741,4,2,1,80,0,1
120605,333.333333333334,4,2,1,70,1,1
120605,-74.0740740740741,4,2,1,80,0,1
120855,-74.0740740740741,4,2,1,5,0,1
120938,-74.0740740740741,4,2,1,80,0,1
121605,375.000000000001,4,2,1,70,1,1
121605,-74.0740740740741,4,2,1,80,0,1
121980,317.460317460318,4,2,1,70,1,1
121980,-74.0740740740741,4,2,1,80,0,1
122304,337.078651685394,4,2,1,70,1,1
122304,-74.0740740740741,4,2,1,80,0,1
122809,306.122448979592,4,2,1,70,1,1
122809,-74.0740740740741,4,2,1,80,0,1
123115,333.333333333334,4,2,1,70,1,1
123115,-74.0740740740741,4,2,1,80,0,1
123281,309.278350515464,4,2,1,70,1,1
123281,-74.0740740740741,4,2,1,80,0,1
123633,331.491712707183,4,2,1,70,1,1
123633,-74.0740740740741,4,2,1,80,0,1
124295,344.827586206897,4,2,1,70,1,1
124295,-74.0740740740741,4,2,1,80,0,1
124639,314.136125654451,4,2,1,70,1,1
124639,-74.0740740740741,4,2,1,80,0,1
124979,340.909090909092,4,2,1,70,1,1
124979,-74.0740740740741,4,2,1,80,0,1
125491,301.507537688443,4,2,1,70,1,1
125491,-74.0740740740741,4,2,1,80,0,1
125792,333.333333333334,4,2,1,70,1,1
125792,-74.0740740740741,4,2,1,80,0,1
125958,375.000000000001,4,2,1,70,1,1
125958,-74.0740740740741,4,2,1,80,0,1
126333,352.941176470589,4,2,1,70,1,1
126333,-74.0740740740741,4,2,1,80,0,1
126509,279.069767441861,4,2,1,70,1,1
126509,-74.0740740740741,4,2,1,80,0,1
126648,333.333333333334,4,2,1,70,1,1
126648,-74.0740740740741,4,2,1,80,0,1
126898,-74.0740740740741,4,2,1,5,0,1
126981,304.568527918782,4,2,1,70,1,1
126981,-50,4,2,1,80,0,1
129095,308.483290488432,4,2,1,80,1,1
129095,-100,4,2,1,80,0,1
129403,333.333333333334,4,2,1,70,1,1
129403,-74.0740740740741,4,2,1,80,0,1
129653,-74.0740740740741,4,2,1,5,0,0
129737,340.909090909092,4,2,1,70,1,0
129737,-66.6666666666667,4,2,1,80,0,1
129992,-80,4,2,1,5,0,0
130077,-80,4,2,1,80,0,0
131100,312.500000000001,4,2,1,70,1,0
131100,-80,4,2,1,80,0,0
131412,337.078651685394,4,2,1,70,1,0
131412,-80,4,2,1,80,0,0
132001,-80,4,2,1,5,0,0
132086,363.636363636364,4,2,1,70,1,0
132086,-80,4,2,1,80,0,0
132267,319.148936170213,4,2,1,70,1,0
132267,-80,4,2,1,80,0,0
132586,333.333333333334,4,2,1,70,1,0
132586,-80,4,2,1,80,0,0
133669,-80,4,2,1,5,0,0
133752,-80,4,2,1,80,0,0
134752,333.333333333334,4,2,1,70,1,0
134752,-80,4,2,1,80,0,0
135002,-80,4,2,1,5,0,0
135085,-80,4,2,1,80,0,0
136752,315.789473684211,4,2,1,70,1,0
136752,-80,4,2,1,80,0,0
137304,-80,4,2,1,5,0,0
137383,352.941176470589,4,2,1,70,1,0
137383,-80,4,2,1,80,0,0
137647,-80,4,2,1,5,0,0
137735,333.333333333334,4,2,1,70,1,0
137735,-80,4,2,1,80,0,0
138068,309.278350515464,4,2,1,70,1,0
138068,-80,4,2,1,80,0,0
138222,359.281437125749,4,2,1,70,1,0
138222,-80,4,2,1,80,0,0
138401,331.491712707183,4,2,1,70,1,0
138401,-80,4,2,1,80,0,0
138815,-80,4,2,1,5,0,0
138898,-80,4,2,1,80,0,0
140058,331.491712707183,4,2,1,70,1,0
140058,-66.6666666666667,4,2,1,80,0,1
140306,-80,4,2,1,5,0,0
140389,-80,4,2,1,80,0,0
141466,-80,4,2,1,5,0,0
141549,-80,4,2,1,80,0,0
142295,-80,4,2,1,5,0,0
142378,382.165605095542,4,2,1,70,1,0
142378,-80,4,2,1,80,0,0
142569,309.278350515465,4,2,1,70,1,0
142878,333.333333333334,4,2,1,50,1,0
143878,-333.333333333333,4,2,1,35,0,0
145044,324.324324324325,4,2,2,70,1,0
145044,-333.333333333333,4,2,2,35,0,0
145206,-333.333333333333,4,2,2,5,0,0
145368,-333.333333333333,4,2,2,35,0,0
145530,-333.333333333333,4,2,2,5,0,0
145692,-333.333333333333,4,2,2,35,0,0
145854,-333.333333333333,4,2,2,5,0,0
146016,-333.333333333333,4,2,2,35,0,0
146179,-333.333333333333,4,2,2,5,0,0
146341,-333.333333333333,4,2,2,35,0,0
146503,-333.333333333333,4,2,2,5,0,0
146665,-333.333333333333,4,2,2,35,0,0
146827,-333.333333333333,4,2,2,5,0,0
146989,-333.333333333333,4,2,2,35,0,0
147638,333.333333333334,4,2,2,70,1,0
147638,-200,4,2,2,35,0,0
148638,355.029585798817,4,2,2,70,1,0
148638,-200,4,2,2,35,0,0

[Colours]
Combo1 : 207,154,155
Combo2 : 255,255,166
Combo3 : 156,239,204
Combo4 : 237,187,71
Combo5 : 253,190,153
Combo6 : 138,198,230

[HitObjects]
428,92,238,6,0,B|364:82|364:82|314:117,1,118,2|0,1:2|0:0,0:0:0:0:
166,185,567,2,0,B|245:192|245:192|279:215|279:215|355:219,1,177,8|0,0:0|0:0,0:0:0:0:
364,227,897,1,0,1:0:0:0:
214,283,1062,1,0,0:0:0:0:
86,191,1227,2,0,L|70:72,1,118,8|0,0:0|0:0,0:0:0:0:
256,26,1556,6,0,B|193:41|193:41|140:9,1,118,0|0,1:0|0:0,0:0:0:0:
42,244,1886,2,0,B|86:213|86:213|150:223,1,118,8|0,0:0|0:0,0:0:0:0:
294,342,2216,1,0,1:0:0:0:
105,294,2380,1,0,0:0:0:0:
153,105,2545,1,8,0:0:0:0:
342,153,2710,6,0,L|526:134,1,177,0|0,1:0|0:0,0:0:0:0:
497,114,3041,1,8,0:0:0:0:
318,227,3207,1,0,0:0:0:0:
506,326,3372,1,0,1:0:0:0:
400,56,3538,1,0,1:0:0:0:
218,67,3704,2,0,B|275:94|275:94|347:73,1,118,8|0,0:0|0:0,0:0:0:0:
238,279,4035,6,0,L|217:153,1,118,0|0,1:0|0:0,0:0:0:0:
135,18,4367,2,0,L|117:135,1,118,8|0,0:0|0:0,0:0:0:0:
142,349,4698,1,0,1:0:0:0:
84,219,4864,1,0,0:0:0:0:
318,227,5030,1,8,0:0:0:0:
4,333,5196,6,0,B|-13:220|-13:220|20:164,1,177,0|0,1:0|0:0,0:0:0:0:
39,146,5529,1,8,0:0:0:0:
238,279,5696,1,0,0:0:0:0:
452,173,5862,1,0,1:0:0:0:
314,164,6029,1,0,1:0:0:0:
388,350,6196,2,0,B|401:297|401:297|378:237,1,118,8|0,0:0|0:0,0:0:0:0:
219,71,6529,6,0,B|235:122|235:122|217:183,1,118,0|0,1:0|0:0,0:0:0:0:
390,48,6862,2,0,L|517:31,1,118,8|0,0:0|0:0,0:0:0:0:
314,164,7196,1,0,1:0:0:0:
179,2,7358,1,0,0:0:0:0:
305,60,7520,1,8,0:0:0:0:
215,211,7696,6,0,B|128:205|157:270|46:268,1,177,0|0,1:0|0:0,0:0:0:0:
25,258,8023,1,8,0:0:0:0:
203,294,8187,1,0,0:0:0:0:
240,116,8351,1,0,1:0:0:0:
61,79,8515,1,0,1:0:0:0:
133,341,8679,2,0,P|185:376|258:360,1,118,8|0,0:0|0:0,0:0:0:0:
409,180,8996,6,0,P|351:181|306:218,1,118,0|0,1:0|0:0,0:0:0:0:
512,375,9329,2,0,P|447:371|380:270,1,177,8|0,0:0|0:0,0:0:0:0:
380,257,9667,1,0,1:0:0:0:
512,55,9829,1,0,0:0:0:0:
487,269,9991,1,8,0:0:0:0:
272,245,10169,6,0,B|205:233|209:276|144:276,1,132.750005064011,0|0,1:0|0:0,0:0:0:0:
126,268,10498,2,0,L|117:176,1,88.5000033760072,8|0,0:0|0:0,0:0:0:0:
169,108,10836,1,0,1:0:0:0:
169,108,11006,1,0,1:0:0:0:
41,71,11175,2,0,L|33:160,1,88.5000033760072,8|0,0:0|0:0,0:0:0:0:
207,19,11514,6,0,P|164:11|122:24,1,88.5000033760072,0|0,1:0|0:0,0:0:0:0:
264,97,11843,2,0,P|307:105|349:92,1,88.5000033760072,8|0,0:0|0:0,0:0:0:0:
465,0,12173,2,0,B|421:-6|421:-6|387:15|387:15|330:8,1,132.750005064011,0|0,1:0|0:0,0:0:0:0:
317,6,12503,1,8,0:0:0:0:
440,78,12671,6,0,L|454:218,1,132.750005064011,0|0,1:0|0:0,0:0:0:0:
434,221,13008,2,0,P|469:259|467:320,1,88.5000033760072,8|0,0:0|0:0,0:0:0:0:
382,294,13346,1,0,1:0:0:0:
382,294,13516,1,0,1:0:0:0:
300,153,13685,2,0,L|311:269,1,88.5000033760072,8|0,0:0|0:0,0:0:0:0:
346,75,14024,6,0,P|305:62|256:74,1,88.5000033760072,0|0,1:0|1:0,0:0:0:0:
120,140,14363,1,8,0:0:0:0:
210,146,14533,1,0,0:0:0:0:
159,220,14702,2,0,P|83:221|36:168,1,132.750005064011,0|0,1:0|0:0,0:0:0:0:
38,165,15021,1,8,0:0:0:0:
220,261,15193,6,0,L|85:244,1,132.750005064011,0|0,1:0|0:0,0:0:0:0:
66,248,15522,2,0,B|94:283|94:283|91:343,1,88.5000033760072,8|0,0:0|0:0,0:0:0:0:
182,384,15852,1,0,1:0:0:0:
182,384,16023,1,0,1:0:0:0:
294,246,16194,2,0,B|297:290|297:290|269:325,1,88.5000033760072,8|0,0:0|0:0,0:0:0:0:
159,220,16537,1,0,1:0:0:0:
227,100,16701,6,0,L|235:188,1,88.5000033760072,0|8,1:0|0:0,0:0:0:0:
150,131,17031,2,0,L|158:219,1,88.5000033760072,0|0,1:0|1:0,0:0:0:0:
73,162,17361,2,0,L|81:250,1,88.5000033760072,0|8,1:0|0:0,0:0:0:0:
65,265,17608,1,0,0:0:0:0:
48,279,17690,6,0,P|115:286|147:388,1,177.000006752014,0|8,1:0|0:0,0:0:0:0:
294,246,18352,1,0,1:2:0:0:
268,331,18517,1,0,1:0:0:0:
353,357,18684,2,0,L|448:353,1,88.5000033760072,8|2,0:0|0:0,0:0:0:0:
459,342,18927,1,2,0:0:0:0:
477,330,19008,5,0,1:2:0:0:
398,179,19172,2,0,P|382:233|395:271,1,88.5000033760072,0|2,1:0|0:0,0:0:0:0:
468,99,19502,1,8,0:0:0:0:
429,76,19584,1,8,0:0:0:0:
384,75,19667,2,0,L|285:89,1,88.5000033760072,0|0,1:0|1:0,0:0:0:0:
145,41,19997,2,0,P|188:87|187:133,1,88.5000033760072,8|0,0:0|0:0,0:0:0:0:
156,195,20330,5,0,1:0:0:0:
156,195,20497,1,0,1:0:0:0:
288,167,20663,2,0,P|245:213|246:259,1,88.5000033760072,8|0,0:0|0:0,0:0:0:0:
277,321,20996,1,0,1:0:0:0:
277,321,21163,1,0,1:0:0:0:
161,380,21330,1,8,0:0:0:0:
83,333,21497,1,2,0:0:0:0:
83,333,21580,1,2,0:0:0:0:
83,333,21663,6,0,L|80:229,1,88.5000033760072,0|0,1:0|1:0,0:0:0:0:
0,144,21997,1,8,0:0:0:0:
162,35,22163,1,8,0:0:0:0:
118,29,22247,1,8,0:0:0:0:
92,65,22330,6,0,L|89:153,1,88.5000033760072,2|0,1:2|0:0,0:0:0:0:
277,321,22663,2,0,B|294:274|294:274|283:235,1,88.5000033760072,8|0,0:0|0:0,0:0:0:0:
230,163,22997,1,0,1:0:0:0:
230,163,23163,1,0,1:0:0:0:
489,108,23330,2,0,B|439:116|439:116|412:143,1,88.5000033760072,8|0,0:0|0:0,0:0:0:0:
375,227,23663,5,0,1:0:0:0:
375,227,23830,1,0,1:0:0:0:
198,30,23997,2,0,B|230:68|230:68|269:78,1,88.5000033760072,8|0,0:0|0:0,0:0:0:0:
358,70,24331,1,0,1:0:0:0:
358,70,24497,1,0,1:0:0:0:
277,321,24663,1,8,0:0:0:0:
196,280,24826,6,0,P|134:257|58:276,1,132.750005064011,0|0,1:0|0:0,0:0:0:0:
54,285,25157,2,0,B|77:329|77:329|71:372,1,88.5000033760072,8|0,0:0|0:0,0:0:0:0:
0,343,25488,1,0,1:0:0:0:
0,343,25654,1,0,1:0:0:0:
97,166,25820,2,0,B|123:124|123:124|163:107,1,88.5000033760072,8|0,0:0|0:0,0:0:0:0:
179,186,26135,5,0,1:0:0:0:
179,186,26293,1,0,1:0:0:0:
360,288,26473,2,0,B|310:285|310:285|276:259,1,88.5000033760072,8|0,0:0|0:0,0:0:0:0:
342,213,26799,1,0,1:0:0:0:
342,213,26962,1,0,1:0:0:0:
479,340,27125,1,8,0:0:0:0:
512,140,27288,6,0,P|470:173|477:262,1,132.750005064011,0|0,1:0|0:0,0:0:0:0:
476,268,27619,2,0,B|433:261|433:261|410:219,1,88.5000033760072,8|0,0:0|0:0,0:0:0:0:
388,138,27950,1,0,1:0:0:0:
388,138,28116,1,0,1:0:0:0:
147,128,28282,2,0,B|173:94|173:94|222:96,1,88.5000033760072,8|0,0:0|0:0,0:0:0:0:
303,116,28613,5,0,1:0:0:0:
303,116,28779,1,0,1:0:0:0:
456,0,28945,2,0,B|471:39|471:39|446:80,1,88.5000033760072,8|0,0:0|0:0,0:0:0:0:
388,138,29267,1,0,1:0:0:0:
388,138,29430,1,0,1:0:0:0:
199,18,29593,1,8,0:0:0:0:
117,48,29756,6,0,B|88:95|88:95|3:117,1,132.750005064011,0|0,1:0|0:0,0:0:0:0:
4,135,30102,2,0,L|-7:230,1,88.5000033760072,8|0,0:0|0:0,0:0:0:0:
59,285,30431,1,0,1:0:0:0:
59,285,30596,1,0,1:0:0:0:
162,202,30761,1,8,0:0:0:0:
222,271,30922,1,2,0:0:0:0:
222,271,31002,1,2,0:0:0:0:
222,271,31083,6,0,P|262:291|317:282,1,88.5000033760072,0|0,1:0|1:0,0:0:0:0:
403,181,31406,1,8,0:0:0:0:
394,349,31567,1,8,0:0:0:0:
387,305,31647,1,8,0:0:0:0:
381,261,31728,1,0,1:0:0:0:
345,122,31890,1,0,1:0:0:0:
367,42,32051,1,8,0:0:0:0:
425,101,32212,1,2,0:0:0:0:
425,101,32293,1,2,0:0:0:0:
425,101,32373,6,0,L|516:96,1,88.5000033760072,0|0,1:0|1:0,0:0:0:0:
286,62,32710,2,0,L|198:58,1,88.5000033760072,8|0,0:0|0:0,0:0:0:0:
265,143,33032,1,0,1:0:0:0:
367,42,33201,1,0,1:0:0:0:
491,176,33370,2,0,L|403:181,1,88.5000033760072,8|0,0:0|0:0,0:0:0:0:
164,245,33696,5,0,1:0:0:0:
440,318,33859,1,8,0:0:0:0:
367,42,34022,1,0,1:0:0:0:
91,115,34185,6,0,B|60:180|60:180|98:298|98:298|65:366,1,265.500010128022,6|0,1:2|0:0,0:0:0:0:
36,380,34520,1,8,0:0:0:0:
152,168,34687,2,0,B|210:144|210:144|316:162,1,147.5,0|0,0:0|1:0,0:0:0:0:
440,318,35022,2,0,B|356:332|356:332|298:308,1,147.5,0|8,1:0|0:0,0:0:0:0:
466,65,35360,2,0,B|443:119|478:167|478:167|455:146|423:148,1,147.5,0|0,1:0|0:0,0:0:0:0:
257,234,35701,1,0,1:0:0:0:
91,115,35871,2,0,B|154:131|192:94|192:94|206:101|206:101|249:57|343:104,1,221.25,8|0,0:0|0:0,0:0:0:0:
332,78,36195,2,0,B|372:28|353:-21|353:-21|354:-1|328:17,1,147.5,0|0,1:0|0:0,0:0:0:0:
129,26,36530,1,8,0:0:0:0:
143,231,36704,5,0,1:0:0:0:
232,9,36868,1,0,0:0:0:0:
0,43,37033,1,8,0:0:0:0:
34,275,37198,1,0,0:0:0:0:
187,370,37363,2,0,B|172:319|203:274|203:274|180:306|116:307,1,147.5,0|0,1:0|1:0,0:0:0:0:
9,183,37703,1,8,0:0:0:0:
281,148,37874,2,0,B|287:178|287:178|333:212|326:270|326:270|285:289|278:336,1,221.25,0|0,1:0|0:0,0:0:0:0:
284,370,38207,5,0,1:0:0:0:
206,194,38371,1,8,0:0:0:0:
319,38,38535,1,0,0:0:0:0:
397,95,38699,1,0,1:0:0:0:
230,77,38863,1,0,0:0:0:0:
486,56,39027,1,8,0:0:0:0:
507,312,39212,6,0,B|456:260|456:260|469:214|469:214|460:135|460:135|437:180,1,221.25,0|0,1:0|0:0,0:0:0:0:
434,187,39538,1,8,0:0:0:0:
226,265,39701,2,0,B|187:283|187:283|84:254,1,147.5,0|0,0:0|1:0,0:0:0:0:
247,360,40027,1,0,1:0:0:0:
291,122,40190,1,8,0:0:0:0:
96,54,40353,2,0,B|52:87|52:87|224:72,1,221.25,8|0,0:0|0:0,0:0:0:0:
246,49,40679,5,0,1:0:0:0:
293,298,40842,1,8,0:0:0:0:
23,356,41005,2,0,B|93:328|93:328|170:348,1,147.5,8|0,0:0|0:0,0:0:0:0:
362,263,41342,1,0,1:0:0:0:
339,234,41429,1,0,1:0:0:0:
304,218,41516,2,0,B|249:209|220:262|220:262|186:241|186:241|145:260|97:229,1,221.25,8|0,0:0|0:0,0:0:0:0:
84,216,41838,6,0,B|106:52|106:52|71:1,1,221.25,4|0,1:2|0:0,0:0:0:0:
37,7,42180,2,0,B|23:97|23:97|-20:138,1,147.5,8|0,0:0|0:0,0:0:0:0:
8,162,42438,1,8,0:0:0:0:
14,201,42523,1,0,1:0:0:0:
172,0,42679,1,0,1:0:0:0:
375,160,42835,1,8,0:0:0:0:
496,4,43023,6,0,B|457:12|457:12|424:100|424:100|451:138|451:138|446:197,1,221.25,8|0,0:0|0:0,3:0:0:0:
445,216,43340,1,0,1:0:0:0:
184,343,43499,1,8,0:0:0:0:
251,145,43657,1,0,1:0:0:0:
511,276,43851,2,0,B|484:312|441:307|441:307|434:323|434:323|400:319|387:335,1,147.5,8|8,0:0|0:0,0:0:0:0:
317,319,44095,1,8,0:0:0:0:
260,335,44176,1,8,0:0:0:0:
203,323,44257,1,8,0:0:0:0:
157,287,44339,1,8,0:0:0:0:
132,234,44420,1,8,0:0:0:0:
135,176,44501,6,0,B|71:199|71:199|53:310|53:310|-20:369,1,265.500010128022,4|0,1:2|0:0,0:0:0:0:
3,330,44834,1,8,0:0:0:0:
257,204,45001,2,0,B|351:173|351:173|402:201,1,147.5,0|0,0:0|1:0,0:0:0:0:
203,323,45334,1,0,1:0:0:0:
140,89,45501,1,8,0:0:0:0:
344,251,45667,2,0,B|489:198|489:198|514:105,1,221.25,0|0,1:0|0:0,0:0:0:0:
493,98,45999,2,0,L|486:266,1,147.5,0|8,1:0|0:0,0:0:0:0:
442,330,46331,1,0,0:0:0:0:
131,364,46496,2,0,B|210:348|210:348|266:367|266:367|375:343,1,221.25,0|0,1:0|0:0,0:0:0:0:
362,316,46828,1,8,0:0:0:0:
385,78,46994,5,0,1:0:0:0:
147,55,47157,1,0,0:0:0:0:
247,273,47321,1,8,0:0:0:0:
465,173,47485,1,0,0:0:0:0:
270,35,47649,2,0,B|243:73|243:73|278:180,1,147.5,0|0,1:0|1:0,0:0:0:0:
145,245,47977,1,8,0:0:0:0:
0,140,48146,2,0,B|48:171|95:147|95:147|111:172|111:172|159:150|208:193,1,221.25,0|0,1:0|0:0,0:0:0:0:
216,209,48479,5,0,1:0:0:0:
16,283,48644,1,8,0:0:0:0:
53,73,48809,1,0,0:0:0:0:
99,328,48974,1,0,1:0:0:0:
260,370,49139,1,0,0:0:0:0:
18,377,49304,1,8,0:0:0:0:
308,232,49468,6,0,B|379:216|379:216|464:266|464:266|516:257,1,221.25,0|0,1:0|0:0,0:0:0:0:
489,286,49794,1,8,0:0:0:0:
271,149,49957,2,0,B|222:209|222:209|234:284,1,147.5,0|0,0:0|1:0,0:0:0:0:
433,358,50283,1,0,1:0:0:0:
381,187,50446,1,8,0:0:0:0:
512,33,50614,2,0,B|476:62|476:62|358:54,1,147.5,8|0,0:0|0:0,0:0:0:0:
284,11,50946,5,0,1:0:0:0:
168,155,51109,1,8,0:0:0:0:
0,0,51272,2,0,B|29:36|29:36|21:154,1,147.5,8|0,0:0|0:0,0:0:0:0:
78,324,51598,1,0,1:0:0:0:
59,292,51679,1,0,1:0:0:0:
60,253,51761,2,0,B|75:198|134:167|190:187|190:187|204:253,1,221.25,8|0,0:0|0:0,0:0:0:0:
210,275,52075,6,0,B|254:260|284:286|284:286|314:272|314:272|361:311|431:288,1,221.25,4|0,1:2|0:0,0:0:0:0:
453,284,52419,2,0,B|411:311|407:354|407:354|371:354|351:389,1,147.5,8|0,0:0|0:0,0:0:0:0:
315,374,52678,1,8,0:0:0:0:
274,366,52764,1,0,1:0:0:0:
512,371,52919,1,0,1:0:0:0:
279,179,53074,1,8,0:0:0:0:
183,361,53252,6,0,B|133:396|66:394|31:348|31:348|105:310,1,221.25,8|0,0:0|0:0,0:0:0:0:
112,310,53572,1,0,1:0:0:0:
229,122,53730,2,0,B|253:74|232:19|232:19|236:51|207:77,1,147.5,8|0,0:0|1:0,0:0:0:0:
351,267,54055,1,8,0:0:0:0:
68,229,54222,1,8,0:0:0:0:
23,192,54305,1,8,0:0:0:0:
16,135,54388,1,8,0:0:0:0:
50,89,54472,1,8,0:0:0:0:
107,79,54555,1,8,0:0:0:0:
155,112,54638,1,8,0:0:0:0:
166,168,54722,6,0,L|182:290,1,94.4,4|0,1:2|0:0,0:0:0:0:
139,0,55070,1,8,0:0:0:0:
303,163,55419,1,0,1:0:0:0:
379,123,55590,1,0,1:0:0:0:
307,77,55761,2,0,B|258:89|258:89|219:130,1,94.4,8|0,0:0|0:0,0:0:0:0:
375,209,56088,2,0,L|386:302,1,94.4,0|0,1:0|0:0,0:0:0:0:
263,352,56416,2,0,B|221:364|221:364|174:345,1,94.4,8|0,0:0|0:0,0:0:0:0:
11,310,56744,2,0,L|121:294,1,94.4,0|0,1:0|0:0,0:0:0:0:
155,112,57072,1,8,0:0:0:0:
148,34,57245,2,0,B|73:45|109:91|28:101,1,141.6,0|0,1:0|0:0,0:0:0:0:
5,97,57578,6,0,B|24:144|24:144|11:196,1,94.4,8|0,0:0|0:0,0:0:0:0:
156,222,57911,1,0,1:0:0:0:
232,192,58078,1,0,1:0:0:0:
295,242,58245,2,0,B|324:249|324:249|409:218,1,94.4,8|0,0:0|0:0,0:0:0:0:
444,76,58578,1,0,1:0:0:0:
414,152,58751,1,0,1:0:0:0:
464,215,58924,2,0,B|471:244|471:244|440:329,1,94.4,8|0,0:0|0:0,0:0:0:0:
363,88,59253,2,0,P|316:78|255:65,1,94.4,0|0,1:0|0:0,0:0:0:0:
219,272,59583,1,8,0:0:0:0:
231,350,59740,6,0,B|156:357|174:300|92:305,1,141.6,0|0,1:0|0:0,0:0:0:0:
78,322,60081,2,0,B|19:314|19:314|-27:329,1,94.4,8|0,0:0|0:0,0:0:0:0:
98,148,60423,1,0,1:0:0:0:
88,235,60582,1,0,1:0:0:0:
168,200,60766,2,0,B|220:195|220:195|252:165,1,94.4,8|0,0:0|0:0,0:0:0:0:
342,46,61095,1,0,1:0:0:0:
261,80,61260,1,0,1:0:0:0:
331,132,61425,2,0,B|361:174|361:174|403:187,1,94.4,8|0,0:0|0:0,0:0:0:0:
323,316,61755,2,0,L|302:209,1,94.4,0|0,1:0|0:0,0:0:0:0:
412,100,62095,1,8,0:0:0:0:
486,62,62266,6,0,B|505:145|465:126|479:207,1,141.6,0|0,1:0|0:0,0:0:0:0:
491,220,62595,2,0,B|472:276|472:276|495:306,1,94.4,8|0,0:0|0:0,0:0:0:0:
380,358,62925,1,0,1:0:0:0:
306,384,63090,1,0,1:0:0:0:
246,332,63255,1,8,0:0:0:0:
201,202,63419,1,2,0:0:0:0:
201,202,63502,1,2,0:0:0:0:
201,202,63584,6,0,L|196:102,1,94.4,0|0,1:0|1:0,0:0:0:0:
261,254,63914,1,8,0:0:0:0:
339,94,64079,1,8,0:0:0:0:
293,90,64161,1,8,0:0:0:0:
265,51,64244,2,0,P|226:26|179:25,1,94.4,0|0,1:0|1:0,0:0:0:0:
118,154,64573,1,8,0:0:0:0:
34,198,64738,1,2,0:0:0:0:
34,198,64820,1,2,0:0:0:0:
34,198,64903,6,0,L|29:292,1,94.4,0|0,1:0|1:0,0:0:0:0:
37,103,65233,2,0,L|32:8,1,94.4,8|0,0:0|0:0,0:0:0:0:
118,154,65562,1,0,1:0:0:0:
196,107,65727,1,0,1:0:0:0:
302,172,65892,2,0,B|350:194|350:194|442:170,1,141.6,8|0,0:0|0:0,0:0:0:0:
459,163,66222,5,0,1:0:0:0:
372,267,66382,1,0,1:0:0:0:
355,108,66569,2,0,L|350:6,1,94.4,8|8,0:0|0:0,0:0:0:0:
329,8,66805,1,8,0:0:0:0:
309,2,66884,6,0,P|243:17|217:83,1,132.750005064011,2|0,1:2|0:0,0:0:0:0:
227,90,67226,2,0,B|241:113|241:113|223:171,1,88.5000033760072,8|0,0:0|0:0,0:0:0:0:
189,246,67569,1,0,1:0:0:0:
189,246,67741,1,0,1:0:0:0:
388,349,67912,2,0,B|361:349|361:349|319:305,1,88.5000033760072,8|0,0:0|0:0,0:0:0:0:
271,238,68243,5,0,1:0:0:0:
271,238,68409,1,0,1:0:0:0:
82,359,68574,2,0,B|94:335|94:335|154:321,1,88.5000033760072,8|0,0:0|0:0,0:0:0:0:
236,313,68905,1,0,1:0:0:0:
236,313,69071,1,0,1:0:0:0:
146,91,69237,1,8,0:0:0:0:
74,125,69416,6,0,P|115:166|192:156,1,132.750005064011,0|0,1:0|0:0,0:0:0:0:
203,147,69747,2,0,B|229:96|229:96|276:81,1,88.5000033760072,8|0,0:0|0:0,0:0:0:0:
340,120,70078,1,0,1:0:0:0:
340,120,70244,1,0,1:0:0:0:
449,317,70410,2,0,B|391:319|391:319|355:286,1,88.5000033760072,8|0,0:0|0:0,0:0:0:0:
357,211,70739,5,0,1:0:0:0:
357,211,70904,1,0,1:0:0:0:
474,19,71069,2,0,B|505:67|505:67|494:115,1,88.5000033760072,8|0,0:0|0:0,0:0:0:0:
428,151,71399,1,0,1:0:0:0:
428,151,71563,1,0,1:0:0:0:
509,370,71728,1,8,0:0:0:0:
449,317,71893,6,0,B|380:321|412:373|324:380,1,132.750005064011,0|0,1:0|0:0,0:0:0:0:
315,372,72223,2,0,B|252:358|252:358|268:382,1,88.5000033760072,8|0,0:0|0:0,0:0:0:0:
328,295,72554,1,0,1:0:0:0:
328,295,72720,1,0,1:0:0:0:
190,149,72885,2,0,B|127:163|127:163|143:139,1,88.5000033760072,8|0,0:0|0:0,0:0:0:0:
203,226,73216,5,0,1:0:0:0:
203,226,73388,1,0,1:0:0:0:
65,372,73559,2,0,B|2:358|2:358|18:382,1,88.5000033760072,8|0,0:0|0:0,0:0:0:0:
78,295,73902,1,0,1:0:0:0:
78,295,74065,1,0,1:0:0:0:
289,207,74228,1,8,0:0:0:0:
262,137,74391,6,0,P|326:141|363:193,1,132.750005064011,0|0,1:0|0:0,0:0:0:0:
378,210,74728,2,0,B|437:206|437:206|454:170,1,88.5000033760072,8|0,0:0|0:0,0:0:0:0:
472,98,75065,1,0,1:0:0:0:
472,98,75233,1,0,1:0:0:0:
311,19,75402,1,8,0:0:0:0:
231,63,75562,1,2,0:0:0:0:
231,63,75642,1,2,0:0:0:0:
231,63,75722,6,0,L|122:72,1,88.5000033760072,0|0,1:0|1:0,0:0:0:0:
19,20,76060,1,8,0:0:0:0:
76,175,76226,1,8,0:0:0:0:
71,131,76309,1,8,0:0:0:0:
67,87,76392,1,0,1:0:0:0:
28,242,76560,1,0,1:0:0:0:
159,184,76726,1,8,0:0:0:0:
241,192,76893,1,2,0:0:0:0:
241,192,76976,1,2,0:0:0:0:
241,192,77060,6,0,L|337:174,1,88.5000033760072,0|0,1:0|1:0,0:0:0:0:
196,342,77393,2,0,B|181:307|181:307|193:259,1,88.5000033760072,8|0,0:0|0:0,0:0:0:0:
281,300,77726,1,0,1:0:0:0:
281,300,77871,1,0,1:0:0:0:
331,92,78070,2,0,B|315:127|315:127|327:175,1,88.5000033760072,8|0,0:0|0:0,0:0:0:0:
415,134,78415,5,0,1:0:0:0:
415,134,78572,1,0,1:0:0:0:
462,277,78760,1,8,0:0:0:0:
496,118,78915,1,8,0:0:0:0:
474,80,78993,1,8,0:0:0:0:
447,50,79070,6,0,B|367:59|398:11|314:17,1,132.750005064011,2|0,1:2|0:0,0:0:0:0:
304,28,79407,2,0,B|244:35|244:35|218:61,1,88.5000033760072,8|0,0:0|0:0,0:0:0:0:
147,52,79757,1,0,1:0:0:0:
147,52,79926,1,0,1:0:0:0:
0,190,80095,2,0,B|60:197|60:197|86:223,1,88.5000033760072,8|0,0:0|0:0,0:0:0:0:
157,214,80415,5,0,1:0:0:0:
157,214,80578,1,0,1:0:0:0:
304,352,80741,2,0,B|244:359|244:359|218:385,1,88.5000033760072,8|0,0:0|0:0,0:0:0:0:
147,376,81067,1,0,1:0:0:0:
147,376,81230,1,0,1:0:0:0:
338,276,81393,1,8,0:0:0:0:
414,311,81556,6,0,P|472:301|504:233,1,132.750005064011,0|0,1:0|0:0,0:0:0:0:
492,221,81887,2,0,B|484:167|484:167|499:120,1,88.5000033760072,8|0,0:0|0:0,0:0:0:0:
487,51,82218,1,0,1:0:0:0:
487,51,82384,1,0,1:0:0:0:
264,230,82550,2,0,B|314:250|314:250|347:286,1,88.5000033760072,8|0,0:0|0:0,0:0:0:0:
414,311,82881,5,0,1:0:0:0:
414,311,83047,1,0,1:0:0:0:
370,28,83213,2,0,B|327:61|327:61|279:72,1,88.5000033760072,8|0,0:0|0:0,0:0:0:0:
224,117,83544,1,0,1:0:0:0:
224,117,83714,1,0,1:0:0:0:
16,38,83884,1,8,0:0:0:0:
88,0,84055,6,0,B|113:73|68:63|94:143,1,132.750005064011,0|0,1:0|0:0,0:0:0:0:
101,149,84386,2,0,B|64:186|64:186|55:227,1,88.5000033760072,8|0,0:0|0:0,0:0:0:0:
150,230,84717,1,0,1:0:0:0:
150,230,84883,1,0,1:0:0:0:
305,68,85049,2,0,B|268:31|268:31|227:22,1,88.5000033760072,8|0,0:0|0:0,0:0:0:0:
224,117,85380,5,0,1:0:0:0:
224,117,85538,1,0,1:0:0:0:
386,272,85712,2,0,B|423:235|423:235|432:194,1,88.5000033760072,8|0,0:0|0:0,0:0:0:0:
337,191,86043,1,0,1:0:0:0:
337,191,86209,1,0,1:0:0:0:
182,353,86375,1,8,0:0:0:0:
257,333,86541,6,0,P|222:288|118:311,1,132.750005064011,0|0,1:0|0:0,0:0:0:0:
127,280,86874,2,0,B|104:330|104:330|66:340,1,88.5000033760072,8|0,0:0|0:0,0:0:0:0:
45,257,87196,1,0,1:0:0:0:
45,257,87357,1,0,1:0:0:0:
146,200,87519,2,0,B|169:154|169:154|157:59,1,132.750005064011,8|0,0:0|0:0,0:0:0:0:
155,51,87841,5,0,1:0:0:0:
237,109,88003,1,0,1:0:0:0:
328,66,88178,1,8,0:0:0:0:
384,216,88344,1,8,0:0:0:0:
340,205,88428,1,8,0:0:0:0:
319,166,88511,2,0,L|302:277,1,88.5000033760072,0|0,1:0|1:0,0:0:0:0:
404,351,88844,1,8,0:0:0:0:
484,298,89011,1,2,0:0:0:0:
484,298,89094,1,2,0:0:0:0:
484,298,89178,6,0,L|470:210,1,88.5000033760072,0|0,1:0|1:0,0:0:0:0:
491,62,89511,2,0,B|466:106|466:106|379:124,1,132.750005064011,8|0,0:0|0:0,0:0:0:0:
366,112,89844,1,0,1:0:0:0:
261,37,90011,1,0,1:0:0:0:
147,161,90178,2,0,B|122:116|122:116|35:98,1,132.750005064011,8|0,0:0|0:0,0:0:0:0:
20,95,90511,5,0,1:0:0:0:
265,213,90678,1,8,0:0:0:0:
491,62,90838,1,0,1:0:0:0:
420,363,91005,6,0,B|411:267|411:267|375:222|375:222|365:110,1,265.500010128022,4|0,1:2|0:0,0:0:0:0:
362,74,91342,1,8,0:0:0:0:
187,273,91510,2,0,B|254:314|254:314|321:295,1,147.5,0|0,0:0|1:0,0:0:0:0:
175,77,91847,2,0,B|108:58|108:58|41:99,1,147.5,0|8,1:0|0:0,0:0:0:0:
80,317,92184,2,0,B|108:279|103:219|103:219|96:247|76:260,1,147.5,0|0,1:0|0:0,0:0:0:0:
234,384,92519,1,0,1:0:0:0:
372,184,92686,2,0,B|469:150|469:150|520:180,1,147.5,8|0,0:0|0:0,0:0:0:0:
245,11,93019,2,0,B|224:46|246:89|246:89|231:116|231:116|283:150|259:241,1,221.25,0|0,1:0|0:0,0:0:0:0:
248,245,93353,1,8,0:0:0:0:
313,45,93519,5,0,1:0:0:0:
48,180,93685,1,0,0:0:0:0:
107,49,93852,1,8,0:0:0:0:
372,184,94018,1,0,0:0:0:0:
191,321,94185,2,0,B|149:286|154:235|154:235|149:269|135:282,1,147.5,0|0,1:0|1:0,0:0:0:0:
375,384,94519,1,8,0:0:0:0:
501,106,94685,2,0,B|452:133|401:93|401:93|406:117|406:117|358:94|309:138,1,221.25,0|0,1:0|0:0,0:0:0:0:
296,155,95019,5,0,1:0:0:0:
465,23,95185,1,8,0:0:0:0:
495,236,95352,1,0,0:0:0:0:
371,253,95519,1,0,1:0:0:0:
420,138,95685,1,0,0:0:0:0:
448,351,95852,1,8,0:0:0:0:
153,245,96031,6,0,B|103:290|103:290|256:268,1,221.25,0|0,1:0|0:0,0:0:0:0:
284,242,96355,1,8,0:0:0:0:
75,64,96517,2,0,B|43:124|43:124|66:200,1,147.5,0|0,0:0|1:0,0:0:0:0:
301,144,96841,1,0,1:0:0:0:
199,74,97014,1,8,0:0:0:0:
223,347,97178,2,0,B|246:377|246:377|259:243,1,147.5,8|0,0:0|0:0,0:0:0:0:
285,58,97506,5,0,1:0:0:0:
215,160,97670,1,8,0:0:0:0:
503,172,97834,2,0,B|429:162|429:162|374:214,1,147.5,8|0,0:0|0:0,0:0:0:0:
486,11,98162,1,0,1:0:0:0:
502,43,98244,1,0,1:0:0:0:
489,77,98326,2,0,B|442:88|413:63|413:63|397:75|397:75|351:29|275:61,1,221.25,8|0,0:0|0:0,0:0:0:0:
251,67,98653,6,0,B|171:41|171:41|109:64|109:64|26:53,1,221.25,4|0,1:2|0:0,0:0:0:0:
0,55,98999,2,0,B|67:79|67:79|62:156,1,147.5,8|0,0:0|0:0,0:0:0:0:
58,195,99249,1,8,0:0:0:0:
54,235,99332,1,0,1:0:0:0:
247,384,99482,1,0,1:0:0:0:
396,191,99659,1,8,0:0:0:0:
512,358,99825,6,0,B|436:336|436:336|392:356|392:356|287:330,1,221.25,8|0,0:0|0:0,0:0:0:0:
271,310,100159,1,0,1:0:0:0:
438,122,100325,2,0,B|476:173|476:173|456:254,1,147.5,8|0,0:0|1:0,0:0:0:0:
284,234,100639,1,8,0:0:0:0:
100,53,100824,1,8,0:0:0:0:
155,32,100908,1,8,0:0:0:0:
210,49,100993,1,8,0:0:0:0:
251,90,101078,1,8,0:0:0:0:
305,112,101162,1,8,0:0:0:0:
363,99,101247,1,8,0:0:0:0:
401,55,101332,6,0,B|296:60|296:60|242:118|242:118|97:133,1,265.500010128022,4|0,1:2|0:0,0:0:0:0:
135,152,101665,1,8,0:0:0:0:
285,372,101832,2,0,B|310:298|310:298|280:226,1,147.5,0|0,0:0|1:0,0:0:0:0:
475,126,102165,1,0,1:0:0:0:
438,339,102332,1,8,0:0:0:0:
224,303,102498,6,0,B|175:288|147:319|147:319|123:303|123:303|85:347|13:333,1,221.25,0|0,1:0|0:0,0:0:0:0:
2,304,102832,2,0,B|67:265|67:265|136:289,1,147.5,0|8,1:0|0:0,0:0:0:0:
328,180,103159,1,0,0:0:0:0:
259,0,103320,2,0,B|232:34|232:34|242:143|242:143|212:218,1,221.25,0|0,1:0|0:0,0:0:0:0:
237,232,103643,1,8,0:0:0:0:
419,128,103822,5,0,1:0:0:0:
152,95,103988,1,0,0:0:0:0:
376,33,104155,1,8,0:0:0:0:
409,300,104321,1,0,0:0:0:0:
258,373,104488,2,0,B|204:402|157:377|157:377|184:381|221:345,1,147.5,0|0,1:0|1:0,0:0:0:0:
327,178,104822,1,8,0:0:0:0:
73,69,104988,2,0,B|62:224|62:224|113:265,1,221.25,0|0,1:0|0:0,0:0:0:0:
149,276,105322,5,0,1:0:0:0:
398,199,105488,1,8,0:0:0:0:
256,157,105655,1,0,0:0:0:0:
348,107,105822,1,0,1:0:0:0:
448,291,105988,1,0,0:0:0:0:
238,285,106155,1,8,0:0:0:0:
389,23,106322,6,0,B|332:0|288:36|288:36|269:23|269:23|235:50|183:32,1,221.25,0|0,1:0|0:0,0:0:0:0:
153,9,106655,1,8,0:0:0:0:
13,154,106822,2,0,B|87:137|87:137|141:189,1,147.5,0|0,0:0|1:0,0:0:0:0:
191,359,107155,1,0,1:0:0:0:
398,199,107322,1,8,0:0:0:0:
348,384,107488,6,0,B|315:298|315:298|340:232,1,147.5,8|0,0:0|0:0,0:0:0:0:
223,152,107798,1,0,0:0:0:0:
473,119,107967,1,8,0:0:0:0:
331,9,108137,2,0,B|350:60|350:60|317:146,1,147.5,8|0,0:0|0:0,0:0:0:0:
182,237,108455,1,0,1:0:0:0:
165,205,108543,1,0,1:0:0:0:
132,185,108630,2,0,B|57:131|-15:204|-15:204|32:235,1,221.25,8|0,0:0|0:0,0:0:0:0:
56,251,108922,6,0,B|109:271|106:325|106:325|148:314|148:314|168:369|256:358,1,221.25,4|0,1:2|0:0,0:0:0:0:
250,357,109279,2,0,B|221:296|260:254|260:254|254:274|266:298,1,147.5,8|0,0:0|0:0,0:0:0:0:
297,304,109527,1,8,0:0:0:0:
333,296,109610,1,0,1:0:0:0:
450,188,109776,1,0,1:0:0:0:
252,0,109941,1,8,0:0:0:0:
226,107,110115,6,0,B|274:118|310:93|310:93|343:109|343:109|385:70|442:91,1,221.25,8|0,0:0|0:0,0:0:0:0:
459,113,110430,1,0,1:0:0:0:
268,183,110588,1,8,0:0:0:0:
111,52,110746,1,0,1:0:0:0:
0,279,110924,1,8,0:0:0:0:
333,296,111103,1,8,0:0:0:0:
298,247,111186,1,8,0:0:0:0:
239,248,111269,1,8,0:0:0:0:
195,288,111353,1,8,0:0:0:0:
178,343,111436,1,8,0:0:0:0:
124,368,111519,1,8,0:0:0:0:
73,338,111603,5,4,1:2:0:0:
92,303,111686,1,0,0:0:0:0:
95,264,111769,1,0,0:0:0:0:
81,227,111852,1,0,0:0:0:0:
53,199,111936,6,0,B|41:182|41:182|56:112,3,79.6500003038406,8|0|0|0,0:0|0:0|0:0|0:0,0:0:0:0:
164,31,112288,2,0,B|151:48|151:48|166:118,1,79.6500003038406,0|0,1:0|0:0,0:0:0:0:
290,145,112448,2,0,B|298:164|298:164|366:186,1,79.6500003038406,8|0,0:0|0:0,0:0:0:0:
451,92,112608,1,0,0:0:0:0:
490,307,112774,5,4,1:2:0:0:
486,283,112847,1,0,0:0:0:0:
482,259,112920,1,0,0:0:0:0:
478,235,112993,1,0,0:0:0:0:
474,211,113066,6,0,B|455:245|455:245|457:294,1,79.6500003038406,0|0,1:0|0:0,0:0:0:0:
350,357,113250,1,8,0:0:0:0:
315,375,113328,1,0,0:0:0:0:
275,376,113407,1,0,0:0:0:0:
239,359,113486,1,0,0:0:0:0:
215,328,113583,6,0,B|224:308|224:308|284:295,1,79.6500003038406,0|0,1:0|0:0,0:0:0:0:
490,384,113750,2,0,B|433:371|433:371|424:351,1,79.6500003038406,0|0,1:0|0:0,0:0:0:0:
289,145,113916,1,8,0:0:0:0:
224,115,114000,1,8,0:0:0:0:
176,142,114083,1,2,0:0:0:0:
158,174,114166,1,2,0:0:0:0:
182,249,114250,5,4,1:2:0:0:
140,251,114338,1,0,0:0:0:0:
106,234,114426,1,0,0:0:0:0:
83,202,114514,1,0,0:0:0:0:
82,161,114602,6,0,B|67:104|67:104|39:77,3,79.6500003038406,8|0|0|0,0:0|0:0|0:0|0:0,0:0:0:0:
34,268,114944,2,0,B|92:288|92:288|210:235,1,159.300000607681,0|8,1:0|0:0,0:0:0:0:
281,68,115287,1,0,0:0:0:0:
443,290,115446,5,4,1:2:0:0:
403,288,115524,1,0,0:0:0:0:
368,270,115603,1,0,0:0:0:0:
346,237,115681,1,0,0:0:0:0:
342,197,115760,2,0,B|355:180|355:180|368:110,1,79.6500003038406,0|0,1:0|0:0,0:0:0:0:
222,17,115924,2,0,B|137:22|137:22|105:58|105:58|-13:69,1,238.950000911522,8|0,0:0|0:0,0:0:0:0:
27,96,116239,5,0,1:0:0:0:
264,152,116397,1,0,1:0:0:0:
45,264,116590,1,8,1:2:0:0:
20,339,116673,1,0,1:2:0:0:
72,374,116756,1,0,1:0:0:0:
119,364,116840,1,0,1:0:0:0:
159,299,116923,5,4,1:2:0:0:
191,276,117009,1,0,0:0:0:0:
230,270,117096,1,0,0:0:0:0:
268,281,117183,1,0,0:0:0:0:
297,307,117269,6,0,B|316:327|316:327|391:324,3,79.6500003038406,8|0|0|0,0:0|0:0|0:0|0:0,0:0:0:0:
496,228,117616,2,0,B|477:208|477:208|402:211,1,79.6500003038406,0|0,1:0|0:0,0:0:0:0:
264,152,117790,2,0,B|316:154|316:154|335:134,1,79.6500003038406,8|0,0:0|0:0,0:0:0:0:
369,59,117963,1,0,0:0:0:0:
184,85,118136,6,0,B|159:119|159:119|165:179,3,79.6500003038406,4|0|0|0,1:2|0:0|0:0|0:0,0:0:0:0:
231,234,118419,2,0,L|323:239,1,79.6500003038406,0|0,1:0|0:0,0:0:0:0:
82,352,118585,2,0,B|62:301|62:301|167:366|167:366|232:347,1,238.950000911522,8|0,0:0|0:0,0:0:0:0:
103,237,118919,6,0,B|77:222|77:222|13:232,3,79.6500003038406,4|0|0|0,1:2|0:0|0:0|0:0,0:0:0:0:
162,156,119284,2,0,B|211:163|211:163|237:148,3,79.6500003038406,8|0|0|0,0:0|0:0|0:0|0:0,0:0:0:0:
314,30,119617,2,0,B|329:56|329:56|321:105,1,79.6500003038406,0|0,1:0|0:0,0:0:0:0:
395,222,119784,2,0,B|410:196|410:196|402:146,1,79.6500003038406,8|0,0:0|0:0,0:0:0:0:
310,238,119950,1,0,0:0:0:0:
460,50,120117,5,4,1:2:0:0:
464,73,120195,1,0,0:0:0:0:
468,96,120273,1,0,0:0:0:0:
473,119,120351,1,0,0:0:0:0:
478,142,120409,2,0,L|494:246,1,79.6500003038406,0|0,1:0|0:0,0:0:0:0:
439,362,120605,2,0,B|356:355|356:355|324:312|324:312|184:292,1,238.950000911522,8|0,0:0|0:0,0:0:0:0:
183,288,120938,5,0,1:0:0:0:
321,105,121105,1,0,1:0:0:0:
93,76,121271,1,8,0:0:0:0:
28,109,121355,1,8,0:0:0:0:
17,163,121438,1,0,0:0:0:0:
33,198,121521,1,0,0:0:0:0:
100,221,121605,6,0,B|121:228|121:228|186:203,3,79.6500003038406,4|0|0|0,1:2|0:0|0:0|0:0,0:0:0:0:
180,96,121980,1,8,0:0:0:0:
213,75,122059,1,0,0:0:0:0:
252,69,122138,1,0,0:0:0:0:
290,80,122218,1,0,0:0:0:0:
321,105,122304,6,0,B|346:117|346:117|422:91,1,79.6500003038406,0|0,1:0|0:0,0:0:0:0:
512,0,122472,2,0,B|489:15|489:15|473:94,1,79.6500003038406,8|0,0:0|0:0,0:0:0:0:
464,145,122641,1,0,0:0:0:0:
503,346,122809,5,4,1:2:0:0:
479,343,122885,1,0,0:0:0:0:
455,340,122962,1,0,0:0:0:0:
431,338,123038,1,0,0:0:0:0:
409,336,123115,2,0,B|386:330|386:330|337:368,1,79.6500003038406,0|0,1:0|0:0,0:0:0:0:
179,331,123281,2,0,B|202:337|202:337|251:299,3,79.6500003038406,8|0|0|0,0:0|0:0|0:0|0:0,0:0:0:0:
266,172,123633,6,0,B|255:149|255:149|243:225,1,79.6500003038406,0|0,1:0|0:0,0:0:0:0:
403,242,123798,2,0,B|414:265|414:265|426:189,1,79.6500003038406,0|0,1:0|0:0,0:0:0:0:
244,48,123964,1,8,1:2:0:0:
318,19,124047,1,0,1:0:0:0:
371,56,124130,1,0,1:0:0:0:
381,102,124213,1,0,1:0:0:0:
350,171,124295,5,4,1:2:0:0:
388,179,124381,1,0,0:0:0:0:
425,166,124467,1,0,0:0:0:0:
450,136,124553,1,0,0:0:0:0:
457,97,124639,6,0,B|451:71|451:71|479:2,3,79.6500003038406,8|0|0|0,0:0|0:0|0:0|0:0,0:0:0:0:
303,98,124979,2,0,B|271:82|271:82|205:73,1,79.6500003038406,0|0,1:0|0:0,0:0:0:0:
83,171,125150,2,0,B|126:165|126:165|158:149,1,79.6500003038406,8|0,0:0|0:0,0:0:0:0:
138,62,125320,1,0,0:0:0:0:
24,226,125491,5,4,1:2:0:0:
10,206,125566,1,0,0:0:0:0:
3,183,125641,1,0,0:0:0:0:
3,159,125717,1,0,0:0:0:0:
10,137,125792,6,0,B|26:82|26:82|-3:107,1,79.6500003038406,0|0,0:1|0:0,0:0:0:0:
123,244,125958,2,0,L|224:251,3,79.6500003038406,8|0|0|0,0:0|0:0|0:0|0:0,0:0:0:0:
269,277,126333,2,0,B|295:309|295:309|286:361,1,79.6500003038406,0|0,1:0|0:0,0:0:0:0:
105,377,126509,2,0,B|79:345|79:345|88:293,1,79.6500003038406,0|0,1:0|0:0,0:0:0:0:
126,171,126648,2,0,B|226:179|226:179|260:157|260:157|403:168,1,238.950000911522,2|0,0:0|0:0,0:0:0:0:
180,98,126981,6,0,B|148:73|148:73|155:-13,26,118,4|0|0|0|0|0|0|0|0|0|0|0|0|0|0|0|0|0|0|0|0|0|0|0|0|0|0,1:2|0:0|0:0|0:0|0:0|0:0|0:0|0:0|0:0|0:0|0:0|0:0|0:0|0:0|0:0|0:0|0:0|0:0|0:0|0:0|0:0|0:0|0:0|0:0|0:0|0:0|0:0,0:0:0:0:
331,12,129095,2,0,B|306:44|306:44|228:37,1,118,0|0,1:0|0:0,0:0:0:0:
456,30,129403,6,0,B|458:116|458:116|490:152|490:152|496:265,1,238.950000911522,2|0,1:2|0:0,0:0:0:0:
512,365,129737,6,0,B|439:328|439:328|250:388,1,265.500010128022,4|0,1:2|0:0,0:0:0:0:
235,378,130077,1,8,0:0:0:0:
361,108,130248,2,0,B|388:177|388:177|372:249,1,147.5,0|0,0:0|1:0,0:0:0:0:
260,58,130589,1,0,1:0:0:0:
187,301,130759,1,8,0:0:0:0:
65,225,130930,2,0,B|113:201|165:225|165:225|137:232|112:274,1,147.5,0|0,1:0|0:0,0:0:0:0:
0,87,131256,1,0,1:0:0:0:
184,25,131412,2,0,B|93:-5|93:-5|47:19,1,147.5,8|0,0:0|0:0,0:0:0:0:
244,188,131749,2,0,B|357:198|357:198|387:177|387:177|483:168,1,221.25,0|0,1:0|0:0,0:0:0:0:
488,187,132086,1,8,0:0:0:0:
332,37,132267,5,0,1:0:0:0:
288,274,132426,1,0,0:0:0:0:
512,336,132586,1,8,0:0:0:0:
468,99,132752,1,0,0:0:0:0:
239,106,132919,2,0,B|187:111|165:160|165:160|172:128|157:112,1,147.5,0|0,1:0|1:0,0:0:0:0:
422,20,133252,1,8,0:0:0:0:
406,330,133419,2,0,B|419:276|419:276|375:165|375:165|393:107,1,221.25,0|0,1:0|0:0,0:0:0:0:
388,84,133752,5,0,1:0:0:0:
189,42,133919,1,8,0:0:0:0:
53,193,134086,1,0,0:0:0:0:
165,160,134252,1,0,1:0:0:0:
81,80,134419,1,0,0:0:0:0:
25,306,134586,1,8,0:0:0:0:
251,362,134752,6,0,B|196:338|154:374|154:374|133:359|133:359|99:399|27:382,1,221.25,0|0,1:0|0:0,0:0:0:0:
13,378,135085,1,8,0:0:0:0:
282,279,135252,2,0,B|333:297|340:348|340:348|340:319|372:297,1,147.5,0|0,0:0|1:0,0:0:0:0:
459,163,135585,1,0,1:0:0:0:
199,230,135752,1,8,0:0:0:0:
22,124,135918,2,0,B|75:90|75:90|171:116,1,147.5,8|0,0:0|0:0,0:0:0:0:
439,270,136252,5,0,1:0:0:0:
372,10,136419,1,8,0:0:0:0:
243,132,136585,2,0,B|296:166|296:166|392:140,1,147.5,8|0,0:0|0:0,0:0:0:0:
463,22,136909,1,0,1:0:0:0:
498,32,136988,1,0,1:0:0:0:
501,68,137067,2,0,B|458:41|413:75|413:75|367:34|367:34|322:43|276:1,1,221.25,8|0,0:0|0:0,0:0:0:0:
272,14,137383,6,0,B|200:45|200:45|139:28|139:28|55:64,1,221.25,4|0,1:2|0:0,0:0:0:0:
37,85,137735,2,0,B|97:68|133:110|133:110|114:95|84:107,1,147.5,8|0,0:0|0:0,0:0:0:0:
81,138,137985,1,8,0:0:0:0:
84,177,138068,1,0,1:0:0:0:
253,252,138222,1,0,1:0:0:0:
9,346,138401,1,8,0:0:0:0:
178,372,138566,6,0,B|162:295|162:295|194:188|194:188|164:125,1,221.25,8|0,0:0|0:0,0:0:0:0:
199,127,138898,1,0,1:0:0:0:
415,31,139063,1,8,0:0:0:0:
511,247,139229,1,0,1:0:0:0:
275,222,139395,1,8,0:0:0:0:
178,5,139561,1,8,0:0:0:0:
119,0,139644,1,8,0:0:0:0:
73,36,139726,1,8,0:0:0:0:
67,94,139809,1,8,0:0:0:0:
99,143,139892,1,8,0:0:0:0:
84,200,139975,1,8,0:0:0:0:
30,225,140058,6,0,B|87:226|110:270|110:270|134:260|134:260|168:339|265:317,1,265.500010128022,4|0,1:2|0:0,0:0:0:0:
277,299,140389,1,8,0:0:0:0:
41,304,140555,2,0,B|5:322|5:322|128:364,1,147.5,0|0,0:0|1:0,0:0:0:0:
317,360,140886,1,0,1:0:0:0:
286,138,141052,1,8,0:0:0:0:
438,63,141218,2,0,B|354:74|354:74|322:39|322:39|199:51,1,221.25,0|0,1:0|0:0,0:0:0:0:
196,47,141549,2,0,B|290:24|290:24|337:-9,1,147.5,0|8,1:0|0:0,0:0:0:0:
510,91,141881,1,0,0:0:0:0:
457,378,142046,2,0,B|417:307|417:307|445:163,1,221.25,0|0,1:0|0:0,0:0:0:0:
451,138,142378,1,8,0:0:0:0:
131,239,142569,6,0,B|134:240|134:240|149:230|149:230|166:237|166:237|181:228|181:228|197:234|197:234|213:225|213:225|229:231|229:231|245:222|245:222|261:229|261:229|276:219|276:219|293:226|293:226|308:216|308:216|325:223|325:223|340:214,1,236,2|0,1:2|0:0,0:0:0:0:
340,214,144044,1,0,0:0:0:0:
299,147,144211,2,0,L|304:105,1,35.3999989196778
365,65,144544,2,0,L|360:23,1,35.3999989196778
285,7,144878,1,0,0:0:0:0:
218,122,145044,6,0,P|197:130|171:128,1,35.3999989196778,2|0,0:0|0:0,0:0:0:0:
121,170,145368,2,0,P|103:156|91:132,1,35.3999989196778
8,84,145692,2,0,P|18:98|32:108,1,35.3999989196778,2|0,0:0|0:0,0:0:0:0:
96,70,146016,2,0,P|113:68|129:60,1,35.3999989196778
121,170,146341,2,0,P|110:155|96:145,1,35.3999989196778,2|0,0:0|0:0,0:0:0:0:
33,184,146665,2,0,P|15:185|0:193,1,35.3999989196778
38,261,146989,2,0,P|73:276|119:273,1,70.7999978393555,2|0,0:0|0:0,0:0:0:0:
247,331,147638,6,0,B|306:320|323:233|242:189|186:230|185:280|185:280|184:322|149:353|109:356,1,354,2|0,0:0|0:0,0:0:0:0:
