osu file format v14

[General]
AudioFilename: audio.mp3
AudioLeadIn: 0
PreviewTime: 33663
Countdown: 0
SampleSet: Soft
StackLeniency: 0.4
Mode: 0
LetterboxInBreaks: 0
WidescreenStoryboard: 0

[Editor]
DistanceSpacing: 1
BeatDivisor: 4
GridSize: 8
TimelineZoom: 2.867273

[Metadata]
Title:Gyroscope
TitleUnicode:Gyroscope
Artist:The Dismemberment Plan
ArtistUnicode:The Dismemberment Plan
Creator:zglock
Version:Normal
Source:
Tags:Emergency and & I indie math rock english
BeatmapID:2856013
BeatmapSetID:1225970

[Difficulty]
HPDrainRate:3
CircleSize:3
OverallDifficulty:4
ApproachRate:5.6
SliderMultiplier:1.04
SliderTickRate:0.5

[Events]
//Background and Video events
0,0,"box.jpg",0,0
//Break Periods
//Storyboard Layer 0 (Background)
//Storyboard Layer 1 (Fail)
//Storyboard Layer 2 (Pass)
//Storyboard Layer 3 (Foreground)
//Storyboard Layer 4 (Overlay)
//Storyboard Sound Samples

[TimingPoints]
238,329.67032967033,4,2,1,80,1,0
2710,331.491712707183,4,2,1,80,1,0
5196,333.333333333334,4,2,1,80,1,0
7196,324.324324324325,4,2,1,80,1,0
7520,352.941176470589,4,2,1,80,1,0
7696,327.868852459017,4,2,1,80,1,0
8679,317.460317460318,4,2,1,80,1,0
8996,333.333333333334,4,2,1,80,1,0
9329,338.983050847458,4,2,1,80,1,0
9667,324.324324324325,4,2,1,80,1,0
9991,357.142857142858,4,2,1,80,1,0
10169,329.67032967033,4,2,1,70,1,0
10169,-111.111111111111,4,2,1,70,0,0
10498,338.983050847458,4,2,1,70,1,0
10498,-111.111111111111,4,2,1,70,0,0
11514,329.67032967033,4,2,1,70,1,0
11514,-111.111111111111,4,2,1,70,0,0
12503,337.078651685394,4,2,1,70,1,0
12503,-111.111111111111,4,2,1,70,0,0
13008,338.983050847458,4,2,1,70,1,0
13008,-111.111111111111,4,2,1,70,0,0
14702,319.148936170213,4,2,1,70,1,0
14702,-111.111111111111,4,2,1,70,0,0
15021,344.827586206897,4,2,1,70,1,0
15021,-111.111111111111,4,2,1,70,0,0
15193,329.67032967033,4,2,1,70,1,0
15193,-111.111111111111,4,2,1,70,0,0
15852,342.857142857143,4,2,1,70,1,0
15852,-111.111111111111,4,2,1,70,0,0
16537,329.67032967033,4,2,1,70,1,0
16537,-111.111111111111,4,2,1,70,0,0
17690,331.491712707183,4,2,1,70,1,0
17690,-111.111111111111,4,2,1,70,0,0
18684,324.324324324325,4,2,1,70,1,0
18684,-111.111111111111,4,2,1,70,0,0
19008,329.67032967033,4,2,1,70,1,0
19008,-111.111111111111,4,2,1,70,0,0
19832,-111.731843575419,4,2,1,70,0,0
19997,333.333333333334,4,2,1,70,1,0
19997,-110.987791342952,4,2,1,70,0,0
20997,333.333333333334,4,2,1,70,1,0
20997,-111.111111111111,4,2,1,70,0,0
24663,326.08695652174,4,2,1,70,1,0
24663,-111.111111111111,4,2,1,70,0,0
24826,331.491712707183,4,2,1,70,1,0
24826,-111.111111111111,4,2,1,70,0,0
25820,315.789473684211,4,2,1,70,1,0
25820,-111.111111111111,4,2,1,70,0,0
26293,361.445783132531,4,2,1,70,1,0
26293,-111.111111111111,4,2,1,70,0,0
26473,326.08695652174,4,2,1,70,1,0
26473,-111.111111111111,4,2,1,70,0,0
27288,331.491712707183,4,2,1,70,1,0
27288,-111.111111111111,4,2,1,70,0,0
28945,322.580645161291,4,2,1,70,1,0
28945,-111.111111111111,4,2,1,70,0,0
29267,326.08695652174,4,2,1,70,1,0
29267,-111.111111111111,4,2,1,70,0,0
29756,346.820809248556,4,2,1,70,1,0
29756,-111.111111111111,4,2,1,70,0,0
30102,329.670329670331,4,2,1,70,1,0
30102,-111.111111111111,4,2,1,70,0,0
30761,322.580645161291,4,2,1,70,1,0
30761,-111.111111111111,4,2,1,70,0,0
32373,337.078651685394,4,2,1,70,1,0
32373,-111.111111111111,4,2,1,70,0,0
32710,322.580645161291,4,2,1,70,1,0
32710,-111.111111111111,4,2,1,70,0,0
33032,338.983050847459,4,2,1,70,1,0
33032,-111.111111111111,4,2,1,70,0,0
33370,326.08695652174,4,2,1,70,1,0
33370,-111.111111111111,4,2,1,70,0,0
34185,335.195530726258,4,2,1,80,1,1
34520,-100,4,2,1,80,0,0
35190,340.909090909092,4,2,1,80,1,0
35871,324.324324324325,4,2,1,80,1,0
36195,335.195530726258,4,2,1,80,1,0
36530,348.837209302327,4,2,1,80,1,0
36704,329.670329670331,4,2,1,80,1,0
37363,340.909090909092,4,2,1,80,1,0
37874,-98.0392156862745,4,2,1,80,0,0
38044,327.868852459017,4,2,1,80,1,0
39027,370.370370370371,4,2,1,80,1,0
39212,326.08695652174,4,2,1,80,1,0
41005,-103.092783505155,4,2,1,80,0,0
41168,348.837209302327,4,2,1,80,1,0
41516,322.580645161291,4,2,1,80,1,0
41838,342.857142857144,4,2,1,80,1,0
42523,312.500000000001,4,2,1,80,1,0
42835,377.358490566039,4,2,1,80,1,0
43023,317.460317460318,4,2,1,80,1,0
43657,389.610389610391,4,2,1,80,1,0
43851,326.08695652174,4,2,1,80,1,0
44014,325.203252032521,4,2,1,80,1,0
44501,333.333333333334,4,2,1,80,1,1
44834,-100,4,2,1,80,0,0
45834,331.491712707183,4,2,1,80,1,0
46994,327.868852459017,4,2,1,80,1,0
47977,338.983050847459,4,2,1,80,1,0
48146,-98.0392156862745,4,2,1,80,0,0
48315,329.670329670331,4,2,1,80,1,0
49468,326.08695652174,4,2,1,80,1,0
50446,337.078651685394,4,2,1,80,1,0
50614,-98.5221674876847,4,2,1,80,0,0
50783,326.08695652174,4,2,1,80,1,0
51761,314.136125654451,4,2,1,80,1,0
52075,344.827586206898,4,2,1,80,1,0
52764,310.880829015545,4,2,1,80,1,0
53074,357.142857142858,4,2,1,80,1,0
53252,320.855614973263,4,2,1,80,1,0
53572,317.460317460318,4,2,1,80,1,0
53889,333.333333333334,4,2,1,80,1,0
54722,348.837209302326,4,2,1,70,1,0
54722,-111.111111111111,4,2,1,70,0,0
55419,342.857142857144,4,2,1,70,1,0
55419,-111.111111111111,4,2,1,70,0,0
55761,327.868852459017,4,2,1,70,1,0
55761,-111.111111111111,4,2,1,70,0,0
57072,346.820809248556,4,2,1,70,1,0
57072,-111.111111111111,4,2,1,70,0,0
57245,333.333333333334,4,2,1,70,1,0
57245,-111.111111111111,4,2,1,70,0,0
58578,346.820809248556,4,2,1,70,1,0
58578,-111.111111111111,4,2,1,70,0,0
58924,329.670329670331,4,2,1,70,1,0
58924,-111.111111111111,4,2,1,70,0,0
59583,314.136125654451,4,2,1,70,1,0
59583,-111.111111111111,4,2,1,70,0,0
59897,368.098159509203,4,2,1,70,1,0
59897,-111.111111111111,4,2,1,70,0,0
60081,342.857142857144,4,2,1,70,1,0
60081,-111.111111111111,4,2,1,70,0,0
60423,319.148936170214,4,2,1,70,1,0
60423,-111.111111111111,4,2,1,70,0,0
60582,368.098159509204,4,2,1,70,1,0
60582,-111.111111111111,4,2,1,70,0,0
60766,329.67032967033,4,2,1,70,1,0
60766,-111.111111111111,4,2,1,70,0,0
61755,340.909090909092,4,2,1,70,1,0
61755,-111.111111111111,4,2,1,70,0,0
62266,329.67032967033,4,2,1,70,1,0
62266,-111.111111111111,4,2,1,70,0,0
66222,320.855614973263,4,2,1,70,1,0
66222,-111.111111111111,4,2,1,70,0,0
66382,375.000000000001,4,2,1,70,1,0
66382,-111.111111111111,4,2,1,70,0,0
66569,315.789473684211,4,2,1,70,1,0
66569,-111.111111111111,4,2,1,70,0,0
66884,342.857142857143,4,2,1,70,1,0
66884,-111.111111111111,4,2,1,70,0,0
67912,331.491712707183,4,2,1,70,1,0
67912,-111.111111111111,4,2,1,70,0,0
69237,359.281437125749,4,2,1,70,1,0
69237,-111.111111111111,4,2,1,70,0,0
69416,331.491712707183,4,2,1,70,1,0
69416,-111.111111111111,4,2,1,70,0,0
70410,329.67032967033,4,2,1,70,1,0
70410,-111.111111111111,4,2,1,70,0,0
71893,330.123796423659,4,2,1,70,1,0
71893,-111.111111111111,4,2,1,70,0,0
72223,331.491712707183,4,2,1,70,1,0
72223,-111.111111111111,4,2,1,70,0,0
73217,342.857142857144,4,2,1,70,1,0
73217,-111.111111111111,4,2,1,70,0,0
73902,326.08695652174,4,2,1,70,1,0
73902,-111.111111111111,4,2,1,70,0,0
74391,337.078651685394,4,2,1,70,1,0
74391,-111.111111111111,4,2,1,70,0,0
75402,320.855614973262,4,2,1,70,1,0
75402,-111.111111111111,4,2,1,70,0,0
75722,338.983050847458,4,2,1,70,1,0
75722,-111.111111111111,4,2,1,70,0,0
75891,-109.89010989011,4,2,1,70,0,0
76060,333.333333333334,4,2,1,70,1,0
76060,-111.111111111111,4,2,1,70,0,0
77726,291.262135922331,4,2,1,70,1,0
77726,-111.111111111111,4,2,1,70,0,0
77871,398.671096345516,4,2,1,70,1,0
77871,-111.111111111111,4,2,1,70,0,0
78070,345.323741007195,4,2,1,70,1,0
78070,-111.111111111111,4,2,1,70,0,0
78415,315.789473684211,4,2,1,70,1,0
78415,-111.111111111111,4,2,1,70,0,0
78572,377.358490566039,4,2,1,70,1,0
78572,-111.111111111111,4,2,1,70,0,0
78760,310.880829015544,4,2,1,70,1,0
78760,-111.111111111111,4,2,1,70,0,0
79070,337.078651685394,4,2,1,70,1,0
79070,-111.111111111111,4,2,1,70,0,0
79407,350.877192982457,4,2,1,70,1,0
79407,-111.111111111111,4,2,1,70,0,0
79757,338.983050847458,4,2,1,70,1,0
79757,-111.111111111111,4,2,1,70,0,0
80095,320.855614973263,4,2,1,70,1,0
80095,-111.111111111111,4,2,1,70,0,0
80415,326.08695652174,4,2,1,70,1,0
80415,-111.111111111111,4,2,1,70,0,0
81556,331.491712707183,4,2,1,70,1,0
81556,-111.111111111111,4,2,1,70,0,0
83544,340.909090909092,4,2,1,70,1,0
83544,-111.111111111111,4,2,1,70,0,0
84055,331.491712707183,4,2,1,70,1,0
84055,-111.111111111111,4,2,1,70,0,0
85380,317.460317460318,4,2,1,70,1,0
85380,-111.111111111111,4,2,1,70,0,0
85538,348.837209302326,4,2,1,70,1,0
85538,-111.111111111111,4,2,1,70,0,0
85712,331.491712707183,4,2,1,70,1,0
85712,-111.111111111111,4,2,1,70,0,0
86541,333.333333333334,4,2,1,70,1,0
86541,-111.111111111111,4,2,1,70,0,0
86874,322.580645161291,4,2,1,70,1,0
86874,-106.382978723404,4,2,1,70,0,0
88003,350.877192982457,4,2,1,70,1,0
88003,-108.225108225108,4,2,1,70,0,0
88178,333.333333333334,4,2,1,70,1,0
88178,-111.111111111111,4,2,1,70,0,0
89178,333.333333333334,4,2,1,70,1,0
89178,-111.111111111111,4,2,1,70,0,0
90678,320.855614973263,4,2,1,70,1,0
90678,-111.111111111111,4,2,1,70,0,0
90838,335.195530726258,4,2,1,70,1,0
90838,-111.111111111111,4,2,1,70,0,0
91005,337.078651685394,4,2,1,70,1,1
91342,-100,4,2,1,80,0,0
92184,-99.304865938431,4,2,1,80,0,0
92353,333.333333333334,4,2,1,70,1,0
93519,333.333333333334,4,2,1,70,1,0
95852,359.281437125749,4,2,1,70,1,0
96031,324.324324324325,4,2,1,70,1,0
96841,346.820809248556,4,2,1,70,1,0
97014,327.868852459017,4,2,1,70,1,0
98653,346.820809248556,4,2,1,70,1,0
98999,333.333333333334,4,2,1,70,1,0
99332,300.000000000001,4,2,1,70,1,0
99482,355.029585798817,4,2,1,70,1,0
99659,333.333333333334,4,2,1,70,1,0
100159,333.333333333333,4,2,1,70,1,0
100325,258.620689655173,4,2,1,70,1,0
100454,370.370370370371,4,2,1,70,1,0
100824,338.983050847459,4,2,1,70,1,0
101332,333.333333333334,4,2,1,70,1,1
101665,-100,4,2,1,80,0,0
102998,322.580645161291,4,2,1,70,1,0
103643,359.281437125749,4,2,1,70,1,0
103822,333.333333333334,4,2,1,70,1,0
106322,333.333333333334,4,2,1,70,1,0
107488,-93.4579439252336,4,2,1,80,0,0
107655,287.08133971292,4,2,1,70,1,0
107798,338.983050847459,4,2,1,70,1,0
107967,340.909090909092,4,2,1,70,1,0
108137,287.08133971292,4,2,1,70,1,0
108137,-111.111111111111,4,2,1,80,0,0
108280,350.877192982457,4,2,1,70,1,0
108630,292.682926829269,4,2,1,70,1,0
108922,357.142857142858,4,2,1,70,1,0
109279,331.491712707183,4,2,1,70,1,0
109941,348.837209302326,4,2,1,70,1,0
110115,315.789473684211,4,2,1,70,1,0
110746,357.142857142858,4,2,1,70,1,0
111103,333.333333333334,4,2,1,70,1,0
111603,333.333333333334,4,2,1,70,1,1
111603,-95.2380952380952,4,2,1,80,0,1
111936,331.491712707183,4,2,1,70,1,1
111936,-95.2380952380952,4,2,1,80,0,1
112288,320.855614973263,4,2,1,70,1,1
112288,-95.2380952380952,4,2,1,80,0,1
112608,333.333333333334,4,2,1,70,1,1
112608,-95.2380952380952,4,2,1,80,0,1
112774,292.682926829269,4,2,1,70,1,1
112774,-95.2380952380952,4,2,1,80,0,1
113066,368.098159509203,4,2,1,70,1,1
113066,-95.2380952380952,4,2,1,80,0,1
113250,315.789473684211,4,2,1,70,1,1
113250,-95.2380952380952,4,2,1,80,0,1
113583,333.333333333334,4,2,1,70,1,1
113583,-95.2380952380952,4,2,1,80,0,1
114250,352.941176470589,4,2,1,70,1,1
114250,-95.2380952380952,4,2,1,80,0,1
114602,319.148936170214,4,2,1,70,1,1
114602,-95.2380952380952,4,2,1,80,0,1
114944,342.857142857144,4,2,1,70,1,1
114944,-95.2380952380952,4,2,1,80,0,1
115287,319.148936170213,4,2,1,70,1,1
115287,-95.2380952380952,4,2,1,80,0,1
115446,314.136125654451,4,2,1,70,1,1
115446,-95.2380952380952,4,2,1,80,0,1
115760,329.67032967033,4,2,1,70,1,1
115760,-95.2380952380952,4,2,1,80,0,1
115924,315.789473684211,4,2,1,70,1,1
115924,-95.2380952380952,4,2,1,80,0,1
116397,387.096774193549,4,2,1,70,1,1
116397,-95.2380952380952,4,2,1,80,0,1
116590,333.333333333334,4,2,1,70,1,1
116590,-95.2380952380952,4,2,1,80,0,1
116923,346.820809248555,4,2,1,70,1,1
116923,-95.2380952380952,4,2,1,80,0,1
117269,324.324324324325,4,2,1,70,1,1
117269,-95.2380952380952,4,2,1,80,0,1
117616,346.820809248556,4,2,1,70,1,1
117616,-95.2380952380952,4,2,1,80,0,1
118136,283.018867924529,4,2,1,70,1,1
118136,-95.2380952380952,4,2,1,80,0,1
118419,333.333333333334,4,2,1,70,1,1
118419,-95.2380952380952,4,2,1,80,0,1
118919,365.853658536586,4,2,1,70,1,1
118919,-95.2380952380952,4,2,1,80,0,1
119284,333.333333333334,4,2,1,70,1,1
119284,-95.2380952380952,4,2,1,80,0,1
120117,312.500000000001,4,2,1,70,1,1
120117,-95.2380952380952,4,2,1,80,0,1
120409,392.156862745099,4,2,1,70,1,1
120409,-95.2380952380952,4,2,1,80,0,1
120605,333.333333333334,4,2,1,70,1,1
120605,-95.2380952380952,4,2,1,80,0,1
121605,375.000000000001,4,2,1,70,1,1
121605,-95.2380952380952,4,2,1,80,0,1
121980,317.460317460318,4,2,1,70,1,1
121980,-95.2380952380952,4,2,1,80,0,1
122304,337.078651685394,4,2,1,70,1,1
122304,-95.2380952380952,4,2,1,80,0,1
122809,306.122448979592,4,2,1,70,1,1
122809,-95.2380952380952,4,2,1,80,0,1
123115,333.333333333334,4,2,1,70,1,1
123115,-95.2380952380952,4,2,1,80,0,1
123281,309.278350515464,4,2,1,70,1,1
123281,-95.2380952380952,4,2,1,80,0,1
123633,331.491712707183,4,2,1,70,1,1
123633,-95.2380952380952,4,2,1,80,0,1
124295,344.827586206897,4,2,1,70,1,1
124295,-95.2380952380952,4,2,1,80,0,1
124639,314.136125654451,4,2,1,70,1,1
124639,-95.2380952380952,4,2,1,80,0,1
124979,340.909090909092,4,2,1,70,1,1
124979,-95.2380952380952,4,2,1,80,0,1
125491,301.507537688443,4,2,1,70,1,1
125491,-95.2380952380952,4,2,1,80,0,1
125792,333.333333333334,4,2,1,70,1,1
125792,-95.2380952380952,4,2,1,80,0,1
125958,375.000000000001,4,2,1,70,1,1
125958,-95.2380952380952,4,2,1,80,0,1
126333,352.941176470589,4,2,1,70,1,1
126333,-95.2380952380952,4,2,1,80,0,1
126509,279.069767441861,4,2,1,70,1,1
126509,-95.2380952380952,4,2,1,80,0,1
126648,333.333333333334,4,2,1,70,1,1
126648,-95.2380952380952,4,2,1,80,0,1
126981,304.568527918782,4,2,1,70,1,1
126981,-94.6969696969697,4,2,1,80,0,1
127057,-94.6969696969697,4,2,1,5,0,1
129095,308.483290488432,4,2,1,80,1,1
129403,333.333333333334,4,2,1,70,1,1
129653,-100,4,2,1,70,0,0
129737,340.909090909092,4,2,1,70,1,1
130077,-100,4,2,1,70,0,0
130930,-96.1538461538461,4,2,1,80,0,0
131100,312.500000000001,4,2,1,70,1,0
131412,337.078651685394,4,2,1,70,1,0
132086,363.636363636364,4,2,1,70,1,0
132267,319.148936170213,4,2,1,70,1,0
132586,333.333333333334,4,2,1,70,1,0
134752,333.333333333334,4,2,1,70,1,0
136585,-97.0873786407767,4,2,1,80,0,0
136752,315.789473684211,4,2,1,70,1,0
137383,352.941176470589,4,2,1,70,1,0
137735,333.333333333334,4,2,1,70,1,0
138068,309.278350515464,4,2,1,70,1,0
138222,359.281437125749,4,2,1,70,1,0
138401,331.491712707183,4,2,1,70,1,0
140058,331.491712707183,4,2,1,70,1,1
140389,-100,4,2,1,70,0,0
142378,382.165605095542,4,2,1,70,1,0
142569,309.278350515465,4,2,1,70,1,0
142569,-117.647058823529,4,2,1,70,0,0
142878,333.333333333334,4,2,1,50,1,0
144044,-117.647058823529,4,2,1,35,0,0
145044,324.324324324325,4,2,2,70,1,0
145044,-117.647058823529,4,2,2,35,0,0
147638,333.333333333334,4,2,2,70,1,0
147638,-117.647058823529,4,2,2,35,0,0
148638,355.029585798817,4,2,2,70,1,0

[Colours]
Combo1 : 207,154,155
Combo2 : 255,255,166
Combo3 : 156,239,204
Combo4 : 237,187,71
Combo5 : 253,190,153
Combo6 : 138,198,230

[HitObjects]
272,55,238,5,2,1:2:0:0:
190,118,567,2,0,B|166:153|166:153|178:220,1,104,8|0,0:0|1:0,0:0:0:0:
239,296,1227,1,8,0:0:0:0:
322,234,1556,2,0,B|366:227|366:227|388:238|388:238|431:232,1,104,0|8,1:0|0:0,0:0:0:0:
469,140,2216,2,0,L|475:81,1,52,0|0,1:0|0:0,0:0:0:0:
459,38,2545,1,8,0:0:0:0:
459,38,2710,6,0,B|424:31|424:31|359:51,1,104,0|8,1:0|0:0,0:0:0:0:
255,41,3372,2,0,L|182:29,1,52,0|0,1:0|1:0,0:0:0:0:
158,6,3704,1,8,0:0:0:0:
62,46,4035,2,0,B|37:75|37:75|48:150,1,104,0|8,1:0|0:0,0:0:0:0:
130,202,4698,2,0,L|118:321,1,104,0|8,1:0|0:0,0:0:0:0:
145,350,5196,6,0,B|189:347|189:347|204:333|204:333|249:323,1,104,0|8,1:0|0:0,0:0:0:0:
323,259,5862,2,0,L|386:266,1,52,0|0,1:0|1:0,0:0:0:0:
413,300,6196,1,8,0:0:0:0:
475,216,6529,2,0,B|492:193|492:193|484:105,1,104,0|8,1:0|0:0,0:0:0:0:
427,27,7196,2,0,L|313:38,1,104,0|8,1:0|0:0,0:0:0:0:
271,16,7696,6,0,B|284:52|284:52|275:85|275:85|286:117,1,104,0|8,1:0|0:0,0:0:0:0:
219,195,8351,2,0,L|165:206,1,52,0|0,1:0|1:0,0:0:0:0:
117,186,8679,1,8,0:0:0:0:
31,236,8996,2,0,B|15:205|15:205|29:126,1,104,0|8,1:0|0:0,0:0:0:0:
97,54,9667,2,0,L|157:45,1,52,0|0,1:0|0:0,0:0:0:0:
185,75,9991,1,8,0:0:0:0:
185,75,10169,6,0,P|231:96|273:85,1,93.5999971435548,0|8,1:0|0:0,0:0:0:0:
358,52,10836,2,0,L|370:-10,2,46.7999985717774,0|0|8,1:0|1:0|0:0,0:0:0:0:
411,132,11514,1,0,1:0:0:0:
411,132,11678,2,0,P|438:140|478:194,1,93.5999971435548
499,231,12173,2,0,L|487:324,1,93.5999971435548,0|8,1:0|0:0,0:0:0:0:
457,360,12671,1,0,1:0:0:0:
370,325,13008,5,8,0:0:0:0:
329,240,13346,2,0,L|337:177,2,46.7999985717774,0|0|8,1:0|1:0|0:0,0:0:0:0:
241,275,14024,1,0,1:0:0:0:
241,275,14194,2,0,P|207:291|144:280,1,93.5999971435548,0|0,1:0|0:0,0:0:0:0:
103,293,14702,2,0,L|122:186,1,93.5999971435548,0|8,1:0|0:0,0:0:0:0:
94,159,15193,1,0,1:0:0:0:
169,104,15522,5,8,0:0:0:0:
98,47,15852,2,0,L|36:35,2,46.7999985717774,0|0|8,1:0|1:0|0:0,0:0:0:0:
181,9,16537,2,0,P|206:14|237:33,1,46.7999985717774,0|0,1:0|1:0,0:0:0:0:
256,58,16866,1,8,0:0:0:0:
256,58,17031,2,0,P|306:90|352:79,1,93.5999971435548,0|0,1:0|1:0,0:0:0:0:
428,66,17690,6,0,L|437:173,1,93.5999971435548,0|8,1:0|0:0,0:0:0:0:
365,220,18352,2,0,L|359:270,2,46.7999985717774,0|0|8,1:2|1:0|0:0,0:0:0:0:
280,182,19008,1,0,1:2:0:0:
280,182,19172,2,0,P|231:191|207:229,1,93.5999971435548,0|8,1:0|0:0,0:0:0:0:
164,244,19667,1,0,1:0:0:0:
164,244,19832,2,0,P|201:276|203:321,1,93.5999971435548,0|0,1:0|0:0,0:0:0:0:
177,356,20330,6,0,L|127:346,2,46.7999985717774,0|0|8,1:0|1:0|0:0,0:0:0:0:
266,384,20997,2,0,L|311:374,1,46.7999985717774,0|0,1:0|1:0,0:0:0:0:
337,335,21330,1,8,0:0:0:0:
427,357,21663,2,0,L|472:366,1,46.7999985717774,0|0,1:0|1:0,0:0:0:0:
503,330,21997,2,0,L|512:284,1,46.7999985717774,8|8,0:0|0:0,0:0:0:0:
476,254,22330,6,0,B|452:224|452:224|462:158,1,93.5999971435548,2|8,1:2|0:0,0:0:0:0:
405,93,22997,2,0,L|355:87,1,46.7999985717774,0|0,1:0|1:0,0:0:0:0:
322,117,23330,1,8,0:0:0:0:
251,56,23663,2,0,L|201:62,1,46.7999985717774,0|0,1:0|1:0,0:0:0:0:
168,32,23996,1,8,0:0:0:0:
99,96,24330,2,0,L|105:146,1,46.7999985717774,0|0,1:0|1:0,0:0:0:0:
75,179,24663,1,8,0:0:0:0:
75,179,24826,6,0,B|96:224|96:224|81:279,1,93.5999971435548,0|8,1:0|0:0,0:0:0:0:
143,338,25488,2,0,L|196:342,1,46.7999985717774,0|0,1:0|1:0,0:0:0:0:
228,310,25820,1,8,0:0:0:0:
297,247,26135,2,0,L|350:243,1,46.7999985717774,0|0,1:0|1:0,0:0:0:0:
382,275,26473,1,8,0:0:0:0:
459,222,26799,2,0,B|475:185|475:185|460:133,1,93.5999971435548,0|8,1:0|0:0,0:0:0:0:
474,89,27288,1,0,1:0:0:0:
395,38,27619,5,8,0:0:0:0:
309,75,27950,2,0,L|304:139,1,46.7999985717774,0|0,1:0|1:0,0:0:0:0:
269,152,28282,1,8,0:0:0:0:
202,85,28613,2,0,L|138:80,1,46.7999985717774,0|0,1:0|1:0,0:0:0:0:
125,45,28945,1,8,0:0:0:0:
49,98,29267,2,0,B|65:129|65:129|60:194,1,93.5999971435548,0|8,1:0|0:0,0:0:0:0:
30,219,29756,5,0,1:0:0:0:
114,268,30102,1,8,0:0:0:0:
186,209,30431,2,0,L|190:157,2,46.7999985717774,0|0|8,1:0|1:0|0:0,0:0:0:0:
274,252,31083,1,0,1:0:0:0:
274,252,31244,2,0,P|325:252|367:294,1,93.5999971435548,0|8,1:0|0:0,0:0:0:0:
371,321,31728,2,0,L|367:371,1,46.7999985717774,0|0,1:0|1:0,0:0:0:0:
274,380,32212,1,2,0:0:0:0:
274,380,32373,6,0,L|175:370,1,93.5999971435548,0|8,1:0|0:0,0:0:0:0:
105,322,33032,2,0,L|47:327,2,46.7999985717774,0|0|8,1:0|1:0|0:0,0:0:0:0:
169,254,33696,2,0,L|164:207,1,46.7999985717774,0|8,1:0|0:0,0:0:0:0:
192,170,34022,1,0,1:0:0:0:
192,170,34185,6,0,B|226:158|226:158|262:169|262:169|298:156,1,104,6|8,1:2|0:0,0:0:0:0:
361,83,34855,2,0,L|420:89,1,52,0|0,1:0|1:0,0:0:0:0:
453,56,35190,1,8,0:0:0:0:
453,56,35360,2,0,B|437:98|437:98|464:172,1,104,0|0,1:0|1:0,0:0:0:0:
478,204,35871,1,8,0:0:0:0:
380,227,36195,2,0,B|396:269|396:269|369:343,1,104,0|8,1:0|0:0,3:0:0:0:
329,353,36704,6,0,L|266:345,1,52,0|0,1:0|0:0,0:0:0:0:
241,309,37033,1,8,0:0:0:0:
158,366,37363,2,0,L|95:374,1,52,0|0,1:0|1:0,0:0:0:0:
62,344,37703,1,8,0:0:0:0:
62,344,37874,2,0,B|43:303|43:303|60:241,1,104,0|0,1:0|1:0,0:0:0:0:
78,200,38371,1,8,0:0:0:0:
179,221,38699,2,0,L|230:214,1,52,0|0,1:0|0:0,0:0:0:0:
266,184,39027,1,8,0:0:0:0:
266,184,39212,6,0,B|285:133|285:133|267:82,1,104,0|8,1:0|0:0,0:0:0:0:
179,32,39864,2,0,L|127:38,1,52,0|0,1:0|1:0,0:0:0:0:
91,75,40190,1,8,0:0:0:0:
91,75,40353,2,0,B|58:97|58:97|-16:76,1,104,8|0,0:0|1:0,0:0:0:0:
1,183,41005,2,0,L|7:290,1,104,8|0,0:0|1:0,0:0:0:0:
50,327,41516,2,0,L|113:333,1,52,8|0,0:0|0:0,0:0:0:0:
136,297,41838,5,4,1:2:0:0:
226,348,42180,1,8,0:0:0:0:
277,258,42523,2,0,L|340:252,1,52,0|0,1:0|1:0,0:0:0:0:
354,218,42835,1,8,0:0:0:0:
354,218,43023,2,0,B|371:188|371:188|350:118,1,104,8|0,0:0|1:0,3:0:0:0:
337,76,43499,1,8,0:0:0:0:
390,0,43851,1,8,0:0:0:0:
390,0,44014,2,0,P|466:5|489:42,1,104,8|8,0:0|0:0,0:0:0:0:
503,67,44501,6,0,B|485:118|485:118|512:170,1,104,4|8,1:2|0:0,0:0:0:0:
464,256,45167,2,0,L|458:321,1,52,0|0,1:0|1:0,0:0:0:0:
428,350,45501,1,8,0:0:0:0:
428,350,45667,2,0,B|394:360|394:360|365:353|365:353|323:363,1,104,0|0,1:0|1:0,0:0:0:0:
278,343,46165,1,8,0:0:0:0:
186,293,46496,2,0,B|211:266|211:266|198:185,1,104,0|8,1:0|0:0,0:0:0:0:
234,159,46994,6,0,L|245:93,1,52,0|0,1:0|0:0,0:0:0:0:
214,63,47321,1,8,0:0:0:0:
115,30,47649,2,0,L|49:41,1,52,0|0,1:0|1:0,0:0:0:0:
29,77,47977,1,8,0:0:0:0:
29,77,48146,2,0,B|19:118|19:118|29:132|29:132|31:187,1,104,0|0,1:0|1:0,0:0:0:0:
13,224,48644,1,8,0:0:0:0:
80,303,48974,2,0,L|144:310,1,52,0|0,1:0|0:0,0:0:0:0:
175,279,49304,1,8,0:0:0:0:
175,279,49468,6,0,B|213:266|213:266|274:296,1,104,0|8,1:0|0:0,0:0:0:0:
357,351,50120,2,0,L|413:343,1,52,0|0,1:0|1:0,0:0:0:0:
450,316,50446,1,8,0:0:0:0:
450,316,50614,2,0,B|455:279|455:279|448:262|448:262|455:207,1,104,8|0,0:0|1:0,0:0:0:0:
470,113,51272,2,0,B|433:108|433:108|416:115|416:115|361:108,1,104,8|0,0:0|1:0,0:0:0:0:
328,72,51761,2,0,L|324:15,1,52,8|0,0:0|0:0,0:0:0:0:
281,0,52075,5,4,1:2:0:0:
208,73,52419,1,8,0:0:0:0:
266,149,52764,2,0,L|269:200,1,52,0|0,1:0|1:0,0:0:0:0:
246,239,53074,1,8,0:0:0:0:
246,239,53252,2,0,B|221:254|221:254|137:238,1,104,8|0,0:0|1:0,0:0:0:0:
97,225,53730,1,8,0:0:0:0:
3,205,54055,1,8,0:0:0:0:
3,205,54222,2,0,L|-3:85,1,104,8|8,0:0|0:0,0:0:0:0:
29,69,54722,6,0,B|81:79|74:40|126:49,1,93.5999971435548,4|8,1:2|0:0,0:0:0:0:
212,51,55419,2,0,L|224:-8,2,46.7999985717774,0|0|8,1:0|1:0|0:0,0:0:0:0:
285,108,56088,2,0,L|297:167,2,46.7999985717774,0|0|8,1:0|0:0|0:0,0:0:0:0:
352,42,56744,2,0,P|416:31|458:48,1,93.5999971435548,0|8,1:0|0:0,0:0:0:0:
479,70,57245,5,0,1:0:0:0:
401,121,57578,1,8,0:0:0:0:
460,193,57911,2,0,L|510:202,2,46.7999985717774,0|0|8,1:0|1:0|0:0,0:0:0:0:
407,266,58578,2,0,L|357:275,2,46.7999985717774,0|0|8,1:0|1:0|0:0,0:0:0:0:
452,347,59253,2,0,L|347:368,1,93.5999971435548,0|8,1:0|0:0,0:0:0:0:
316,349,59740,5,0,1:0:0:0:
226,376,60081,1,8,0:0:0:0:
151,308,60423,2,0,L|155:258,1,46.7999985717774,0|0,1:0|1:0,0:0:0:0:
184,218,60766,1,8,0:0:0:0:
267,258,61095,2,0,L|321:265,2,46.7999985717774,0|0|8,1:0|1:0|0:0,0:0:0:0:
301,173,61755,2,0,L|290:72,1,93.5999971435548,0|8,1:0|0:0,0:0:0:0:
260,42,62266,5,0,1:0:0:0:
168,21,62595,1,8,0:0:0:0:
106,91,62925,2,0,L|45:103,1,46.7999985717774,0|0,1:0|1:0,0:0:0:0:
39,142,63255,2,0,L|51:203,1,46.7999985717774,8|2,0:0|0:0,0:0:0:0:
90,209,63584,6,0,P|125:218|151:278,1,93.5999971435548,0|8,1:0|0:0,0:0:0:0:
208,340,64244,2,0,L|307:353,1,93.5999971435548,0|8,1:0|0:0,0:0:0:0:
385,311,64903,2,0,L|444:306,2,46.7999985717774,0|0|8,1:0|1:0|0:0,0:0:0:0:
312,251,65562,2,0,L|253:244,2,46.7999985717774,0|0|8,1:0|1:0|0:0,0:0:0:0:
386,189,66222,2,0,L|390:142,1,46.7999985717774,0|0,1:0|1:0,0:0:0:0:
353,101,66569,2,0,L|306:96,1,46.7999985717774,8|8,0:0|0:0,0:0:0:0:
265,81,66884,6,0,B|238:82|238:82|215:102|215:102|174:112,1,93.5999971435548,2|8,1:2|0:0,0:0:0:0:
91,79,67569,2,0,L|35:75,1,46.7999985717774,0|0,1:0|1:0,0:0:0:0:
22,119,67912,1,8,0:0:0:0:
101,173,68243,2,0,L|97:229,1,46.7999985717774,0|0,1:0|1:0,0:0:0:0:
123,262,68574,1,8,0:0:0:0:
81,345,68906,2,0,B|116:359|116:359|176:343,1,93.5999971435548,0|8,1:0|0:0,0:0:0:0:
213,369,69416,5,0,1:0:0:0:
272,297,69747,1,8,0:0:0:0:
357,335,70078,2,0,L|415:349,1,46.7999985717774,0|0,1:0|1:0,0:0:0:0:
445,325,70410,1,8,0:0:0:0:
389,249,70739,2,0,L|375:191,1,46.7999985717774,0|0,1:0|1:0,0:0:0:0:
399,161,71069,1,8,0:0:0:0:
311,128,71399,2,0,L|333:34,1,93.5999971435548,0|8,1:0|0:0,0:0:0:0:
302,1,71893,5,0,1:0:0:0:
226,55,72223,1,8,0:0:0:0:
139,18,72554,2,0,L|78:12,1,46.7999985717774,0|0,1:0|1:0,0:0:0:0:
51,36,72885,1,8,0:0:0:0:
107,106,73217,2,0,L|101:167,1,46.7999985717774,0|0,1:0|1:0,0:0:0:0:
125,194,73559,1,8,0:0:0:0:
42,248,73902,2,0,B|64:274|64:274|75:345,1,93.5999971435548,0|8,1:0|0:0,0:0:0:0:
108,361,74391,5,0,1:0:0:0:
178,299,74728,1,8,0:0:0:0:
263,338,75065,2,0,L|258:393,2,46.7999985717774,0|0|8,1:0|1:0|0:0,0:0:0:0:
347,313,75722,1,0,1:0:0:0:
347,313,75891,2,0,P|392:303|437:322,1,93.5999971435548,0|8,1:0|0:0,0:0:0:0:
466,353,76393,2,0,L|519:343,1,46.7999985717774,0|0,1:0|1:0,0:0:0:0:
512,254,76893,1,2,0:0:0:0:
512,254,77060,6,0,L|502:158,1,93.5999971435548,0|8,1:0|0:0,0:0:0:0:
434,78,77726,2,0,L|378:65,1,46.7999985717774,0|0,1:0|1:0,0:0:0:0:
350,88,78070,1,8,0:0:0:0:
288,169,78415,2,0,L|232:182,1,46.7999985717774,0|0,1:0|1:0,0:0:0:0:
204,159,78760,2,0,L|148:146,1,46.7999985717774,8|8,0:0|0:0,0:0:0:0:
119,166,79070,6,0,B|106:135|106:135|129:70,1,93.5999971435548,2|8,1:2|0:0,0:0:0:0:
210,31,79757,2,0,L|267:26,1,46.7999985717774,0|0,1:0|1:0,0:0:0:0:
298,53,80095,1,8,0:0:0:0:
375,101,80415,2,0,L|432:106,1,46.7999985717774,0|0,1:0|1:0,0:0:0:0:
463,79,80741,1,8,0:0:0:0:
503,159,81067,2,0,B|511:199|511:199|495:254,1,93.5999971435548,0|8,1:0|0:0,0:0:0:0:
481,293,81556,5,0,1:0:0:0:
397,335,81887,1,8,0:0:0:0:
329,269,82218,2,0,L|278:264,1,46.7999985717774,0|0,1:0|1:0,0:0:0:0:
248,231,82550,1,8,0:0:0:0:
189,303,82881,2,0,L|138:308,1,46.7999985717774,0|0,1:0|1:0,0:0:0:0:
108,341,83213,1,8,0:0:0:0:
31,292,83544,2,0,B|21:253|21:253|31:230|31:230|31:195,1,93.5999971435548,0|8,1:0|0:0,0:0:0:0:
72,177,84055,5,0,1:0:0:0:
31,92,84386,1,8,0:0:0:0:
85,16,84717,2,0,L|134:4,1,46.7999985717774,0|0,1:0|1:0,0:0:0:0:
169,31,85049,1,8,0:0:0:0:
215,112,85380,2,0,L|203:161,1,46.7999985717774,0|0,1:0|1:0,0:0:0:0:
230,196,85712,1,8,0:0:0:0:
193,282,86043,2,0,B|228:296|228:296|289:281,1,93.5999971435548,0|8,1:0|0:0,0:0:0:0:
320,255,86541,5,0,1:0:0:0:
396,313,86874,1,8,0:0:0:0:
454,237,87196,2,0,L|508:229,2,48.8799992541504,0|0|8,1:0|1:0|0:0,0:0:0:0:
378,179,87841,1,0,1:0:0:0:
378,179,88003,2,0,P|354:126|363:83,1,93.5999971435548,0|8,1:0|0:0,0:0:0:0:
392,62,88511,2,0,L|400:5,1,46.7999985717774,0|0,1:0|1:0,0:0:0:0:
304,14,89011,1,2,0:0:0:0:
304,14,89178,6,0,L|208:25,1,93.5999971435548,0|8,1:0|0:0,0:0:0:0:
142,88,89844,2,0,L|95:82,2,46.7999985717774,0|0|8,1:0|1:0|0:0,0:0:0:0:
210,151,90511,2,0,L|204:197,1,46.7999985717774,0|8,1:0|0:0,0:0:0:0:
229,234,90838,1,0,1:0:0:0:
229,234,91005,6,0,B|202:230|202:230|167:250|167:250|120:243,1,104,4|8,1:2|0:0,0:0:0:0:
36,287,91679,2,0,L|27:343,1,52,0|0,1:0|1:0,0:0:0:0:
69,370,92016,1,8,0:0:0:0:
69,370,92184,2,0,B|102:363|102:363|179:381,1,104,0|0,1:0|1:0,0:0:0:0:
205,341,92686,1,8,0:0:0:0:
298,375,93019,2,0,B|331:382|331:382|408:364,1,104,0|8,1:0|0:0,0:0:0:0:
444,340,93519,6,0,L|459:283,1,52,0|0,1:0|0:0,0:0:0:0:
441,240,93852,1,8,0:0:0:0:
344,202,94185,2,0,L|329:145,1,52,0|0,1:0|1:0,0:0:0:0:
347,102,94518,1,8,0:0:0:0:
347,102,94685,2,0,B|277:91|277:91|238:114,1,104,0|0,1:0|1:0,0:0:0:0:
208,141,95185,1,8,0:0:0:0:
104,132,95519,2,0,L|88:70,1,52,0|0,1:0|0:0,0:0:0:0:
54,49,95852,1,8,0:0:0:0:
54,49,96031,6,0,B|92:55|92:55|164:28,1,104,0|8,1:0|0:0,0:0:0:0:
253,2,96679,2,0,L|314:9,1,52,0|0,1:0|1:0,0:0:0:0:
360,21,97014,1,8,0:0:0:0:
360,21,97177,2,0,B|383:43|383:43|371:119,1,104,8|0,0:0|1:0,0:0:0:0:
464,162,97833,2,0,L|477:272,1,104,8|0,0:0|1:0,0:0:0:0:
450,310,98325,2,0,L|394:297,1,52,8|0,0:0|0:0,0:0:0:0:
355,319,98653,5,4,1:2:0:0:
259,286,98999,1,8,0:0:0:0:
168,344,99332,2,0,L|107:352,1,52,0|0,1:0|1:0,0:0:0:0:
73,325,99659,1,8,0:0:0:0:
73,325,99825,2,0,B|67:302|67:302|78:249|78:249|70:217,1,104,8|0,0:0|1:0,0:0:0:0:
52,180,100325,1,8,0:0:0:0:
82,86,100639,1,8,0:0:0:0:
82,86,100824,2,0,P|113:77|158:130,1,104,8|8,0:0|0:0,0:0:0:0:
195,161,101332,6,0,B|234:155|234:155|265:167|265:167|313:158,1,104,4|8,1:2|0:0,0:0:0:0:
359,79,101998,2,0,L|423:73,1,52,0|0,1:0|1:0,0:0:0:0:
460,91,102332,1,8,0:0:0:0:
460,91,102498,2,0,B|472:123|472:123|451:200,1,104,0|0,1:0|1:0,0:0:0:0:
481,236,102998,1,8,0:0:0:0:
407,308,103320,2,0,L|293:314,1,104,0|8,1:0|0:0,0:0:0:0:
249,331,103822,6,0,L|238:275,1,52,0|0,1:0|0:0,0:0:0:0:
264,235,104155,1,8,0:0:0:0:
181,172,104488,2,0,L|192:116,1,52,0|0,1:0|1:0,0:0:0:0:
167,75,104821,1,8,0:0:0:0:
167,75,104988,2,0,B|128:72|128:72|103:88|103:88|52:84,1,104,0|0,1:0|1:0,0:0:0:0:
22,111,105488,1,8,0:0:0:0:
80,196,105822,2,0,L|69:247,1,52,0|0,1:0|0:0,0:0:0:0:
93,293,106155,1,8,0:0:0:0:
93,293,106322,6,0,B|124:309|124:309|195:296,1,104,0|8,1:0|0:0,0:0:0:0:
285,341,106988,2,0,L|341:349,1,52,0|0,1:0|1:0,0:0:0:0:
385,328,107322,1,8,0:0:0:0:
385,328,107488,2,0,B|368:273|368:273|389:225,1,104,8|0,0:0|1:0,0:0:0:0:
472,177,108137,2,0,L|465:58,1,104,8|0,0:0|1:0,0:0:0:0:
436,33,108630,2,0,L|376:19,1,52,8|0,0:0|0:0,0:0:0:0:
353,49,108922,5,4,1:2:0:0:
270,99,109279,1,8,0:0:0:0:
190,49,109610,2,0,L|130:41,1,52,0|0,1:0|1:0,0:0:0:0:
99,72,109941,1,8,0:0:0:0:
99,72,110115,2,0,B|92:102|92:102|105:141|105:141|98:175,1,104,8|0,0:0|1:0,0:0:0:0:
133,211,110588,1,8,0:0:0:0:
176,298,110924,1,8,0:0:0:0:
176,298,111103,2,0,P|191:273|268:263,1,104,8|8,0:0|0:0,0:0:0:0:
296,302,111603,6,0,L|419:316,1,109.199996667481,4|8,1:2|0:0,0:0:0:0:
476,242,112288,2,0,L|483:178,1,54.5999983337403,0|8,1:0|0:0,0:0:0:0:
458,147,112608,1,0,0:0:0:0:
458,147,112774,2,0,B|422:140|422:140|396:160|396:160|354:165,1,109.199996667481,4|0,1:2|1:0,0:0:0:0:
313,131,113250,1,8,0:0:0:0:
224,194,113583,2,0,L|171:185,1,54.5999983337403,0|0,1:0|1:0,0:0:0:0:
129,148,113916,2,0,L|76:157,1,54.5999983337403,8|2,0:0|0:0,0:0:0:0:
32,127,114250,6,0,B|11:72|11:72|32:14,1,109.199996667481,4|8,1:2|0:0,0:0:0:0:
127,0,114944,2,0,L|185:11,1,54.5999983337403,0|8,1:0|0:0,0:0:0:0:
236,43,115287,1,0,0:0:0:0:
236,43,115446,2,0,B|279:57|279:57|347:35,1,109.199996667481,4|0,1:2|1:0,0:0:0:0:
396,35,115924,1,8,0:0:0:0:
486,97,116239,2,0,L|474:157,1,54.5999983337403,0|0,1:0|1:0,0:0:0:0:
502,200,116590,2,0,L|490:260,1,54.5999983337403,8|0,1:2|1:0,0:0:0:0:
453,290,116923,6,0,B|371:275|371:275|354:249,1,109.199996667481,4|8,1:2|0:0,0:0:0:0:
306,163,117616,2,0,L|242:177,1,54.5999983337403,0|8,1:0|0:0,0:0:0:0:
206,150,117962,1,0,0:0:0:0:
206,150,118136,2,0,B|171:140|171:140|132:153|132:153|98:146,1,109.199996667481,4|0,1:2|1:0,0:0:0:0:
76,98,118585,1,8,0:0:0:0:
14,176,118919,6,0,B|-2:218|-2:218|19:291,1,109.199996667481,4|8,1:2|0:0,0:0:0:0:
103,335,119617,2,0,L|163:319,1,54.5999983337403,0|8,1:0|0:0,0:0:0:0:
204,345,119950,1,0,0:0:0:0:
204,345,120117,2,0,B|232:334|232:334|278:345|278:345|303:338,1,102.374996875763,4|0,1:2|1:0,0:0:0:0:
363,357,120605,1,8,0:0:0:0:
433,274,120938,2,0,L|440:203,1,54.5999983337403,0|0,1:0|1:0,0:0:0:0:
400,180,121271,2,0,L|393:109,1,54.5999983337403,8|0,0:0|0:0,0:0:0:0:
422,85,121605,6,0,B|402:57|402:57|323:39,1,109.199996667481,4|8,1:2|0:0,0:0:0:0:
226,19,122304,2,0,L|221:86,1,54.5999983337403,0|8,1:0|0:0,0:0:0:0:
260,119,122641,1,0,0:0:0:0:
260,119,122809,2,0,B|240:147|240:147|161:165,1,109.199996667481,4|0,1:2|1:0,0:0:0:0:
122,138,123281,1,8,0:0:0:0:
22,196,123633,2,0,L|26:262,1,54.5999983337403,0|0,1:0|1:0,0:0:0:0:
66,292,123964,2,0,L|70:358,1,54.5999983337403,8|0,1:2|1:0,0:0:0:0:
113,374,124295,6,0,B|153:376|153:376|173:361|173:361|220:345,1,109.199996667481,4|8,1:2|0:0,0:0:0:0:
319,316,124979,2,0,L|305:237,1,54.5999983337403,0|8,1:0|0:0,0:0:0:0:
339,216,125320,1,0,0:0:0:0:
339,216,125491,2,0,B|351:176|351:176|320:92,1,109.199996667481,4|0,1:2|0:1,0:0:0:0:
345,67,125958,1,8,0:0:0:0:
445,9,126333,2,0,L|462:69,1,54.5999983337403,0|0,1:0|1:0,0:0:0:0:
496,88,126648,1,2,0:0:0:0:
507,195,126981,6,0,B|486:212|486:212|487:212|487:212|485:238|485:238|486:239|486:239|460:249|460:249|461:250|461:250|451:274|451:274|451:274|451:274|424:275|424:275|424:276|424:276|404:294|404:294|405:294|405:294|380:286|380:286|381:287|381:287|356:296|356:296|357:297|357:297|337:281|337:281|337:282|337:282|310:283|310:283|310:284|310:284|297:262|297:262|297:262|297:262|271:253|271:253|271:254|271:254|266:229|266:229|266:229|266:229|246:213|246:213|246:214|246:214|249:187|249:187|249:187|249:187|235:165|235:165|235:165|235:165|247:142|247:142|248:141|248:141|259:117|259:117|260:117|260:117|260:117|260:117|245:95|245:95|244:94|244:94|244:93|244:93|247:68|247:68|248:69|248:69|227:54|227:54|227:54|227:54|228:54|228:54|221:28|221:28|221:28|221:28|222:28|222:28|196:21|196:21|197:21|197:21|183:0|183:0|184:0|184:0|157:0|157:0|157:0|157:0|135:-14|135:-14|135:-14|135:-14|136:-14|136:-14|113:-3|113:-3|113:-3|113:-3|87:-11|87:-11|88:-11|88:-11|68:7|68:7|69:7|69:7|43:8|43:8|43:8|43:8|31:32|31:32|32:31|32:31|4:45|4:45,1,873.599973339845,4|2,1:2|1:2,0:0:0:0:
60,132,129737,6,0,B|72:165|72:165|58:239,1,104,4|8,1:2|0:0,0:0:0:0:
152,284,130418,2,0,L|161:343,1,52,0|0,1:0|1:0,0:0:0:0:
203,364,130759,1,8,0:0:0:0:
203,364,130930,2,0,B|238:369|238:369|270:349|270:349|305:344,1,104,0|0,1:0|1:0,0:0:0:0:
343,356,131412,1,8,0:0:0:0:
303,259,131749,2,0,B|288:228|288:228|303:157,1,104,0|8,1:0|0:0,0:0:0:0:
341,115,132267,6,0,L|347:53,1,52,0|0,1:0|0:0,0:0:0:0:
322,19,132586,1,8,0:0:0:0:
424,4,132919,2,0,L|475:-1,1,52,0|0,1:0|1:0,0:0:0:0:
509,38,133252,1,8,0:0:0:0:
509,38,133419,2,0,B|513:66|513:66|488:112|488:112|495:146,1,104,0|0,1:0|1:0,0:0:0:0:
511,183,133919,1,8,0:0:0:0:
447,265,134252,2,0,L|395:270,1,52,0|0,1:0|0:0,0:0:0:0:
349,244,134586,1,8,0:0:0:0:
349,244,134752,6,0,B|306:235|306:235|243:262,1,104,0|8,1:0|0:0,0:0:0:0:
197,347,135418,2,0,L|143:342,1,52,0|0,1:0|1:0,0:0:0:0:
100,364,135752,1,8,0:0:0:0:
100,364,135918,2,0,B|91:321|91:321|118:258,1,104,8|0,0:0|1:0,0:0:0:0:
40,193,136585,2,0,L|36:67,1,104,8|0,0:0|1:0,0:0:0:0:
63,48,137067,2,0,L|118:33,1,52,8|0,0:0|0:0,0:0:0:0:
150,62,137383,5,4,1:2:0:0:
242,27,137735,1,8,0:0:0:0:
333,68,138068,2,0,L|323:132,1,52,0|0,1:0|1:0,0:0:0:0:
366,157,138401,1,8,0:0:0:0:
366,157,138566,2,0,B|403:164|403:164|422:154|422:154|479:160,1,104,8|0,0:0|1:0,0:0:0:0:
501,197,139063,2,0,L|509:256,1,52,8|0,0:0|1:0,0:0:0:0:
483,294,139395,1,8,0:0:0:0:
483,294,139561,2,0,P|447:322|382:297,1,104,8|8,0:0|0:0,0:0:0:0:
356,273,140058,6,0,B|311:261|311:261|251:293,1,104,4|8,1:2|0:0,0:0:0:0:
160,316,140720,2,0,L|150:255,1,52,0|0,1:0|1:0,0:0:0:0:
185,224,141052,1,8,0:0:0:0:
185,224,141218,2,0,B|187:186|187:186|175:156|175:156|177:119,1,104,0|0,1:0|1:0,0:0:0:0:
208,82,141715,1,8,0:0:0:0:
126,6,142046,2,0,B|97:16|97:16|15:-4,1,104,0|8,1:0|0:0,0:0:0:0:
1,44,142569,6,0,B|0:45|0:45|5:52|5:52|1:59|1:59|5:66|5:66|3:73|3:73|7:80|7:80|4:88|4:88|8:95|8:95|5:102|5:102|10:109|10:109|6:116|6:116|11:123|11:123|8:131|8:131|12:138,1,88.4000016860962,2|0,1:2|0:0,0:0:0:0:
204,360,144044,1,0,0:0:0:0:
204,360,144211,2,0,P|234:350|290:364,1,88.4000016860962
376,341,144878,1,0,0:0:0:0:
376,341,145044,6,0,L|388:250,1,88.4000016860962,2|0,0:0|0:0,0:0:0:0:
328,187,145692,2,0,L|316:96,1,88.4000016860962,2|0,0:0|0:0,0:0:0:0:
309,11,146341,2,0,P|266:22|236:53,1,88.4000016860962,2|0,0:0|0:0,0:0:0:0:
169,110,146989,1,2,0:0:0:0:
85,81,147314,1,0,0:0:0:0:
14,129,147638,6,0,B|-28:203|33:261|57:223|33:261|105:287|62:368,1,265.200005058289,2|0,0:0|0:0,0:0:0:0:
