osu file format v14

[General]
AudioFilename: audio.mp3
AudioLeadIn: 0
PreviewTime: 62387
Countdown: 0
SampleSet: Soft
StackLeniency: 0.7
Mode: 0
LetterboxInBreaks: 0
WidescreenStoryboard: 1
SamplesMatchPlaybackRate: 1

[Editor]
DistanceSpacing: 1.1
BeatDivisor: 16
GridSize: 4
TimelineZoom: 2.999999

[Metadata]
Title:T.D.D LEGEND
TitleUnicode:T.D.D LEGEND
Artist:The Dirty Dawg
ArtistUnicode:The Dirty Dawg
Creator:kanor
Version:Rin Sa's Light Insane
Source:ヒプノシスマイク
Tags:Hypnosis Mic TDD DRB 山田一郎 木村昴 碧棺左马刻 浅沼晋太郎 饴村乱数 白井悠介 神宫寺寂雷 速水 奨 HabiHolic sandrew rin_sa Lunala microphone, division rap battle
BeatmapID:1965914
BeatmapSetID:937411

[Difficulty]
HPDrainRate:5.5
CircleSize:4
OverallDifficulty:7.5
ApproachRate:8.5
SliderMultiplier:2.8
SliderTickRate:1

[Events]
//Background and Video events
0,0,"DyT08u0VsAAKP1Z.jpg",0,0
//Break Periods
//Storyboard Layer 0 (Background)
//Storyboard Layer 1 (Fail)
//Storyboard Layer 2 (Pass)
//Storyboard Layer 3 (Foreground)
//Storyboard Sound Samples

[TimingPoints]
137,600,4,2,1,60,1,0
137,-125,4,2,1,60,0,0
4937,-125,4,2,1,60,0,0
5012,-125,4,2,1,70,0,0
9737,-111.111111111111,4,2,1,70,0,0
24137,-200,4,2,1,30,0,0
24437,-200,4,2,1,50,0,0
26537,-125,4,2,1,60,0,0
43337,-125,4,2,1,30,0,0
43487,-125,4,2,1,60,0,0
62537,-125,4,2,1,50,0,0
70787,-125,4,2,1,60,0,0
72137,-125,4,2,1,70,0,0

[Colours]
Combo1 : 0,128,192
Combo2 : 191,191,191
Combo3 : 128,128,128
Combo4 : 255,128,255
Combo5 : 128,128,192
Combo6 : 179,30,30

[HitObjects]
161,205,137,6,0,L|152:334,2,112,0|0|0,0:0|0:0|0:0,0:0:0:0:
167,101,1037,1,0,0:0:0:0:
277,163,1337,6,0,L|268:292,2,112,0|0|0,0:0|0:0|0:0,0:0:0:0:
283,59,2237,1,0,0:0:0:0:
256,192,2537,12,0,4637,0:0:0:0:
470,114,4937,6,0,L|398:112,1,56,4|0,0:3|0:0,0:0:0:0:
324,164,5237,2,0,L|249:168,1,56,0|2,0:0|0:0,0:0:0:0:
190,240,5537,2,0,P|163:168|201:77,1,168,8|2,0:0|0:0,0:0:0:0:
145,0,6137,5,0,0:0:0:0:
63,32,6287,1,2,0:0:0:0:
28,115,6437,2,0,L|23:192,1,56,0|2,0:0|0:0,0:0:0:0:
107,233,6737,2,0,P|118:294|99:345,1,112,8|0,0:0|0:0,0:0:0:0:
26,384,7187,1,0,0:0:0:0:
26,384,7337,6,0,L|104:377,1,56,2|0,0:0|0:0,0:0:0:0:
189,356,7637,2,0,L|263:347,1,56,0|2,0:0|0:0,0:0:0:0:
345,322,7937,2,0,B|397:356|397:356|436:312|498:298,1,168,8|8,0:0|0:0,0:0:0:0:
512,208,8537,5,0,0:0:0:0:
438,148,8687,1,8,0:0:0:0:
361,206,8837,2,0,L|363:265,1,56,0|2,0:0|0:0,0:0:0:0:
342,103,9137,2,0,P|333:49|285:4,1,112,8|8,0:0|0:0,0:0:0:0:
196,18,9587,1,8,0:0:0:0:
156,109,9737,6,0,L|156:194,1,62.9999980773926,4|0,0:0|0:0,0:0:0:0:
277,231,10037,2,0,L|276:154,1,62.9999980773926,0|2,0:0|0:0,0:0:0:0:
223,309,10337,2,0,P|282:325|346:296,1,125.999996154785,8|0,0:0|0:0,0:0:0:0:
404,224,10787,1,2,0:0:0:0:
451,130,10937,6,0,L|524:112,2,62.9999980773926,2|2|2,0:0|0:0|0:0,0:0:0:0:
352,72,11387,2,0,L|335:0,2,62.9999980773926,2|8|0,0:0|0:0|0:0,0:0:0:0:
306,170,11837,2,0,L|232:185,1,62.9999980773926,0|0,0:0|0:0,0:0:0:0:
139,87,12137,6,0,L|213:93,1,62.9999980773926,2|0,0:0|0:0,0:0:0:0:
61,142,12437,1,0,0:0:0:0:
50,53,12587,1,2,0:0:0:0:
133,181,12737,6,0,P|97:215|61:223,1,62.9999980773926,8|0,0:0|0:0,0:0:0:0:
26,300,13037,2,0,P|62:334|98:342,1,62.9999980773926,0|0,0:0|0:0,0:0:0:0:
187,322,13337,6,0,L|178:389,1,62.9999980773926,2|8,0:0|0:0,0:0:0:0:
259,242,13637,2,0,L|249:151,1,62.9999980773926,0|2,0:0|0:0,0:0:0:0:
330,315,13937,5,8,0:0:0:0:
406,323,14087,1,8,0:0:0:0:
469,276,14237,1,8,0:0:0:0:
464,201,14387,1,8,0:0:0:0:
393,150,14537,6,0,L|378:232,1,62.9999980773926,4|0,0:0|0:0,0:0:0:0:
468,69,14837,2,0,L|460:-1,1,62.9999980773926,0|2,0:0|0:0,0:0:0:0:
336,84,15137,2,0,P|264:99|192:71,1,125.999996154785,8|0,0:0|0:0,0:0:0:0:
125,20,15587,1,2,0:0:0:0:
47,103,15737,6,0,L|56:182,2,62.9999980773926,2|2|0,0:0|0:0|0:0,0:0:0:0:
155,169,16187,2,0,L|145:237,2,62.9999980773926,2|8|0,0:0|0:0|0:0,0:0:0:0:
213,75,16637,1,0,0:0:0:0:
356,169,16937,6,0,L|447:166,1,62.9999980773926,2|0,0:0|0:0,0:0:0:0:
463,69,17237,2,0,L|389:71,1,62.9999980773926,0|2,0:0|0:0,0:0:0:0:
279,121,17537,2,0,P|272:205|308:250,1,125.999996154785,8|0,0:0|0:0,0:0:0:0:
365,303,17987,1,2,0:0:0:0:
435,376,18137,6,0,L|505:362,2,62.9999980773926,2|8|0,0:0|0:0|0:0,0:0:0:0:
365,303,18587,2,0,L|451:286,2,62.9999980773926,2|8|0,0:0|0:0|0:0,0:0:0:0:
270,340,19037,1,8,0:0:0:0:
270,340,19187,1,8,0:0:0:0:
162,343,19337,6,0,P|92:324|61:278,1,125.999996154785,4|0,0:0|0:0,0:0:0:0:
212,165,19937,2,0,P|195:237|131:260,1,125.999996154785,8|0,0:0|0:0,0:0:0:0:
17,122,20537,6,0,B|17:32|17:32|59:73,1,125.999996154785,0|0,0:0|0:0,0:0:0:0:
124,111,20987,1,2,0:0:0:0:
212,165,21137,2,0,L|281:173,1,62.9999980773926,8|0,0:0|0:0,0:0:0:0:
372,70,21437,2,0,L|303:78,1,62.9999980773926,0|0,0:0|0:0,0:0:0:0:
467,125,21737,6,0,P|480:62|452:0,1,125.999996154785,2|0,0:0|0:0,0:0:0:0:
372,70,22187,1,2,0:0:0:0:
323,165,22337,2,0,L|341:250,1,62.9999980773926,8|0,0:0|0:0,0:0:0:0:
452,267,22637,2,0,L|436:196,1,62.9999980773926,0|2,0:0|0:0,0:0:0:0:
406,343,22937,6,0,P|458:360|495:355,1,62.9999980773926,0|2,0:0|0:0,0:0:0:0:
338,225,23237,2,0,P|326:171|303:141,2,62.9999980773926,0|2|0,0:0|0:0|0:0,0:0:0:0:
278,341,23687,2,0,P|237:377|223:412,2,62.9999980773926,2|2|2,0:0|0:0|0:0,0:0:0:0:
259,257,24137,6,0,P|209:247|176:253,1,70,4|0,0:3|0:0,0:0:0:0:
86,320,24737,2,0,P|136:330|169:324,1,70,0|0,0:0|0:0,0:0:0:0:
190,249,25187,1,0,0:0:0:0:
190,249,25337,2,0,B|192:205|212:182|212:182|189:151|191:111,1,140,0|2,0:0|0:0,0:0:0:0:
236,38,26087,6,0,L|237:-6,2,35,8|0|2,0:0|0:0|0:0,0:0:0:0:
321,120,26537,6,0,L|457:107,1,112,2|0,0:0|0:0,0:0:0:0:
486,205,26987,1,0,0:0:0:0:
486,205,27137,2,0,L|421:199,1,56,8|2,0:0|0:0,0:0:0:0:
344,298,27437,2,0,L|405:290,1,56,0|8,0:0|0:0,0:0:0:0:
253,257,27737,6,0,P|252:338|288:376,1,112,2|0,0:0|0:0,0:0:0:0:
344,298,28187,1,2,0:0:0:0:
253,257,28337,2,0,L|131:249,1,112,8|0,0:0|0:0,0:0:0:0:
50,292,28787,1,2,0:0:0:0:
18,194,28937,6,0,L|29:123,1,56,2|0,0:0|0:0,0:0:0:0:
115,60,29237,2,0,L|126:130,2,56,0|0|8,0:0|0:0|0:0,0:0:0:0:
257,160,29837,2,0,L|331:151,1,56,0|2,0:0|0:0,0:0:0:0:
420,159,30137,6,0,P|462:170|499:154,2,84,2|2|2,0:0|0:0|0:0,0:0:0:0:
363,65,30737,2,0,L|361:-3,1,56,8|2,0:0|0:0,0:0:0:0:
312,153,31037,2,0,L|314:221,1,56,2|0,0:0|0:0,0:0:0:0:
396,295,31337,6,2,L|468:285,2,56,2|0|0,0:0|0:0|0:0,0:0:0:0:
305,359,31787,1,0,0:0:0:0:
305,359,31937,2,0,L|234:353,1,56,8|0,0:0|0:0,0:0:0:0:
155,267,32237,2,0,L|215:258,1,56,0|8,0:0|0:0,0:0:0:0:
134,164,32537,6,0,P|94:177|57:224,2,84,2|0|2,0:0|0:0|0:0,0:0:0:0:
215,147,33137,1,8,0:0:0:0:
226,65,33287,1,8,0:0:0:0:
149,32,33437,1,8,0:0:0:0:
92,91,33587,1,8,0:0:0:0:
134,164,33737,6,0,L|153:282,1,112,2|0,0:0|0:0,0:0:0:0:
246,344,34187,2,0,P|301:317|314:248,1,112,0|2,0:0|0:0,0:0:0:0:
427,206,34637,2,0,L|432:277,1,56,0|0,0:0|0:0,0:0:0:0:
404,90,34937,6,0,L|462:49,1,56,0|2,0:0|0:0,0:0:0:0:
313,166,35237,2,0,L|247:134,1,56,0|8,0:0|0:0,0:0:0:0:
161,86,35537,1,0,0:0:0:0:
144,164,35687,1,0,0:0:0:0:
67,189,35837,1,0,0:0:0:0:
7,135,35987,1,0,0:0:0:0:
67,189,36137,6,0,P|76:255|61:321,1,112,2|0,0:0|0:0,0:0:0:0:
133,375,36587,1,0,0:0:0:0:
231,380,36737,2,0,L|305:366,1,56,8|2,0:0|0:0,0:0:0:0:
397,316,37037,2,0,L|465:329,1,56,0|8,0:0|0:0,0:0:0:0:
307,245,37337,6,0,L|239:258,1,56,2|2,0:0|0:0,0:0:0:0:
401,172,37637,2,0,L|469:185,1,56,0|2,0:0|0:0,0:0:0:0:
334,76,37937,2,0,L|330:1,1,56,8|0,0:0|0:0,0:0:0:0:
259,162,38237,2,0,P|214:157|187:141,1,56,0|2,0:0|0:0,0:0:0:0:
115,18,38537,6,0,P|137:97|119:145,1,112,2|0,0:0|0:0,0:0:0:0:
41,177,38987,1,0,0:0:0:0:
0,79,39137,2,0,P|35:78|72:96,1,56,8|2,0:0|0:0,0:0:0:0:
135,197,39437,6,0,L|131:271,2,56,0|8|2,0:0|0:0|0:0,0:0:0:0:
223,291,39887,2,0,L|212:368,2,56,2|0|2,0:0|0:0|0:0,0:0:0:0:
319,221,40337,2,0,L|382:212,1,56,8|0,0:0|0:0,0:0:0:0:
451,318,40637,2,0,L|380:314,1,56,0|2,0:0|0:0,0:0:0:0:
302,370,40937,5,2,0:0:0:0:
302,370,41087,1,8,0:0:0:0:
223,291,41237,2,0,L|230:210,1,56,0|2,0:0|0:0,0:0:0:0:
322,177,41537,2,0,L|314:102,1,56,8|0,0:0|0:0,0:0:0:0:
381,34,41837,2,0,L|440:42,1,56,0|2,0:0|0:0,0:0:0:0:
264,55,42137,6,0,B|233:73|233:73|139:52,1,112,0|0,0:0|0:0,0:0:0:0:
63,40,42587,1,0,0:0:0:0:
4,145,42737,2,0,L|82:130,1,56,8|2,0:0|0:0,0:0:0:0:
143,221,43037,2,0,L|62:213,1,56,0|2,0:0|0:0,0:0:0:0:
221,167,43337,6,0,P|236:232|209:291,1,112,4|0,0:3|0:0,0:0:0:0:
328,366,43937,2,0,P|313:301|340:242,1,112,8|0,0:0|0:0,0:0:0:0:
467,263,44537,2,0,L|473:312,2,37.3333333333333,0|0|0,0:0|0:0|0:0,0:0:0:0:
400,208,44837,2,0,L|394:159,2,37.3333333333333,2|0|0,0:0|0:0|0:0,0:0:0:0:
480,184,45137,6,0,P|486:133|447:75,1,112,8|0,0:0|0:0,0:0:0:0:
268,55,45737,6,0,L|274:-10,2,56,2|0|0,0:0|0:0|0:0,0:0:0:0:
171,183,46337,2,0,L|99:176,1,56,8|0,0:0|0:0,0:0:0:0:
61,96,46637,2,0,L|133:89,1,56,0|0,0:0|0:0,0:0:0:0:
244,140,46937,6,0,P|260:179|257:215,2,56,0|0|2,0:0|0:0|0:0,0:0:0:0:
324,253,47387,2,0,L|447:242,1,112,0|0,0:0|0:0,0:0:0:0:
501,178,47837,1,0,0:0:0:0:
311,120,48137,6,0,P|233:133|198:106,2,112,2|0|8,0:0|0:0|0:0,0:0:0:0:
380,41,48887,1,0,0:0:0:0:
380,41,49037,2,0,L|453:46,1,56,0|0,0:0|0:0,0:0:0:0:
509,133,49337,6,0,L|501:204,1,56,0|0,0:0|0:0,0:0:0:0:
452,277,49637,2,0,L|460:351,1,56,2|0,0:0|0:0,0:0:0:0:
350,288,49937,2,0,P|357:224|412:187,1,112,8|0,0:0|0:0,0:0:0:0:
254,355,50537,6,0,L|180:353,1,56,2|0,0:0|0:0,0:0:0:0:
77,276,50837,2,0,L|138:276,1,56,0|0,0:0|0:0,0:0:0:0:
256,210,51137,2,0,L|182:208,1,56,8|0,0:0|0:0,0:0:0:0:
79,131,51437,2,0,L|140:131,1,56,0|0,0:0|0:0,0:0:0:0:
258,107,51737,6,0,P|272:61|235:-8,1,112,0|2,0:0|0:0,0:0:0:0:
386,85,52337,2,0,P|371:130|409:200,1,112,8|0,0:0|0:0,0:0:0:0:
401,314,52937,6,0,P|347:328|277:304,1,112,2|0,0:0|0:0,0:0:0:0:
164,306,53537,2,0,L|152:382,1,56,8|0,0:0|0:0,0:0:0:0:
60,313,53837,2,0,L|48:237,1,56,0|0,0:0|0:0,0:0:0:0:
107,167,54137,6,0,P|187:183|228:152,1,112,0|2,0:0|0:0,0:0:0:0:
362,92,54737,2,0,P|281:75|240:106,1,112,8|0,0:0|0:0,0:0:0:0:
306,143,55137,2,0,L|304:188,1,37.3333333333333,0|0,0:0|0:0,0:0:0:0:
362,92,55337,6,0,L|352:19,2,56,2|0|0,0:0|0:0|0:0,0:0:0:0:
444,156,55787,1,0,0:0:0:0:
414,250,55937,2,0,L|339:258,1,56,8|0,0:0|0:0,0:0:0:0:
263,212,56237,2,0,L|189:209,1,56,0|0,0:0|0:0,0:0:0:0:
136,318,56537,6,0,B|191:335|191:335|248:305,1,112,0|2,0:0|0:0,0:0:0:0:
111,222,57137,2,0,L|-3:209,1,112,8|0,0:0|0:0,0:0:0:0:
191,138,57737,6,0,L|324:121,2,112,2|0|8,0:0|0:0|0:0,0:0:0:0:
39,89,58637,2,0,L|39:34,1,56,0|0,0:0|0:0,0:0:0:0:
106,152,58937,6,0,L|91:289,1,112,0|2,0:0|0:0,0:0:0:0:
134,362,59387,1,0,0:0:0:0:
215,290,59537,2,0,L|206:210,2,56,8|0|0,0:0|0:0|0:0,0:0:0:0:
366,349,60137,6,0,L|488:338,1,112,2|0,0:0|0:0,0:0:0:0:
369,220,60737,2,0,B|320:243|320:243|245:211,1,112,8|0,0:0|0:0,0:0:0:0:
188,147,61187,1,0,0:0:0:0:
210,56,61337,6,0,P|226:5|244:-16,1,56,8|8,0:0|0:0,0:0:0:0:
283,133,61637,2,0,P|334:132|363:142,1,56,8|8,0:0|0:0,0:0:0:0:
231,231,61937,2,0,P|246:279|245:310,1,56,8|8,0:0|0:0,0:0:0:0:
126,207,62237,2,0,P|82:236|54:246,1,56,8|8,0:0|0:0,0:0:0:0:
111,100,62537,6,0,P|49:45|49:0,1,112,4|0,0:3|0:0,0:0:0:0:
231,231,63137,2,0,P|211:325|193:344,1,112,10|0,0:3|0:0,0:0:0:0:
316,154,63737,2,0,L|385:149,2,56,2|2|0,0:3|0:0|0:0,0:0:0:0:
208,96,64187,1,2,0:0:0:0:
208,96,64337,2,0,P|212:28|255:-6,1,112,10|0,0:3|0:0,0:0:0:0:
382,229,64937,6,0,L|502:216,1,112,2|0,0:3|0:0,0:0:0:0:
314,319,65537,2,0,L|194:306,1,112,10|0,0:3|0:0,0:0:0:0:
95,213,66137,2,0,L|87:138,2,56,2|2|0,0:3|0:0|0:0,0:0:0:0:
195,198,66587,1,2,0:0:0:0:
195,198,66737,2,0,L|200:73,1,112,10|0,0:3|0:0,0:0:0:0:
401,24,67337,5,2,0:3:0:0:
424,161,67637,1,0,0:0:0:0:
295,109,67937,1,10,0:3:0:0:
320,243,68237,5,0,0:0:0:0:
320,243,68387,1,2,0:0:0:0:
320,243,68537,2,0,P|259:250|195:221,1,112,2|0,0:3|0:0,0:0:0:0:
109,234,68987,1,2,0:0:0:0:
109,234,69137,2,0,L|113:302,1,56,10|0,0:3|0:0,0:0:0:0:
26,157,69437,2,0,L|31:90,1,56,0|2,0:0|0:0,0:0:0:0:
120,36,69737,6,0,B|160:52|160:52|233:31,1,112,2|0,0:3|0:0,0:0:0:0:
330,21,70187,1,2,0:0:0:0:
412,92,70337,2,0,P|423:159|385:208,1,112,10|0,0:3|0:0,0:0:0:0:
267,256,70937,6,0,L|207:243,1,56,0|8,0:0|0:0,0:0:0:0:
119,184,71237,1,8,0:0:0:0:
119,184,71387,1,8,0:0:0:0:
219,113,71537,2,0,L|278:107,1,56
130,39,71837,2,0,L|52:37,1,56,8|8,0:0|0:0,0:0:0:0:
6,133,72137,6,0,L|13:212,1,56,4|0,0:3|0:0,0:0:0:0:
90,273,72437,2,0,L|84:341,1,56,0|2,0:0|0:0,0:0:0:0:
186,383,72737,2,0,P|253:367|312:383,1,112,8|0,0:0|0:0,0:0:0:0:
391,355,73187,1,2,0:0:0:0:
497,315,73337,6,0,L|501:388,2,56,0|2|0,0:0|0:0|0:0,0:0:0:0:
411,230,73787,2,0,P|390:177|415:111,1,112,2|0,0:0|0:0,0:0:0:0:
490,174,74237,1,0,0:0:0:0:
373,50,74537,6,0,L|309:54,1,56,2|0,0:0|0:0,0:0:0:0:
217,110,74837,2,0,L|153:105,1,56,0|2,0:0|0:0,0:0:0:0:
100,38,75137,2,0,P|109:123|79:162,1,112,8|0,0:0|0:0,0:0:0:0:
73,246,75587,1,0,0:0:0:0:
190,237,75737,6,0,L|253:231,2,56,0|2|0,0:0|0:0|0:0,0:0:0:0:
122,340,76187,2,0,P|60:355|2:329,1,112,2|0,0:0|0:0,0:0:0:0:
73,246,76637,1,0,0:0:0:0:
154,99,76937,6,0,L|226:93,1,56,2|0,0:0|0:0,0:0:0:0:
324,192,77237,2,0,L|252:186,1,56,0|2,0:0|0:0,0:0:0:0:
147,282,77537,2,0,L|219:276,1,56,8|0,0:0|0:0,0:0:0:0:
316,375,77837,2,0,L|244:369,1,56,0|2,0:0|0:0,0:0:0:0:
360,280,78137,6,0,B|402:299|413:344|413:344|439:321,1,112,0|8,0:0|0:0,0:0:0:0:
508,237,78587,2,0,P|503:160|472:114,1,112
449,18,79037,2,0,L|514:14,1,56,8|0,0:0|0:0,0:0:0:0:
370,95,79337,6,0,L|304:91,1,56,8|2,0:0|0:0,0:0:0:0:
203,11,79637,2,0,L|271:0,1,56,8|2,0:0|0:0,0:0:0:0:
158,119,79937,2,0,B|118:141|118:141|33:108,1,112,8|8,0:0|0:0,0:0:0:0:
261,203,80537,6,0,L|264:273,1,56,8|2,0:0|0:0,0:0:0:0:
370,150,80837,2,0,L|369:88,1,56,8|10,0:0|0:0,0:0:0:0:
487,48,81137,5,2,0:0:0:0:
479,122,81287,1,8,0:0:0:0:
473,194,81437,1,8,0:0:0:0:
463,264,81587,1,8,0:0:0:0:
455,335,81737,1,4,0:3:0:0:
