osu file format v14

[General]
AudioFilename: audio.mp3
AudioLeadIn: 0
PreviewTime: 62387
Countdown: 0
SampleSet: Soft
StackLeniency: 0.7
Mode: 0
LetterboxInBreaks: 0
WidescreenStoryboard: 0
SamplesMatchPlaybackRate: 1

[Editor]
DistanceSpacing: 1
BeatDivisor: 6
GridSize: 4
TimelineZoom: 4.999997

[Metadata]
Title:T.D.D LEGEND
TitleUnicode:T.D.D LEGEND
Artist:The Dirty Dawg
ArtistUnicode:The Dirty Dawg
Creator:kanor
Version:Put your hands up!!
Source:ヒプノシスマイク
Tags:Hypnosis Mic TDD DRB 山田一郎 木村昴 碧棺左马刻 浅沼晋太郎 饴村乱数 白井悠介 神宫寺寂雷 速水 奨 HabiHolic sandrew rin_sa Lunala microphone, division rap battle
BeatmapID:1958171
BeatmapSetID:937411

[Difficulty]
HPDrainRate:6
CircleSize:4.5
OverallDifficulty:8
ApproachRate:9
SliderMultiplier:3.59999990463257
SliderTickRate:1

[Events]
//Background and Video events
0,0,"DyT08u0VsAAKP1Z.jpg",0,0
//Break Periods
//Storyboard Layer 0 (Background)
//Storyboard Layer 1 (Fail)
//Storyboard Layer 2 (Pass)
//Storyboard Layer 3 (Foreground)
//Storyboard Sound Samples

[TimingPoints]
137,600,4,2,1,60,1,0
4712,-100,4,2,1,5,0,0
4937,-133.333333333333,4,2,1,60,0,0
5012,-133.333333333333,4,2,1,70,0,0
24137,-200,4,2,1,30,0,0
24437,-200,4,2,1,50,0,0
26537,-133.333333333333,4,2,1,60,0,0
33737,-200,4,2,1,60,0,0
36137,-133.333333333333,4,2,1,60,0,0
43337,-133.333333333333,4,2,1,30,0,0
43487,-133.333333333333,4,2,1,60,0,0
62537,-133.333333333333,4,2,1,50,0,0
70787,-133.333333333333,4,2,1,60,0,0
72137,-133.333333333333,4,2,1,70,0,0

[Colours]
Combo1 : 0,128,192
Combo2 : 191,191,191
Combo3 : 128,128,128
Combo4 : 255,128,255
Combo5 : 128,128,192
Combo6 : 179,30,30

[HitObjects]
256,192,137,12,0,4787,0:0:0:0:
372,76,4937,6,0,P|433:90|489:41,1,135.000005149842,4|0,0:3|0:0,0:0:0:0:
420,24,5387,1,2,0:0:0:0:
328,136,5537,2,0,B|328:192|328:192|344:216|344:216|344:296,1,135.000005149842,8|0,0:0|0:0,0:0:0:0:
344,266,5987,1,2,0:0:0:0:
208,240,6137,6,0,B|240:232|240:232|280:240,1,67.5000025749208,0|2,0:0|0:0,0:0:0:0:
460,164,6437,2,0,B|428:172|428:172|388:164,1,67.5000025749208,0|2,0:0|0:0,0:0:0:0:
373,345,6737,2,0,P|437:321|505:353,1,135.000005149842,8|0,0:0|0:0,0:0:0:0:
496,344,7187,1,0,0:0:0:0:
373,345,7337,6,0,P|309:369|241:337,1,135.000005149842,2|0,0:0|0:0,0:0:0:0:
249,345,7787,1,2,0:0:0:0:
116,336,7937,2,0,P|152:328|188:340,2,67.5000025749208,8|0|0,0:0|0:0|0:0,0:0:0:0:
44,232,8387,1,8,0:0:0:0:
44,232,8462,1,8,0:0:0:0:
44,232,8537,5,0,0:0:0:0:
44,353,8687,1,8,0:0:0:0:
115,255,8837,1,0,0:0:0:0:
1,293,8987,1,2,0:0:0:0:
116,336,9137,2,0,P|152:344|188:332,1,67.5000025749208,8|0,0:0|0:0,0:0:0:0:
280,352,9362,1,0,0:0:0:0:
280,352,9437,2,0,L|236:356,1,33.7500012874604,8|0,0:0|0:0,0:0:0:0:
180,336,9587,2,0,L|176:292,1,33.7500012874604,8|0,0:0|0:0,0:0:0:0:
248,180,9737,6,0,B|253:282|253:282|240:228,1,135.000005149842,4|0,0:0|0:0,0:0:0:0:
245,251,10187,1,2,0:0:0:0:
208,128,10337,2,0,P|232:116|292:128,1,67.5000025749208,8|0,0:0|0:0,0:0:0:0:
404,72,10637,2,0,P|380:84|320:72,1,67.5000025749208,0|2,0:0|0:0,0:0:0:0:
330,15,10862,1,0,0:0:0:0:
330,15,10937,6,0,L|342:103,1,67.5000025749208,2|2,0:0|0:0,0:0:0:0:
436,164,11237,1,2,0:0:0:0:
460,32,11387,1,2,0:0:0:0:
500,164,11537,2,0,B|465:174|465:174|424:160,1,67.5000025749208,8|0,0:0|0:0,0:0:0:0:
296,240,11837,2,0,B|331:230|331:230|372:244,1,67.5000025749208,0|0,0:0|0:0,0:0:0:0:
436,272,12062,1,0,0:0:0:0:
436,272,12137,1,2,0:0:0:0:
436,272,12437,5,0,0:0:0:0:
435,163,12587,1,2,0:0:0:0:
328,300,12737,2,0,L|321:367,1,67.5000025749208,8|0,0:0|0:0,0:0:0:0:
76,348,13037,2,0,P|124:324|188:348,1,101.250003862381,0|0,0:0|0:0,0:0:0:0:
190,367,13337,6,0,L|184:300,1,67.5000025749208,2|8,0:0|0:0,0:0:0:0:
8,216,13637,2,0,L|75:222,1,67.5000025749208,0|2,0:0|0:0,0:0:0:0:
268,192,13937,1,8,0:0:0:0:
75,222,14087,1,8,0:0:0:0:
184,300,14237,1,8,0:0:0:0:
198,124,14387,1,8,0:0:0:0:
190,96,14462,1,8,0:0:0:0:
178,68,14537,6,0,B|166:120|166:120|178:148|178:148|166:208,1,135.000005149842,4|0,0:0|0:0,0:0:0:0:
168,198,14987,1,2,0:0:0:0:
36,160,15137,2,0,P|64:148|116:164,1,67.5000025749208,8|0,0:0|0:0,0:0:0:0:
256,76,15437,2,0,P|288:81|319:69,1,67.5000025749208,0|2,0:0|0:0,0:0:0:0:
388,24,15662,1,0,0:0:0:0:
388,24,15737,6,0,L|392:116,1,67.5000025749208,2|2,0:0|0:0,0:0:0:0:
400,240,16037,1,0,0:0:0:0:
328,148,16187,1,2,0:0:0:0:
444,148,16337,2,0,P|376:168|332:144,1,101.250003862381,8|0,0:0|0:0,0:0:0:0:
328,148,16637,2,0,L|324:240,1,67.5000025749208,0|0,0:0|0:0,0:0:0:0:
510,286,16937,6,0,B|426:266|458:326|382:306,1,135.000005149842,2|0,0:0|0:0,0:0:0:0:
383,306,17387,1,2,0:0:0:0:
512,352,17537,2,0,B|520:316|520:316|508:280,1,67.5000025749208,8|0,0:0|0:0,0:0:0:0:
320,280,17837,2,0,B|312:316|312:316|324:352,1,67.5000025749208,0|2,0:0|0:0,0:0:0:0:
264,384,18062,1,0,0:0:0:0:
264,384,18137,6,0,P|220:372|188:388,1,67.5000025749208,2|8,0:0|0:0,0:0:0:0:
76,312,18437,1,0,0:0:0:0:
72,184,18587,1,2,0:0:0:0:
112,372,18737,2,0,P|76:384|40:368,1,67.5000025749208,8|0,0:0|0:0,0:0:0:0:
4,320,18962,1,0,0:0:0:0:
4,320,19037,2,0,L|8:260,1,33.7500012874604,8|0,0:0|0:0,0:0:0:0:
72,184,19187,2,0,L|69:150,1,33.7500012874604,8|0,0:0|0:0,0:0:0:0:
4,215,19337,6,0,B|68:199|68:199|148:219,1,135.000005149842,4|0,0:0|0:0,0:0:0:0:
135,216,19787,1,2,0:0:0:0:
264,132,19937,2,0,P|272:92|260:52,1,67.5000025749208,8|0,0:0|0:0,0:0:0:0:
138,140,20237,2,0,B|188:152|188:152|242:140,1,101.250003862381,0|0,0:0|0:0,0:0:0:0:
264,132,20537,6,0,P|272:172|260:212,1,67.5000025749208,0|2,0:0|0:0,0:0:0:0:
264,352,20837,1,0,0:0:0:0:
266,197,20987,1,2,0:0:0:0:
316,288,21137,2,0,B|268:272|268:272|212:288,1,101.250003862381,8|0,0:0|0:0,0:0:0:0:
236,352,21437,2,0,B|271:362|271:362|320:348,1,67.5000025749208,0|0,0:0|0:0,0:0:0:0:
424,360,21737,5,2,0:0:0:0:
372,248,21887,1,8,0:0:0:0:
300,353,22037,1,0,0:0:0:0:
504,264,22187,1,2,0:0:0:0:
368,120,22337,2,0,L|372:252,1,101.250003862381,8|0,0:0|0:0,0:0:0:0:
372,248,22637,2,0,P|404:256|444:244,1,67.5000025749208,0|2,0:0|0:0,0:0:0:0:
476,76,22937,5,0,0:0:0:0:
496,168,23087,1,2,0:0:0:0:
396,32,23237,2,0,P|364:24|324:36,1,67.5000025749208,0|2,0:0|0:0,0:0:0:0:
264,64,23462,1,0,0:0:0:0:
268,68,23537,2,0,P|236:76|196:64,1,67.5000025749208,0|2,0:0|0:0,0:0:0:0:
12,48,23837,1,2,0:0:0:0:
116,0,23987,1,2,0:0:0:0:
104,120,24137,6,0,L|112:12,2,90,4|0|0,0:3|0:0|0:0,0:0:0:0:
36,152,24887,1,2,0:0:0:0:
96,192,25037,1,0,0:0:0:0:
104,120,25187,1,0,0:0:0:0:
32,224,25337,6,0,L|28:280,1,45,0|2,0:0|0:0,0:0:0:0:
100,380,25637,1,0,0:0:0:0:
176,272,25787,1,2,0:0:0:0:
44,336,25937,2,0,P|15:340|-4:332,1,45,2|8,0:0|0:0,0:0:0:0:
100,248,26237,1,0,0:0:0:0:
152,336,26387,1,2,0:0:0:0:
204,204,26537,6,0,B|208:148|208:148|192:124|192:124|196:60,1,135.000005149842,2|0,0:0|0:0,0:0:0:0:
196,8,26987,1,0,0:0:0:0:
328,96,27137,2,0,P|294:106|261:98,1,67.5000025749208,8|2,0:0|0:0,0:0:0:0:
195,74,27437,1,0,0:0:0:0:
292,36,27587,1,8,0:0:0:0:
444,212,27737,5,2,0:0:0:0:
444,53,27887,1,8,0:0:0:0:
352,180,28037,1,0,0:0:0:0:
501,132,28187,1,2,0:0:0:0:
350,83,28337,2,0,B|340:116|340:116|352:172,1,67.5000025749208,8|0,0:0|0:0,0:0:0:0:
440,277,28637,2,0,B|450:244|450:244|438:188,1,67.5000025749208,0|2,0:0|0:0,0:0:0:0:
368,312,28937,6,0,L|512:312,1,135.000005149842,2|0,0:0|0:0,0:0:0:0:
436,344,29387,1,0,0:0:0:0:
308,344,29537,2,0,P|300:308|312:268,1,67.5000025749208,8|0,0:0|0:0,0:0:0:0:
344,176,29837,1,0,0:0:0:0:
368,312,29987,1,2,0:0:0:0:
508,212,30137,6,0,B|472:200|472:200|436:212,1,67.5000007867814,2|0,0:0|0:0,0:0:0:0:
384,244,30362,1,2,0:0:0:0:
384,244,30437,1,0,0:0:0:0:
272,208,30587,1,2,0:0:0:0:
216,356,30737,1,8,0:0:0:0:
306,278,30887,1,2,0:0:0:0:
240,144,31037,6,0,B|208:152|208:152|172:140,1,67.5000007867814,2|0,0:0|0:0,0:0:0:0:
212,80,31262,1,2,0:0:0:0:
212,72,31337,1,0,0:0:0:0:
196,224,31487,1,2,0:0:0:0:
196,224,31937,5,8,0:0:0:0:
102,146,32087,1,0,0:0:0:0:
86,266,32237,1,0,0:0:0:0:
196,224,32387,1,8,0:0:0:0:
32,116,32537,6,0,B|28:152|28:152|36:184,1,67.5000007867814,2|0,0:0|0:0,0:0:0:0:
8,248,32762,1,2,0:0:0:0:
4,256,32837,1,0,0:0:0:0:
48,344,32987,1,2,0:0:0:0:
196,224,33137,1,8,0:0:0:0:
184,376,33287,1,8,0:0:0:0:
288,304,33437,2,0,B|252:308|252:308|212:292,1,67.5000007867814,8|8,0:0|0:0,0:0:0:0:
172,152,33737,6,0,L|160:88,2,44.9999988079071,2|0|0,0:0|0:0|0:0,0:0:0:0:
196,224,34187,1,0,0:0:0:0:
288,72,34337,1,0,0:0:0:0:
288,72,34487,2,0,P|307:117|291:161,1,90,2|0,0:0|0:0,0:0:0:0:
356,232,34937,6,0,P|356:200|368:180,1,45,0|2,0:0|0:0,0:0:0:0:
504,208,35237,1,0,0:0:0:0:
436,224,35387,1,8,0:0:0:0:
436,204,35462,1,8,0:0:0:0:
436,188,35537,1,0,0:0:0:0:
480,276,35687,1,0,0:0:0:0:
361,188,35837,1,0,0:0:0:0:
500,136,35987,1,0,0:0:0:0:
384,300,36137,6,0,P|338:304|312:292,1,67.5000025749208,2|0,0:0|0:0,0:0:0:0:
204,344,36437,2,0,P|249:339|276:352,1,67.5000025749208,0|0,0:0|0:0,0:0:0:0:
288,232,36737,1,8,0:0:0:0:
268,347,36887,1,2,0:0:0:0:
252,168,37037,1,0,0:0:0:0:
319,296,37187,1,8,0:0:0:0:
416,48,37337,5,2,0:0:0:0:
416,201,37487,1,2,0:0:0:0:
326,77,37637,1,0,0:0:0:0:
471,124,37787,1,2,0:0:0:0:
326,171,37937,2,0,B|364:180|364:180|412:168,1,67.5000025749208,8|0,0:0|0:0,0:0:0:0:
256,91,38237,2,0,L|256:24,1,67.5000025749208,0|2,0:0|0:0,0:0:0:0:
186,171,38537,6,0,B|148:180|148:180|120:173,1,67.5000025749208,2|0,0:0|0:0,0:0:0:0:
152,108,38837,1,0,0:0:0:0:
152,248,38987,1,0,0:0:0:0:
64,136,39137,2,0,B|32:125|32:125|-5:134,1,67.5000025749208,8|2,0:0|0:0,0:0:0:0:
28,196,39437,1,0,0:0:0:0:
64,40,39587,1,8,0:0:0:0:
72,20,39662,1,0,0:0:0:0:
84,0,39737,6,0,L|84:80,1,67.5000025749208,2|2,0:0|0:0,0:0:0:0:
88,224,40037,1,0,0:0:0:0:
84,67,40187,1,2,0:0:0:0:
44,280,40337,2,0,P|92:292|148:264,1,101.250003862381,8|0,0:0|0:0,0:0:0:0:
160,252,40637,1,0,0:0:0:0:
256,360,40787,1,2,0:0:0:0:
348,248,40937,5,2,0:0:0:0:
304,304,41087,1,8,0:0:0:0:
228,212,41237,2,0,L|236:296,1,67.5000025749208,0|2,0:0|0:0,0:0:0:0:
420,304,41537,2,0,L|430:193,1,101.250003862381,8|0,0:0|0:0,0:0:0:0:
444,164,41837,2,0,L|452:248,1,67.5000025749208,0|2,0:0|0:0,0:0:0:0:
496,280,42137,5,0,0:0:0:0:
308,180,42287,1,8,0:0:0:0:
200,364,42437,2,0,B|160:364|160:364|136:352|136:352|84:352,1,101.250003862381,0|0,0:0|0:0,0:0:0:0:
37,354,42737,2,0,B|69:342|69:342|125:358,1,67.5000025749208,8|2,0:0|0:0,0:0:0:0:
88,164,43037,2,0,B|56:176|56:176|0:160,1,67.5000025749208,0|2,0:0|0:0,0:0:0:0:
28,260,43337,6,0,L|116:256,1,67.5000025749208,4|0,0:3|0:0,0:0:0:0:
84,68,43637,1,0,0:0:0:0:
84,68,43937,2,0,L|16:71,1,67.5000025749208,8|0,0:0|0:0,0:0:0:0:
156,160,44237,1,0,0:0:0:0:
156,160,44537,6,0,P|160:188|160:204,2,45.0000017166138,0|0|0,0:0|0:0|0:0,0:0:0:0:
196,100,44837,2,0,P|169:89|155:81,2,45.0000017166138,2|0|0,0:0|0:0|0:0,0:0:0:0:
228,168,45137,2,0,P|280:148|344:192,1,135.000005149842,8|0,0:0|0:0,0:0:0:0:
280,216,45587,1,0,0:0:0:0:
408,140,45737,6,0,L|416:216,1,67.5000025749208,2|0,0:0|0:0,0:0:0:0:
296,88,46037,1,0,0:0:0:0:
296,88,46337,2,0,L|284:196,1,101.250003862381,8|0,0:0|0:0,0:0:0:0:
280,216,46637,2,0,B|248:204|248:204|208:212,1,67.5000025749208,0|0,0:0|0:0,0:0:0:0:
376,268,46937,6,0,B|408:280|408:280|448:272,1,67.5000025749208,0|0,0:0|0:0,0:0:0:0:
300,376,47237,1,2,0:0:0:0:
352,332,47387,1,0,0:0:0:0:
168,272,47537,1,8,0:0:0:0:
220,316,47687,1,0,0:0:0:0:
20,352,47837,2,0,B|76:340|64:380|136:356,1,101.250003862381,0|0,0:0|0:0,0:0:0:0:
136,352,48137,6,0,L|144:264,1,67.5000025749208,2|0,0:0|0:0,0:0:0:0:
128,104,48437,1,0,0:0:0:0:
24,196,48587,1,0,0:0:0:0:
44,196,48662,1,0,0:0:0:0:
68,196,48737,2,0,L|156:196,1,67.5000025749208,8|0,0:0|0:0,0:0:0:0:
296,172,49037,1,0,0:0:0:0:
212,144,49187,1,0,0:0:0:0:
228,304,49337,5,0,0:0:0:0:
220,224,49487,1,0,0:0:0:0:
396,256,49637,2,0,B|340:244|352:284|280:260,1,101.250003862381,2|0,0:0|0:0,0:0:0:0:
297,264,49937,2,0,B|308:296|308:296|303:331,1,67.5000025749208,8|0,0:0|0:0,0:0:0:0:
456,384,50237,2,0,B|444:351|444:351|449:316,1,67.5000025749208,0|0,0:0|0:0,0:0:0:0:
512,120,50537,5,2,0:0:0:0:
456,208,50687,1,0,0:0:0:0:
480,200,50762,1,0,0:0:0:0:
508,192,50837,1,0,0:0:0:0:
408,152,50987,1,0,0:0:0:0:
296,264,51137,2,0,L|380:272,1,67.5000025749208,8|0,0:0|0:0,0:0:0:0:
200,152,51437,2,0,L|281:130,1,67.5000025749208,0|0,0:0|0:0,0:0:0:0:
68,72,51737,1,0,0:0:0:0:
68,72,52037,6,0,L|123:33,1,67.5000025749208,2|0,0:0|0:0,0:0:0:0:
265,135,52337,2,0,L|200:152,1,67.5000025749208,8|0,0:0|0:0,0:0:0:0:
363,270,52637,2,0,L|296:264,1,67.5000025749208,0|0,0:0|0:0,0:0:0:0:
96,244,52937,6,0,B|186:228|136:282|242:250,2,135.000005149842,2|0|8,0:0|0:0|0:0,0:0:0:0:
28,260,53687,1,0,0:0:0:0:
116,376,53837,2,0,L|120:308,1,67.5000025749208,0|0,0:0|0:0,0:0:0:0:
8,172,54137,6,0,L|12:240,1,67.5000025749208,0|0,0:0|0:0,0:0:0:0:
196,188,54437,2,0,L|204:76,1,101.250003862381,2|0,0:0|0:0,0:0:0:0:
216,52,54737,2,0,L|220:120,1,67.5000025749208,8|0,0:0|0:0,0:0:0:0:
336,64,55037,2,0,P|312:56|276:68,2,45.0000017166138,0|0|0,0:0|0:0|0:0,0:0:0:0:
396,32,55337,6,0,P|404:64|392:100,1,67.5000025749208,2|0,0:0|0:0,0:0:0:0:
280,168,55637,2,0,P|303:145|340:137,1,67.5000025749208,0|0,0:0|0:0,0:0:0:0:
456,200,55937,2,0,P|424:190|399:162,1,67.5000025749208,8|0,0:0|0:0,0:0:0:0:
340,252,56237,2,0,L|340:204,2,45.0000017166138,0|0|0,0:0|0:0|0:0,0:0:0:0:
508,248,56537,6,0,L|504:328,1,67.5000007867814
384,376,56837,1,2,0:0:0:0:
280,300,56987,1,0,0:0:0:0:
108,368,57137,2,0,B|156:384|156:384|224:368,1,101.250003862381,8|0,0:0|0:0,0:0:0:0:
240,360,57437,2,0,L|244:292,1,67.5000025749208,0|0,0:0|0:0,0:0:0:0:
120,132,57737,6,0,L|124:200,1,67.5000025749208,2|0,0:0|0:0,0:0:0:0:
0,295,58037,2,0,L|4:227,1,67.5000025749208
24,32,58337,1,8,0:0:0:0:
24,32,58637,5,0,0:0:0:0:
120,132,58787,1,0,0:0:0:0:
240,32,58937,2,0,B|204:24|204:24|176:36|176:36|132:28,1,101.250003862381,0|0,0:0|0:0,0:0:0:0:
116,24,59237,5,2,0:0:0:0:
32,140,59387,1,0,0:0:0:0:
204,252,59537,1,8,0:0:0:0:
120,132,59687,1,0,0:0:0:0:
56,304,59837,2,0,L|176:300,1,101.250003862381,0|0,0:0|0:0,0:0:0:0:
204,252,60137,6,0,B|236:264|236:264|280:248,1,67.5000025749208,2|0,0:0|0:0,0:0:0:0:
408,104,60437,2,0,B|381:125|381:125|373:171,1,67.5000025749208,0|0,0:0|0:0,0:0:0:0:
448,340,60737,2,0,B|442:306|442:306|406:276,1,67.5000025749208,8|0,0:0|0:0,0:0:0:0:
248,156,61037,1,0,0:0:0:0:
232,352,61187,1,0,0:0:0:0:
352,236,61337,5,8,0:0:0:0:
184,112,61487,1,8,0:0:0:0:
164,124,61562,1,0,0:0:0:0:
148,132,61637,2,0,L|204:128,1,33.7500012874604,8|0,0:0|0:0,0:0:0:0:
308,304,61787,2,0,L|260:274,1,33.7500012874604,8|0,0:0|0:0,0:0:0:0:
279,70,61937,6,0,L|300:122,1,33.7500012874604,8|0,0:0|0:0,0:0:0:0:
165,276,62087,2,0,L|179:221,1,33.7500012874604,8|0,0:0|0:0,0:0:0:0:
378,177,62237,2,0,L|335:213,1,33.7500012874604,8|0,0:0|0:0,0:0:0:0:
264,200,62387,2,0,L|216:170,1,33.7500012874604,8|0,0:0|0:0,0:0:0:0:
100,48,62537,6,0,B|-2:53|-2:53|52:40,1,135.000005149842,4|0,0:3|0:0,0:0:0:0:
29,45,62987,1,2,0:0:0:0:
156,4,63137,2,0,P|168:28|156:88,1,67.5000025749208,10|0,0:3|0:0,0:0:0:0:
56,196,63437,2,0,P|44:172|56:112,1,67.5000025749208,0|2,0:0|0:0,0:0:0:0:
112,156,63662,1,0,0:0:0:0:
112,156,63737,6,0,L|200:144,1,67.5000025749208,2|2,0:3|0:0,0:0:0:0:
310,122,64037,1,0,0:0:0:0:
178,146,64187,1,2,0:0:0:0:
310,186,64337,2,0,B|320:151|320:151|306:110,1,67.5000025749208,10|0,0:3|0:0,0:0:0:0:
396,4,64637,2,0,B|386:39|386:39|400:80,1,67.5000025749208,0|0,0:0|0:0,0:0:0:0:
428,128,64862,1,0,0:0:0:0:
391,187,64937,6,0,B|379:239|379:239|391:267|391:267|379:327,1,135.000005149842,2|0,0:3|0:0,0:0:0:0:
381,318,65387,1,2,0:0:0:0:
512,224,65537,2,0,P|481:236|448:231,1,67.5000025749208,10|0,0:3|0:0,0:0:0:0:
324,276,65837,2,0,P|291:270|260:282,1,67.5000025749208,0|2,0:0|0:0,0:0:0:0:
204,324,66062,1,0,0:0:0:0:
204,324,66137,6,0,L|112:328,1,67.5000025749208,2|2,0:3|0:0,0:0:0:0:
0,328,66437,1,0,0:0:0:0:
100,256,66587,1,2,0:0:0:0:
92,376,66737,2,0,P|72:308|100:268,1,101.250003862381,10|0,0:3|0:0,0:0:0:0:
100,256,67037,2,0,L|8:252,1,67.5000025749208,0|2,0:0|0:0,0:0:0:0:
20,16,67337,6,0,P|36:52|28:92,1,67.5000025749208,2|0,0:3|0:0,0:0:0:0:
136,64,67637,2,0,P|131:103|104:133,1,67.5000025749208,0|2,0:0|0:0,0:0:0:0:
204,172,67937,2,0,P|180:203|142:216,1,67.5000025749208,10|0,0:3|0:0,0:0:0:0:
248,116,68237,1,0,0:0:0:0:
312,240,68387,1,2,0:0:0:0:
448,96,68537,6,0,B|372:116|388:72|308:92,1,135.000005149842,2|0,0:3|0:0,0:0:0:0:
315,90,68987,1,2,0:0:0:0:
448,172,69137,2,0,B|372:192|388:148|308:168,1,135.000005149842,10|0,0:3|0:0,0:0:0:0:
180,209,69587,1,2,0:0:0:0:
180,209,69662,1,2,0:0:0:0:
180,209,69737,5,2,0:3:0:0:
315,166,69887,1,2,0:0:0:0:
180,122,70037,1,0,0:0:0:0:
264,237,70187,1,2,0:0:0:0:
264,95,70337,2,0,L|264:24,2,67.5000025749208,10|0|0,0:3|0:0|0:0,0:0:0:0:
115,236,70787,5,8,0:0:0:0:
115,236,70862,1,8,0:0:0:0:
115,236,70937,1,0,0:0:0:0:
322,280,71087,1,8,0:0:0:0:
180,122,71237,1,8,0:0:0:0:
203,335,71387,1,8,0:0:0:0:
310,150,71537,2,0,P|324:184|320:224,1,67.5000025749208,0|0,0:0|0:0,0:0:0:0:
444,368,71837,2,0,P|430:334|434:294,1,67.5000025749208,8|8,0:0|0:0,0:0:0:0:
510,98,72137,6,0,B|426:118|458:58|382:78,1,135.000005149842,4|0,0:3|0:0,0:0:0:0:
383,78,72587,1,2,0:0:0:0:
512,32,72737,2,0,B|520:68|520:68|508:104,1,67.5000025749208,8|0,0:0|0:0,0:0:0:0:
320,104,73037,2,0,B|312:68|312:68|324:32,1,67.5000025749208,0|2,0:0|0:0,0:0:0:0:
264,0,73262,1,0,0:0:0:0:
264,0,73337,6,0,P|220:12|188:-4,1,67.5000025749208,0|2,0:0|0:0,0:0:0:0:
76,72,73637,1,0,0:0:0:0:
72,200,73787,1,2,0:0:0:0:
112,12,73937,2,0,P|76:0|40:16,1,67.5000025749208,8|0,0:0|0:0,0:0:0:0:
4,64,74162,1,0,0:0:0:0:
4,64,74237,2,0,L|8:136,1,67.5000025749208,0|0,0:0|0:0,0:0:0:0:
188,215,74537,6,0,P|136:179|68:203,1,135.000005149842,2|0,0:0|0:0,0:0:0:0:
71,199,74987,1,2,0:0:0:0:
124,316,75137,2,0,L|124:232,1,67.5000025749208,8|0,0:0|0:0,0:0:0:0:
4,340,75437,2,0,B|52:360|52:360|116:340,1,101.250003862381,0|0,0:0|0:0,0:0:0:0:
124,316,75737,6,0,L|212:316,1,67.5000025749208,0|2,0:0|0:0,0:0:0:0:
348,296,76037,1,0,0:0:0:0:
264,372,76187,1,2,0:0:0:0:
252,256,76337,2,0,P|276:300|260:368,1,101.250003862381,8|0,0:0|0:0,0:0:0:0:
264,372,76637,2,0,L|356:372,1,67.5000025749208,0|2,0:0|0:0,0:0:0:0:
504,248,76937,6,0,L|384:244,1,101.250003862381,2|0,0:0|0:0,0:0:0:0:
348,208,77237,2,0,P|341:174|356:136,1,67.5000025749208,0|2,0:0|0:0,0:0:0:0:
104,112,77537,2,0,L|224:108,1,101.250003862381,8|0,0:0|0:0,0:0:0:0:
256,64,77837,2,0,P|262:30|248:-8,1,67.5000025749208,0|2,0:0|0:0,0:0:0:0:
128,36,78137,6,0,L|212:36,1,67.5000025749208,0|0,0:0|0:0,0:0:0:0:
418,143,78437,2,0,L|334:143,1,67.5000025749208,8|0,0:0|0:0,0:0:0:0:
80,248,78737,2,0,L|164:248,1,67.5000025749208,8|0,0:0|0:0,0:0:0:0:
400,368,79037,2,0,L|316:368,1,67.5000025749208,8|0,0:0|0:0,0:0:0:0:
4,72,79337,6,0,L|12:160,1,67.5000025749208,8|2,0:0|0:0,0:0:0:0:
112,328,79637,2,0,L|120:240,1,67.5000025749208,8|2,0:0|0:0,0:0:0:0:
260,40,79937,2,0,L|268:128,1,67.5000025749208,8|2,0:0|0:0,0:0:0:0:
404,368,80237,2,0,L|412:280,1,67.5000025749208,8|2,0:0|0:0,0:0:0:0:
504,16,80537,6,0,L|512:104,1,67.5000025749208,8|2,0:0|0:0,0:0:0:0:
468,272,80837,1,8,0:0:0:0:
384,96,80987,1,10,0:0:0:0:
256,276,81137,1,2,0:0:0:0:
124,120,81287,5,8,0:0:0:0:
116,144,81362,1,0,0:0:0:0:
108,168,81437,2,0,L|156:160,1,33.7500012874604,8|0,0:0|0:0,0:0:0:0:
0,192,81587,2,0,L|48:200,1,33.7500012874604,8|0,0:0|0:0,0:0:0:0:
256,192,81737,1,4,0:3:0:0:
