osu file format v14

[General]
AudioFilename: audio.mp3
AudioLeadIn: 0
PreviewTime: 62387
Countdown: 0
SampleSet: Soft
StackLeniency: 0.7
Mode: 0
LetterboxInBreaks: 0
WidescreenStoryboard: 1
SamplesMatchPlaybackRate: 1

[Editor]
Bookmarks: 78737
DistanceSpacing: 1.1
BeatDivisor: 4
GridSize: 4
TimelineZoom: 2.999999

[Metadata]
Title:T.D.D LEGEND
TitleUnicode:T.D.D LEGEND
Artist:The Dirty Dawg
ArtistUnicode:The Dirty Dawg
Creator:kanor
Version:Hard
Source:ヒプノシスマイク
Tags:Hypnosis Mic TDD DRB 山田一郎 木村昴 碧棺左马刻 浅沼晋太郎 饴村乱数 白井悠介 神宫寺寂雷 速水 奨 HabiHolic sandrew rin_sa Lunala microphone, division rap battle
BeatmapID:1967266
BeatmapSetID:937411

[Difficulty]
HPDrainRate:5
CircleSize:3.9
OverallDifficulty:7
ApproachRate:8
SliderMultiplier:2.8
SliderTickRate:1

[Events]
//Background and Video events
0,0,"DyT08u0VsAAKP1Z.jpg",0,0
//Break Periods
//Storyboard Layer 0 (Background)
//Storyboard Layer 1 (Fail)
//Storyboard Layer 2 (Pass)
//Storyboard Layer 3 (Foreground)
//Storyboard Sound Samples

[TimingPoints]
137,600,4,2,1,60,1,0
4712,-100,4,2,1,5,0,0
4937,-100,4,2,1,60,0,0
5012,-100,4,2,1,70,0,0
24137,-200,4,2,1,30,0,0
24437,-200,4,2,1,50,0,0
26537,-133.333333333333,4,2,1,60,0,0
33737,-200,4,2,1,60,0,0
35462,-133.333333333333,4,2,1,60,0,0
43337,-133.333333333333,4,2,1,30,0,0
43487,-133.333333333333,4,2,1,60,0,0
62537,-133.333333333333,4,2,1,50,0,0
70787,-133.333333333333,4,2,1,60,0,0
72137,-100,4,2,1,70,0,0

[Colours]
Combo1 : 0,128,192
Combo2 : 191,191,191
Combo3 : 128,128,128
Combo4 : 255,128,255
Combo5 : 128,128,192
Combo6 : 179,30,30

[HitObjects]
256,192,137,12,0,4637,0:0:0:0:
12,40,4937,6,0,B|87:25|61:75|155:42,1,140,4|0,0:3|0:0,0:0:0:0:
208,84,5387,1,2,0:0:0:0:
212,88,5537,2,0,B|224:228,1,140,8|0,0:0|0:0,0:0:0:0:
144,192,5987,1,2,0:0:0:0:
144,192,6137,6,0,L|136:104,2,70,0|2|0,0:0|0:0|0:0,0:0:0:0:
304,264,6737,2,0,B|292:124,1,140,8|0,0:0|0:0,0:0:0:0:
284,48,7187,1,0,0:0:0:0:
292,124,7337,6,0,P|368:144|424:92,1,140,2|0,0:0|0:0,0:0:0:0:
400,36,7787,1,2,0:0:0:0:
400,36,7937,2,0,P|440:36|472:60,1,70,8|0,0:0|0:0,0:0:0:0:
508,112,8237,2,0,L|500:192,1,70,0|8,0:0|0:0,0:0:0:0:
444,256,8537,6,0,B|476:251|476:251|520:268,2,70,0|8|0,0:0|0:0|0:0,0:0:0:0:
464,332,8987,1,2,0:0:0:0:
464,332,9137,2,0,B|431:336|431:336|388:320,1,70,8|0,0:0|0:0,0:0:0:0:
328,288,9437,2,0,B|295:283|295:283|252:300,1,70,8|8,0:0|0:0,0:0:0:0:
116,348,9737,6,0,B|24:376|64:328|-40:344,2,140,4|0|8,0:0|0:0|0:0,0:0:0:0:
76,280,10487,1,0,0:0:0:0:
76,280,10637,2,0,L|84:196,1,70,0|2,0:0|0:0,0:0:0:0:
16,160,10937,6,0,P|80:184|148:140,1,140,2|2,0:0|0:0,0:0:0:0:
80,104,11387,1,2,0:0:0:0:
80,104,11537,2,0,P|144:80|212:124,1,140,8|0,0:0|0:0,0:0:0:0:
208,192,11987,2,0,L|208:280,1,70,0|2,0:0|0:0,0:0:0:0:
208,262,12437,6,0,P|248:254|272:222,1,70,0|2,0:0|0:0,0:0:0:0:
336,200,12737,2,0,P|309:169|269:164,2,70,8|0|0,0:0|0:0|0:0,0:0:0:0:
416,240,13187,1,0,0:0:0:0:
416,240,13337,6,0,L|420:324,2,70,2|8|0,0:0|0:0|0:0,0:0:0:0:
408,156,13787,1,2,0:0:0:0:
408,156,13937,2,0,P|443:153|476:166,1,70,8|8,0:0|0:0,0:0:0:0:
512,236,14237,1,8,0:0:0:0:
512,236,14387,1,8,0:0:0:0:
512,64,14537,6,0,B|456:72|456:72|424:56|424:56|364:64,1,140,4|0,0:0|0:0,0:0:0:0:
308,36,14987,1,2,0:0:0:0:
308,36,15137,2,0,B|252:44|252:44|220:28|220:28|160:36,1,140,8|0,0:0|0:0,0:0:0:0:
211,112,15587,1,2,0:0:0:0:
211,112,15737,6,0,P|223:148|211:200,2,70,2|2|0,0:0|0:0|0:0,0:0:0:0:
128,96,16187,1,2,0:0:0:0:
128,96,16337,2,0,B|88:88|88:88|52:96,1,70,8|0,0:0|0:0,0:0:0:0:
16,164,16637,2,0,B|56:172|56:172|92:164,1,70,0|0,0:0|0:0,0:0:0:0:
220,180,16937,6,0,P|252:243|212:319,1,140,2|0,0:0|0:0,0:0:0:0:
176,248,17387,1,2,0:0:0:0:
176,248,17537,2,0,B|108:232|108:232|36:248,1,140,8|0,0:0|0:0,0:0:0:0:
72,320,17987,1,2,0:0:0:0:
72,320,18137,6,0,B|112:328|112:328|152:312,1,70,2|8,0:0|0:0,0:0:0:0:
229,304,18437,2,0,B|269:296|269:296|309:312,1,70,0|2,0:0|0:0,0:0:0:0:
368,348,18737,2,0,B|436:324|432:384|528:356,1,140,8|8,0:0|0:0,0:0:0:0:
508,352,19187,1,8,0:0:0:0:
480,232,19337,6,0,P|484:192|508:160,1,70,4|0,0:0|0:0,0:0:0:0:
428,144,19637,2,0,P|451:111|488:95,1,70,0|2,0:0|0:0,0:0:0:0:
512,28,19937,2,0,L|356:20,1,140,8|0,0:0|0:0,0:0:0:0:
300,40,20387,1,0,0:0:0:0:
300,40,20537,6,0,L|300:116,2,70,0|2|0,0:0|0:0|0:0,0:0:0:0:
220,8,20987,2,0,L|216:156,1,140,2|0,0:0|0:0,0:0:0:0:
240,216,21437,2,0,P|208:220|164:200,1,70,0|0,0:0|0:0,0:0:0:0:
108,168,21737,5,2,0:0:0:0:
108,168,22037,2,0,L|112:88,1,70,0|2,0:0|0:0,0:0:0:0:
24,192,22337,2,0,L|28:112,2,70,8|0|0,0:0|0:0|0:0,0:0:0:0:
24,268,22787,1,2,0:0:0:0:
92,308,22937,6,0,P|128:300|176:320,1,70,0|2,0:0|0:0,0:0:0:0:
224,352,23237,2,0,P|260:360|308:340,1,70,0|2,0:0|0:0,0:0:0:0:
360,320,23537,1,0,0:0:0:0:
424,360,23687,2,0,L|508:364,2,70,2|2|2,0:0|0:0|0:0,0:0:0:0:
360,320,24137,6,0,L|360:248,1,70,4|0,0:3|0:0,0:0:0:0:
360,250,24737,2,0,L|408:244,1,35,0|2,0:0|0:0,0:0:0:0:
464,216,25037,2,0,L|470:264,1,35,0|0,0:0|0:0,0:0:0:0:
394,245,25337,6,0,L|390:211,1,35,0|2,0:0|0:0,0:0:0:0:
436,140,25637,2,0,L|484:134,1,35,0|2,0:0|0:0,0:0:0:0:
480,56,25937,2,0,L|404:52,1,70,2|0,0:0|0:0,0:0:0:0:
336,36,26387,1,2,0:0:0:0:
336,36,26537,6,0,P|288:12|232:24,2,105.000004005432,2|0|8,0:0|0:0|0:0,0:0:0:0:
280,92,27287,1,2,0:0:0:0:
280,92,27437,2,0,L|284:160,1,52.5000020027161,0|8,0:0|0:0,0:0:0:0:
200,176,27737,2,0,L|204:108,1,52.5000020027161,2|8,0:0|0:0,0:0:0:0:
120,92,28037,2,0,L|124:160,2,52.5000020027161,0|2|8,0:0|0:0|0:0,0:0:0:0:
44,128,28487,1,0,0:0:0:0:
44,128,28637,2,0,L|40:196,1,52.5000020027161,0|2,0:0|0:0,0:0:0:0:
0,276,28937,6,0,P|48:252|104:276,1,105.000004005432,2|0,0:0|0:0,0:0:0:0:
56,328,29387,1,0,0:0:0:0:
56,328,29537,2,0,P|108:340|152:308,1,105.000004005432,8|0,0:0|0:0,0:0:0:0:
212,272,29987,1,2,0:0:0:0:
284,304,30137,6,0,L|276:400,2,78.7500030040742,2|2|2,0:0|0:0|0:0,0:0:0:0:
284,304,31037,6,0,L|380:312,2,78.7500030040742,2|2|2,0:0|0:0|0:0,0:0:0:0:
284,304,31937,2,0,L|292:236,1,52.5000020027161,8|0,0:0|0:0,0:0:0:0:
344,196,32237,2,0,L|352:128,1,52.5000020027161,0|8,0:0|0:0,0:0:0:0:
404,88,32537,6,0,B|444:100|444:100|492:92,2,78.7500030040742,2|2|2,0:0|0:0|0:0,0:0:0:0:
348,36,33137,2,0,B|320:28|320:28|276:36,1,52.5000020027161,8|8,0:0|0:0,0:0:0:0:
228,72,33437,1,8,0:0:0:0:
160,36,33587,1,8,0:0:0:0:
228,100,33737,6,0,L|228:144,1,35,2|0,0:0|0:0,0:0:0:0:
220,216,34037,2,0,L|256:212,1,35,0|0,0:0|0:0,0:0:0:0:
232,140,34337,1,0,0:0:0:0:
232,140,34487,2,0,L|152:132,1,70,2|0,0:0|0:0,0:0:0:0:
88,120,34937,6,0,L|92:156,1,35,0|2,0:0|0:0,0:0:0:0:
28,196,35237,2,0,L|24:232,1,35,0|8,0:0|0:0,0:0:0:0:
16,264,35462,1,8,0:0:0:0:
16,264,35537,2,0,P|43:260|76:276,1,52.5000020027161,0|0,0:0|0:0,0:0:0:0:
104,336,35837,1,0,0:0:0:0:
180,312,35987,1,0,0:0:0:0:
180,312,36062,1,0,0:0:0:0:
180,312,36137,6,0,L|180:244,1,52.5000020027161,2|0,0:0|0:0,0:0:0:0:
152,192,36437,2,0,P|176:184|216:196,1,52.5000020027161,0|0,0:0|0:0,0:0:0:0:
228,120,36737,2,0,P|250:131|270:168,1,52.5000020027161,8|2,0:0|0:0,0:0:0:0:
332,124,37037,2,0,P|340:148|327:188,1,52.5000020027161,0|8,0:0|0:0,0:0:0:0:
280,228,37337,5,2,0:0:0:0:
280,228,37487,1,2,0:0:0:0:
260,312,37637,1,0,0:0:0:0:
260,312,37787,1,2,0:0:0:0:
308,380,37937,2,0,B|344:368|344:368|376:376|376:376|420:364,1,105.000004005432,8|0,0:0|0:0,0:0:0:0:
420,368,38387,1,2,0:0:0:0:
492,376,38537,6,0,P|488:344|468:316,1,52.5000020027161,2|0,0:0|0:0,0:0:0:0:
384,296,38837,2,0,P|388:264|408:236,1,52.5000020027161,0|0,0:0|0:0,0:0:0:0:
468,200,39137,2,0,L|476:268,2,52.5000020027161,8|2|0,0:0|0:0|0:0,0:0:0:0:
424,136,39587,6,0,P|402:94|416:36,1,105.000004005432,8|2,0:0|0:0,0:0:0:0:
420,32,40037,2,0,L|351:33,1,52.5000020027161,0|2,0:0|0:0,0:0:0:0:
312,108,40337,2,0,P|248:124|208:100,1,105.000004005432,8|0,0:0|0:0,0:0:0:0:
264,0,40787,1,2,0:0:0:0:
264,0,40937,6,0,L|264:68,1,52.5000020027161,2|8,0:0|0:0,0:0:0:0:
215,107,41237,2,0,B|187:99|187:99|147:107,1,52.5000020027161,0|2,0:0|0:0,0:0:0:0:
108,24,41537,2,0,B|136:32|136:32|176:24,1,52.5000020027161,8|0,0:0|0:0,0:0:0:0:
88,100,41837,2,0,L|84:160,1,52.5000020027161,0|2,0:0|0:0,0:0:0:0:
12,184,42137,6,0,L|8:124,1,52.5000020027161,0|8,0:0|0:0,0:0:0:0:
76,228,42437,2,0,B|116:220|116:220|136:232|136:232|188:224,2,105.000004005432,0|8|0,0:0|0:0|0:0,0:0:0:0:
160,304,43337,6,0,L|216:292,2,52.5000020027161,4|0|0,0:3|0:0|0:0,0:0:0:0:
52,372,43937,2,0,L|-4:360,2,52.5000020027161,8|0|0,0:0|0:0|0:0,0:0:0:0:
176,376,44537,6,0,B|252:356|252:356|288:380,1,105.000004005432,0|2,0:0|0:0,0:0:0:0:
348,360,44987,1,0,0:0:0:0:
348,360,45137,2,0,B|369:374|369:374|445:354,1,105.000004005432,8|0,0:0|0:0,0:0:0:0:
492,256,45737,6,0,L|504:312,2,52.5000020027161,2|0|0,0:0|0:0|0:0,0:0:0:0:
488,128,46337,2,0,L|500:72,2,52.5000020027161,8|0|0,0:0|0:0|0:0,0:0:0:0:
436,184,46787,1,0,0:0:0:0:
436,184,46937,6,0,P|376:188|336:152,1,105.000004005432,0|2,0:0|0:0,0:0:0:0:
328,88,47387,1,0,0:0:0:0:
400,60,47537,2,0,L|404:128,2,52.5000020027161,8|0|0,0:0|0:0|0:0,0:0:0:0:
264,0,48137,6,0,L|260:68,1,52.5000020027161,2|0,0:0|0:0,0:0:0:0:
204,104,48437,1,0,0:0:0:0:
204,104,48587,2,0,B|160:108|160:108|132:96|132:96|92:100,1,105.000004005432,0|0,0:0|0:0,0:0:0:0:
60,28,49037,2,0,L|112:24,1,52.5000020027161,0|0,0:0|0:0,0:0:0:0:
101,99,49337,6,0,L|49:103,1,52.5000020027161,0|0,0:0|0:0,0:0:0:0:
36,176,49637,2,0,B|48:232|8:220|40:288,2,105.000004005432,2|8|0,0:0|0:0|0:0,0:0:0:0:
0,340,50537,5,2,0:0:0:0:
0,340,50687,2,0,P|48:352|100:312,1,105.000004005432,0|0,0:0|0:0,0:0:0:0:
136,264,51137,2,0,L|132:211,1,52.5000020027161,8|0,0:0|0:0,0:0:0:0:
208,184,51437,2,0,L|211:236,2,52.5000020027161,0|0|0,0:0|0:0|0:0,0:0:0:0:
200,312,52037,6,0,L|324:320,2,105.000004005432,2|8|0,0:0|0:0|0:0,0:0:0:0:
360,372,52937,6,0,P|380:320|352:256,2,105.000004005432,2|0|8,0:0|0:0|0:0,0:0:0:0:
304,318,53687,1,0,0:0:0:0:
296,244,53837,2,0,L|296:172,1,52.5000020027161,0|0,0:0|0:0,0:0:0:0:
368,160,54137,6,0,P|396:168|432:164,1,52.5000020027161,0|0,0:0|0:0,0:0:0:0:
496,148,54437,2,0,L|496:76,1,52.5000020027161,2|0,0:0|0:0,0:0:0:0:
512,16,54737,2,0,P|484:24|448:20,1,52.5000020027161,8|0,0:0|0:0,0:0:0:0:
392,56,55037,2,0,P|364:48|328:52,1,52.5000020027161,0|0,0:0|0:0,0:0:0:0:
204,100,55337,6,0,B|188:68|188:68|208:-8,2,105.000004005432,2|0|8,0:0|0:0|0:0,0:0:0:0:
240,172,56087,1,0,0:0:0:0:
240,172,56237,2,0,L|232:240,1,52.5000020027161,0|0,0:0|0:0,0:0:0:0:
172,264,56537,6,0,P|144:252|108:256,1,52.5000020027161,0|0,0:0|0:0,0:0:0:0:
52,228,56837,2,0,L|45:175,2,52.5000020027161,2|0|8,0:0|0:0|0:0,0:0:0:0:
0,384,57437,1,0,0:0:0:0:
164,352,57737,6,0,P|216:372|272:340,1,105.000004005432,2|0,0:0|0:0,0:0:0:0:
320,304,58187,1,0,0:0:0:0:
320,304,58337,2,0,P|372:284|428:316,1,105.000004005432,8|0,0:0|0:0,0:0:0:0:
492,328,58787,1,0,0:0:0:0:
492,328,58937,6,0,L|492:260,1,52.5000020027161,0|0,0:0|0:0,0:0:0:0:
444,216,59237,2,0,L|444:148,1,52.5000020027161,2|0,0:0|0:0,0:0:0:0:
488,96,59537,2,0,L|488:28,2,52.5000020027161,8|0|0,0:0|0:0|0:0,0:0:0:0:
312,64,60137,6,0,B|368:48|348:88|416:68,2,105.000004005432,2|0|8,0:0|0:0|0:0,0:0:0:0:
240,36,60887,1,0,0:0:0:0:
240,36,61037,2,0,P|232:64|252:104,1,52.5000020027161,0|0,0:0|0:0,0:0:0:0:
236,180,61337,6,0,P|215:159|171:156,1,52.5000020027161,8|8,0:0|0:0,0:0:0:0:
140,92,61637,2,0,P|115:100|97:119,1,52.5000020027161,8|8,0:0|0:0,0:0:0:0:
16,124,61937,1,8,0:0:0:0:
16,124,62087,1,8,0:0:0:0:
40,200,62237,1,8,0:0:0:0:
12,272,62387,1,8,0:0:0:0:
116,380,62537,6,0,L|240:372,1,105.000004005432,4|0,0:3|0:0,0:0:0:0:
228,296,62987,1,2,0:0:0:0:
228,296,63137,2,0,L|123:302,2,105.000004005432,10|0|2,0:3|0:0|0:3,0:0:0:0:
292,348,63887,5,2,0:0:0:0:
356,300,64037,1,0,0:0:0:0:
412,360,64187,2,0,P|436:316|412:248,1,105.000004005432,2|0,0:0|0:0,0:0:0:0:
384,204,64637,2,0,P|396:196|452:204,1,52.5000020027161,0|0,0:0|0:0,0:0:0:0:
512,104,64937,6,0,P|455:109|408:76,1,105.000004005432,2|0,0:3|0:0,0:0:0:0:
356,40,65387,1,2,0:0:0:0:
356,40,65537,2,0,P|310:14|259:21,2,105.000004005432,10|0|2,0:3|0:0|0:3,0:0:0:0:
296,88,66287,5,2,0:0:0:0:
220,92,66437,1,0,0:0:0:0:
172,36,66587,2,0,L|160:152,1,105.000004005432,2|0,0:0|0:0,0:0:0:0:
88,108,67037,2,0,L|96:56,1,52.5000020027161,0|2,0:0|0:0,0:0:0:0:
16,144,67337,6,0,B|32:184|32:184|20:248,2,105.000004005432,2|0|10,0:3|0:0|0:3,0:0:0:0:
100,224,68237,2,0,L|88:284,1,52.5000020027161,0|2,0:0|0:0,0:0:0:0:
36,328,68537,6,0,P|76:348|140:332,1,105.000004005432,2|0,0:3|0:0,0:0:0:0:
184,280,68987,1,2,0:0:0:0:
184,280,69137,2,0,P|224:260|288:276,1,105.000004005432,10|0,0:3|0:0,0:0:0:0:
408,340,69737,5,2,0:3:0:0:
423,295,69887,1,2,0:0:0:0:
470,295,70037,1,0,0:0:0:0:
485,340,70187,1,2,0:0:0:0:
447,367,70337,2,0,L|448:248,1,105.000004005432,10|0,0:3|0:0,0:0:0:0:
408,48,70937,5,0,0:0:0:0:
423,93,71087,1,8,0:0:0:0:
470,93,71237,1,8,0:0:0:0:
485,48,71387,1,8,0:0:0:0:
447,21,71537,2,0,L|448:140,1,105.000004005432,0|8,0:0|0:0,0:0:0:0:
400,192,71987,1,8,0:0:0:0:
300,144,72137,6,0,B|244:152|244:152|212:136|212:136|152:144,1,140,4|0,0:3|0:0,0:0:0:0:
196,64,72587,1,2,0:0:0:0:
196,64,72737,2,0,B|140:72|140:72|108:56|108:56|48:64,1,140,8|0,0:0|0:0,0:0:0:0:
88,140,73187,1,2,0:0:0:0:
88,140,73337,6,0,P|100:176|88:228,2,70,0|2|0,0:0|0:0|0:0,0:0:0:0:
24,184,73787,1,2,0:0:0:0:
24,184,73937,2,0,B|16:224|16:224|24:260,1,70,8|0,0:0|0:0,0:0:0:0:
92,352,74237,2,0,B|100:312|100:312|92:276,1,70,0|0,0:0|0:0,0:0:0:0:
208,260,74537,6,0,P|176:323|216:392,1,140,2|0,0:0|0:0,0:0:0:0:
256,328,74987,1,2,0:0:0:0:
256,328,75137,2,0,B|324:344|324:344|396:328,1,140,8|0,0:0|0:0,0:0:0:0:
464,364,75587,1,0,0:0:0:0:
464,364,75737,6,0,B|472:324|472:324|456:284,1,70,0|2,0:0|0:0,0:0:0:0:
440,220,76037,2,0,B|432:180|432:180|448:140,1,70,0|2,0:0|0:0,0:0:0:0:
472,80,76337,2,0,B|404:56|408:116|312:88,1,140,8|0,0:0|0:0,0:0:0:0:
324,92,76787,1,2,0:0:0:0:
200,8,76937,6,0,B|212:112|212:112|188:68,1,140,2|0,0:0|0:0,0:0:0:0:
116,84,77387,1,2,0:0:0:0:
116,84,77537,2,0,B|128:188|128:188|96:232,2,140,8|0|0,0:0|0:0|0:0,0:0:0:0:
23,207,78437,6,0,P|25:242|58:283,1,70,8|0,0:0|0:0,0:0:0:0:
28,347,78737,2,0,P|63:344|104:311,1,70,8|0,0:0|0:0,0:0:0:0:
163,356,79037,2,0,P|170:320|148:272,1,70,8|0,0:0|0:0,0:0:0:0:
256,196,79337,5,8,0:0:0:0:
256,196,79637,2,0,P|300:192|332:208,1,70,8|2,0:0|0:0,0:0:0:0:
356,132,79937,2,0,P|389:160|401:194,1,70,8|2,0:0|0:0,0:0:0:0:
472,152,80237,2,0,P|476:195|460:228,1,70,8|2,0:0|0:0,0:0:0:0:
368,296,80537,6,0,B|456:280|424:328|516:304,2,140,8|8|2,0:0|0:0|0:0,0:0:0:0:
316,364,81287,1,8,0:0:0:0:
240,316,81437,2,0,L|152:312,1,70,8|8,0:0|0:0,0:0:0:0:
40,364,81737,1,4,0:3:0:0:
