osu file format v14

[General]
AudioFilename: audio.mp3
AudioLeadIn: 0
PreviewTime: 62387
Countdown: 0
SampleSet: Soft
StackLeniency: 0.7
Mode: 0
LetterboxInBreaks: 0
WidescreenStoryboard: 1
SamplesMatchPlaybackRate: 1

[Editor]
DistanceSpacing: 1
BeatDivisor: 8
GridSize: 4
TimelineZoom: 2

[Metadata]
Title:T.D.D LEGEND
TitleUnicode:T.D.D LEGEND
Artist:The Dirty Dawg
ArtistUnicode:The Dirty Dawg
Creator:kanor
Version:Habi's Insane
Source:ヒプノシスマイク
Tags:Hypnosis Mic TDD DRB 山田一郎 木村昴 碧棺左马刻 浅沼晋太郎 饴村乱数 白井悠介 神宫寺寂雷 速水 奨 HabiHolic sandrew rin_sa Lunala microphone, division rap battle
BeatmapID:1972036
BeatmapSetID:937411

[Difficulty]
HPDrainRate:5.6
CircleSize:4
OverallDifficulty:7
ApproachRate:9
SliderMultiplier:3.16
SliderTickRate:1

[Events]
//Background and Video events
0,0,"DyT08u0VsAAKP1Z.jpg",0,0
//Break Periods
2,33937,34787
//Storyboard Layer 0 (Background)
//Storyboard Layer 1 (Fail)
//Storyboard Layer 2 (Pass)
//Storyboard Layer 3 (Foreground)
//Storyboard Sound Samples

[TimingPoints]
137,600,4,2,1,60,1,0
137,-133.333333333333,4,2,1,60,0,0
4712,-133.333333333333,4,2,1,5,0,0
4937,-100,4,2,1,60,0,0
5012,-100,4,2,1,70,0,0
24137,-133.333333333333,4,2,1,30,0,0
24437,-133.333333333333,4,2,1,50,0,0
26537,-100,4,2,1,60,0,0
43337,-133.333333333333,4,2,1,30,0,0
43487,-133.333333333333,4,2,1,60,0,0
61337,-100,4,2,1,60,0,0
62537,-200,4,2,1,50,0,0
70787,-200,4,2,1,60,0,0
71237,-100,4,2,1,60,0,0
72137,-100,4,2,1,70,0,0

[Colours]
Combo1 : 0,128,192
Combo2 : 191,191,191
Combo3 : 128,128,128
Combo4 : 255,128,255
Combo5 : 128,128,192
Combo6 : 179,30,30

[HitObjects]
110,172,137,6,0,P|100:144|99:114,1,59.2500022602082,2|0,0:0|0:0,0:0:0:0:
181,52,437,2,0,P|190:79|191:109,1,59.2500022602082,0|2,0:0|0:0,0:0:0:0:
146,261,737,2,0,P|88:267|38:236,1,118.500004520416,8|2,0:0|0:0,0:0:0:0:
110,172,1187,1,0,0:0:0:0:
240,237,1337,6,0,L|233:302,1,59.2500022602082,0|0,0:0|0:0,0:0:0:0:
326,167,1637,2,0,L|344:291,1,118.500004520416,2|8,0:0|0:0,0:0:0:0:
199,153,2087,1,0,0:0:0:0:
287,73,2237,1,0,0:0:0:0:
180,138,2387,1,0,0:0:0:0:
275,51,2537,6,0,L|308:46,1,29.6250011301041,2|0,0:0|0:0,0:0:0:0:
450,67,2687,2,0,L|417:72,1,29.6250011301041,0|0,0:0|0:0,0:0:0:0:
352,133,2837,1,0,0:0:0:0:
244,209,2987,1,2,0:0:0:0:
372,273,3137,2,0,L|379:243,1,29.6250011301041,2|0,0:0|0:0,0:0:0:0:
458,166,3287,2,0,L|451:196,1,29.6250011301041,0|0,0:0|0:0,0:0:0:0:
409,358,3437,5,2,0:0:0:0:
380,364,3512,1,0,0:0:0:0:
350,362,3587,1,0,0:0:0:0:
323,351,3662,1,0,0:0:0:0:
301,332,3737,1,0,0:0:0:0:
231,214,3887,1,2,0:0:0:0:
179,336,4037,1,2,0:0:0:0:
147,140,4187,1,0,0:0:0:0:
147,139,4937,6,0,P|70:148|12:99,1,158,4|0,0:3|0:0,0:0:0:0:
99,54,5387,1,2,0:0:0:0:
257,21,5537,2,0,P|269:59|271:100,1,79,8|0,0:0|0:0,0:0:0:0:
163,248,5837,2,0,P|151:210|148:171,1,79,0|2,0:0|0:0,0:0:0:0:
306,216,6137,6,0,L|285:375,1,158,0|0,0:0|0:0,0:0:0:0:
171,269,6587,1,2,0:0:0:0:
281,131,6737,2,0,B|366:119|350:176|437:163,1,158,8|0,0:0|0:0,0:0:0:0:
414,75,7187,1,0,0:0:0:0:
188,18,7337,6,0,P|196:62|201:104,1,79,2|0,0:0|0:0,0:0:0:0:
90,173,7637,2,0,P|82:129|77:87,1,79,0|2,0:0|0:0,0:0:0:0:
198,266,7937,2,0,B|138:257|138:257|102:266|102:266|39:254,1,158,8|0,0:0|0:0,0:0:0:0:
90,173,8387,1,8,0:0:0:0:
261,101,8537,6,0,L|245:180,1,79,0|8,0:0|0:0,0:0:0:0:
333,289,8837,2,0,L|349:210,1,79,0|2,0:0|0:0,0:0:0:0:
312,37,9137,2,0,B|231:36|247:91|163:88,1,158,8|8,0:0|0:0,0:0:0:0:
94,26,9587,1,8,0:0:0:0:
23,168,9737,6,0,P|68:232|78:315,1,158,4|0,0:0|0:0,0:0:0:0:
203,360,10187,1,2,0:0:0:0:
325,310,10337,2,0,P|335:232|380:168,1,158,8|0,0:0|0:0,0:0:0:0:
352,76,10787,1,2,0:0:0:0:
156,181,10937,6,0,B|95:171|95:171|62:180|62:180|-1:169,1,158,2|2,0:0|0:0,0:0:0:0:
208,94,11387,2,0,P|249:160|235:236,1,158,2|0,0:0|0:0,0:0:0:0:
158,290,11837,1,0,0:0:0:0:
158,290,12137,6,0,B|100:281|100:281|60:291|60:291|2:282,1,158,2|0,0:0|0:0,0:0:0:0:
43,200,12587,1,2,0:0:0:0:
155,105,12737,2,0,P|163:146|165:187,1,79,8|0,0:0|0:0,0:0:0:0:
295,314,13037,2,0,P|297:274|305:235,1,79,0|0,0:0|0:0,0:0:0:0:
361,146,13337,5,2,0:0:0:0:
235,65,13487,1,8,0:0:0:0:
362,17,13637,2,0,L|443:26,1,79,0|2,0:0|0:0,0:0:0:0:
271,149,13937,5,8,0:0:0:0:
440,115,14087,1,8,0:0:0:0:
292,242,14237,2,0,L|210:225,1,79,8|8,0:0|0:0,0:0:0:0:
144,158,14537,6,0,P|179:227|174:305,1,158,4|0,0:0|0:0,0:0:0:0:
78,249,14987,1,2,0:0:0:0:
71,47,15137,2,0,B|161:41|134:89|224:76,1,158,8|0,0:0|0:0,0:0:0:0:
303,24,15587,1,2,0:0:0:0:
354,173,15737,6,0,L|337:253,1,79,2|2,0:0|0:0,0:0:0:0:
253,195,16037,1,0,0:0:0:0:
452,151,16187,2,0,L|420:320,1,158,2|0,0:0|0:0,0:0:0:0:
340,358,16637,1,0,0:0:0:0:
246,171,16787,1,0,0:0:0:0:
247,317,16937,6,0,L|92:292,1,158,2|0,0:0|0:0,0:0:0:0:
17,124,17387,1,2,0:0:0:0:
90,51,17537,2,0,P|118:123|92:196,1,158,8|0,0:0|0:0,0:0:0:0:
17,124,17987,1,2,0:0:0:0:
195,195,18137,6,0,L|274:182,1,79,2|8,0:0|0:0,0:0:0:0:
389,39,18437,1,0,0:0:0:0:
442,112,18587,2,0,P|367:127|307:78,1,158,2|0,0:0|0:0,0:0:0:0:
389,39,19037,1,8,0:0:0:0:
389,39,19337,6,0,L|408:198,1,158,4|0,0:0|0:0,0:0:0:0:
346,266,19787,1,2,0:0:0:0:
209,147,19937,2,0,P|169:145|133:160,1,79,8|0,0:0|0:0,0:0:0:0:
11,255,20237,2,0,P|50:256|86:241,1,79,0|0,0:0|0:0,0:0:0:0:
284,206,20537,6,0,L|304:128,1,79,0|2,0:0|0:0,0:0:0:0:
238,53,20837,1,0,0:0:0:0:
196,244,20987,2,0,P|248:295|331:289,1,158,2|0,0:0|0:0,0:0:0:0:
438,195,21437,1,0,0:0:0:0:
438,195,21737,6,0,L|455:116,1,79,2|8,0:0|0:0,0:0:0:0:
334,34,22037,1,0,0:0:0:0:
360,246,22187,1,2,0:0:0:0:
232,152,22337,2,0,P|191:151|155:140,1,79,8|0,0:0|0:0,0:0:0:0:
92,60,22637,1,0,0:0:0:0:
116,222,22787,1,2,0:0:0:0:
290,71,22937,6,0,L|274:240,1,158,0|0,0:0|0:0,0:0:0:0:
191,288,23387,1,2,0:0:0:0:
270,357,23537,2,0,L|351:344,1,79,0|2,0:0|0:0,0:0:0:0:
484,201,23837,2,0,L|403:214,1,79,2|2,0:0|0:0,0:0:0:0:
321,159,24137,6,0,P|298:104|301:46,1,118.500004520416,4|0,0:3|0:0,0:0:0:0:
301,46,24737,2,0,L|429:72,1,118.500004520416,0|0,0:0|0:0,0:0:0:0:
487,17,25187,1,0,0:0:0:0:
497,149,25337,6,0,P|486:177|482:206,1,59.2500022602082,0|2,0:0|0:0,0:0:0:0:
405,312,25637,2,0,P|400:282|390:255,1,59.2500022602082,0|2,0:0|0:0,0:0:0:0:
306,193,25937,1,2,0:0:0:0:
225,249,26087,1,8,0:0:0:0:
143,304,26237,2,0,L|78:288,1,59.2500022602082,0|2,0:0|0:0,0:0:0:0:
0,174,26537,6,0,P|75:185|131:133,1,158,2|0,0:0|0:0,0:0:0:0:
153,25,26987,1,0,0:0:0:0:
249,147,27137,2,0,L|236:231,1,79,8|2,0:0|0:0,0:0:0:0:
351,123,27437,2,0,L|363:44,1,79,0|8,0:0|0:0,0:0:0:0:
231,127,27737,5,2,0:0:0:0:
409,202,27887,1,8,0:0:0:0:
251,311,28037,2,0,L|174:297,1,79,0|2,0:0|0:0,0:0:0:0:
20,215,28337,1,8,0:0:0:0:
146,164,28487,1,0,0:0:0:0:
48,48,28637,2,0,L|65:131,1,79,0|2,0:0|0:0,0:0:0:0:
174,178,28937,5,2,0:0:0:0:
174,178,29237,1,0,0:0:0:0:
249,121,29387,1,0,0:0:0:0:
259,221,29537,2,0,L|337:206,1,79,8|0,0:0|0:0,0:0:0:0:
457,97,29837,2,0,L|379:112,1,79,0|2,0:0|0:0,0:0:0:0:
257,312,30137,6,0,L|377:288,1,118.5,2|2,0:0|0:0,0:0:0:0:
407,310,30437,1,0,0:0:0:0:
469,191,30587,1,2,0:0:0:0:
328,107,30737,2,0,P|320:149|332:188,1,79,8|0,0:0|0:0,0:0:0:0:
411,32,31037,6,0,L|281:15,1,118.5
255,42,31337,2,0,L|169:28,1,79,2|0,0:0|0:0,0:0:0:0:
56,155,31637,2,0,L|142:169,1,79
347,198,31937,2,0,P|354:237|349:276,1,79,8|0,0:0|0:0,0:0:0:0:
257,119,32237,2,0,P|250:80|255:41,1,79,0|8,0:0|0:0,0:0:0:0:
498,88,32537,6,0,L|374:67,1,118.5,2|2,0:0|0:0,0:0:0:0:
348,88,32837,1,0,0:0:0:0:
208,188,32987,1,2,0:0:0:0:
384,289,33137,2,0,P|392:250|384:211,1,79,8|8,0:0|0:0,0:0:0:0:
251,284,33437,2,0,P|243:323|251:362,1,79,8|8,0:0|0:0,0:0:0:0:
385,289,33737,1,2,0:0:0:0:
385,289,35387,6,0,L|426:281,2,39.5,8|8|0,0:0|0:0|0:0,0:0:0:0:
220,225,35687,1,0,0:0:0:0:
350,210,35837,2,0,L|436:188,1,79,0|0,0:0|0:0,0:0:0:0:
224,137,36137,5,2,0:0:0:0:
293,271,36287,1,0,0:0:0:0:
303,101,36437,2,0,P|310:61|299:19,1,79,0|0,0:0|0:0,0:0:0:0:
173,66,36737,1,8,0:0:0:0:
329,112,36887,1,2,0:0:0:0:
208,225,37037,2,0,L|128:210,1,79,0|8,0:0|0:0,0:0:0:0:
49,255,37337,5,2,0:0:0:0:
17,114,37487,1,2,0:0:0:0:
130,210,37637,2,0,P|140:251|135:290,1,79,0|2,0:0|0:0,0:0:0:0:
208,354,37937,2,0,L|372:336,1,158,8|0,0:0|0:0,0:0:0:0:
445,262,38387,1,2,0:0:0:0:
350,71,38537,6,0,B|328:125|328:125|351:222,1,158,2|0,0:0|0:0,0:0:0:0:
419,134,38987,1,0,0:0:0:0:
257,200,39137,2,0,P|216:201|179:187,1,79,8|2,0:0|0:0,0:0:0:0:
62,89,39437,1,0,0:0:0:0:
34,176,39587,6,0,L|59:337,1,158,8|2,0:0|0:0,0:0:0:0:
145,366,40037,1,0,0:0:0:0:
220,224,40187,1,2,0:0:0:0:
384,336,40337,2,0,B|322:325|322:325|292:337|292:337|231:324,1,158,8|0,0:0|0:0,0:0:0:0:
127,218,40787,1,2,0:0:0:0:
223,92,40937,6,0,P|281:80|333:104,1,118.5,2|0,0:0|0:0,0:0:0:0:
359,120,41237,2,0,L|374:41,1,79,0|2,0:0|0:0,0:0:0:0:
259,216,41537,2,0,B|340:206|329:260|412:244,1,158,8|0,0:0|0:0,0:0:0:0:
472,169,41987,1,2,0:0:0:0:
440,333,42137,5,0,0:0:0:0:
477,140,42287,1,8,0:0:0:0:
345,204,42437,2,0,L|359:289,1,79,0|0,0:0|0:0,0:0:0:0:
264,119,42737,2,0,L|241:278,1,158,8|0,0:0|0:0,0:0:0:0:
241,275,43337,5,4,0:3:0:0:
171,214,43487,1,0,0:0:0:0:
156,304,43637,1,0,0:0:0:0:
385,346,43937,2,0,L|457:335,2,59.2500022602082,8|0|0,0:0|0:0|0:0,0:0:0:0:
430,183,44537,6,0,L|436:224,2,39.5000015068055,0|0|0,0:0|0:0|0:0,0:0:0:0:
380,110,44837,2,0,L|385:70,2,39.5000015068055,2|0|0,0:0|0:0|0:0,0:0:0:0:
340,188,45137,2,0,L|219:165,1,118.500004520416,8|0,0:0|0:0,0:0:0:0:
70,52,45737,6,0,L|81:114,1,59.2500022602082,2|0,0:0|0:0,0:0:0:0:
36,194,46037,1,0,0:0:0:0:
36,194,46337,1,8,0:0:0:0:
162,166,46487,1,0,0:0:0:0:
131,300,46637,2,0,L|66:281,1,59.2500022602082,0|0,0:0|0:0,0:0:0:0:
238,204,46937,5,0,0:0:0:0:
155,308,47087,1,0,0:0:0:0:
303,330,47237,2,0,P|313:303|316:273,1,59.2500022602082,2|0,0:0|0:0,0:0:0:0:
258,111,47537,2,0,P|248:138|245:168,1,59.2500022602082,8|0,0:0|0:0,0:0:0:0:
393,210,47837,1,0,0:0:0:0:
393,210,48137,5,2,0:0:0:0:
465,83,48287,2,0,L|456:154,1,59.2500022602082,0|0,0:0|0:0,0:0:0:0:
310,174,48587,1,0,0:0:0:0:
381,311,48737,2,0,P|410:311|437:300,1,59.2500022602082,8|0,0:0|0:0,0:0:0:0:
393,210,49037,1,0,0:0:0:0:
259,252,49187,1,0,0:0:0:0:
379,119,49337,6,0,L|440:128,1,59.2500022602082,0|0,0:0|0:0,0:0:0:0:
203,182,49637,2,0,L|142:173,1,59.2500022602082,2|0,0:0|0:0,0:0:0:0:
52,123,49937,2,0,L|72:251,1,118.500004520416,8|0,0:0|0:0,0:0:0:0:
70,240,50537,5,2,0:0:0:0:
221,210,50687,1,0,0:0:0:0:
120,311,50837,1,0,0:0:0:0:
171,133,50987,1,0,0:0:0:0:
192,362,51137,2,0,P|224:359|252:356,1,59.2500022602082,8|0,0:0|0:0,0:0:0:0:
374,255,51437,2,0,P|342:258|314:261,1,59.2500022602082,0|0,0:0|0:0,0:0:0:0:
221,210,51737,6,0,P|205:153|211:94,1,118.500004520416,0|2,0:0|0:0,0:0:0:0:
292,23,52187,1,0,0:0:0:0:
431,153,52337,2,0,B|385:147|385:147|359:153|359:153|310:143,1,118.500004520416,8|0,0:0|0:0,0:0:0:0:
314,143,52937,6,0,B|304:185|304:185|323:262,1,118.500004520416,2|0,0:0|0:0,0:0:0:0:
258,323,53387,1,0,0:0:0:0:
157,234,53537,2,0,L|223:224,1,59.2500022602082,8|0,0:0|0:0,0:0:0:0:
100,303,53837,2,0,P|79:281|69:254,1,59.2500022602082,0|0,0:0|0:0,0:0:0:0:
169,92,54137,6,0,L|159:217,1,118.500004520416,0|2,0:0|0:0,0:0:0:0:
86,139,54587,1,0,0:0:0:0:
228,28,54737,2,0,B|288:18|282:56|345:44,1,118.500004520416,8|0,0:0|0:0,0:0:0:0:
432,18,55187,1,0,0:0:0:0:
452,166,55337,6,0,P|394:170|353:130,1,118.500004520416,2|0,0:0|0:0,0:0:0:0:
482,86,55787,1,0,0:0:0:0:
425,252,55937,2,0,L|439:313,1,59.2500022602082,8|0,0:0|0:0,0:0:0:0:
361,372,56237,2,0,L|347:311,1,59.2500022602082,0|0,0:0|0:0,0:0:0:0:
228,224,56537,6,0,P|173:206|124:236,1,118.500004520416,0|2,0:0|0:0,0:0:0:0:
71,306,56987,1,0,0:0:0:0:
22,199,57137,2,0,B|40:160|40:160|23:79,1,118.500004520416,8|0,0:0|0:0,0:0:0:0:
183,28,57737,6,0,P|229:62|287:61,1,118.500004520416,2|0,0:0|0:0,0:0:0:0:
369,17,58187,1,0,0:0:0:0:
447,75,58337,2,0,L|439:135,1,59.2500022602082,8|0,0:0|0:0,0:0:0:0:
336,200,58637,2,0,L|344:140,1,59.2500022602082,0|0,0:0|0:0,0:0:0:0:
462,272,58937,6,0,P|404:264|357:298,1,118.500004520416,0|2,0:0|0:0,0:0:0:0:
287,355,59387,1,0,0:0:0:0:
220,291,59537,2,0,P|216:262|219:233,1,59.2500022602082,8|0,0:0|0:0,0:0:0:0:
283,152,59837,1,0,0:0:0:0:
283,152,60137,6,0,L|402:165,1,118.500004520416,2|0,0:0|0:0,0:0:0:0:
400,164,60737,2,0,P|401:128|409:104,1,59.2500022602082,8|0,0:0|0:0,0:0:0:0:
418,83,60962,1,0,0:0:0:0:
418,83,61037,1,0,0:0:0:0:
303,24,61187,1,0,0:0:0:0:
328,241,61337,6,0,L|203:218,1,118.5,8|0,0:0|0:0,0:0:0:0:
174,211,61637,1,8,0:0:0:0:
37,140,61787,1,8,0:0:0:0:
214,109,61937,1,8,0:0:0:0:
18,145,62087,1,8,0:0:0:0:
190,10,62237,2,0,L|272:26,1,79,8|8,0:0|0:0,0:0:0:0:
369,109,62537,6,0,P|359:151|363:187,1,79,4|0,0:3|0:0,0:0:0:0:
401,334,63137,2,0,L|318:320,1,79,10|0,0:3|0:0,0:0:0:0:
121,272,63737,2,0,L|82:281,2,39.5,2|2|0,0:3|0:0|0:0,0:0:0:0:
184,219,64187,2,0,P|192:180|184:142,1,79,2|0,0:0|0:0,0:0:0:0:
121,75,64637,1,0,0:0:0:0:
268,27,64937,6,0,L|346:38,1,79,2|0,0:3|0:0,0:0:0:0:
449,170,65537,2,0,L|371:159,1,79,10|0,0:3|0:0,0:0:0:0:
204,161,66137,1,2,0:3:0:0:
300,232,66287,2,0,L|258:225,1,39.5,2|0,0:0|0:0,0:0:0:0:
132,218,66587,2,0,P|140:258|132:301,1,79,2|0,0:0|0:0,0:0:0:0:
59,164,67037,1,0,0:0:0:0:
59,164,67337,6,0,L|43:85,1,79,2|0,0:3|0:0,0:0:0:0:
170,15,67937,2,0,L|186:94,1,79,10|0,0:3|0:0,0:0:0:0:
209,176,68387,1,2,0:0:0:0:
292,128,68537,6,0,L|338:136,2,39.5,2|0|0,0:3|0:0|0:0,0:0:0:0:
404,187,68987,2,0,P|419:151|418:111,1,79,2|0,0:0|0:0,0:0:0:0:
368,29,69437,1,0,0:0:0:0:
368,29,69737,6,0,L|281:39,1,79,2|0,0:3|0:0,0:0:0:0:
219,85,70187,1,2,0:0:0:0:
219,85,70337,2,0,L|136:73,1,79,10|0,0:3|0:0,0:0:0:0:
33,168,70937,6,0,P|24:209|33:247,1,79,0|8,0:0|0:0,0:0:0:0:
89,313,71387,1,8,0:0:0:0:
222,255,71537,6,0,L|142:234,1,79,0|0,0:0|0:0,0:0:0:0:
289,327,71837,2,0,P|315:285|319:252,1,79,8|8,0:0|0:0,0:0:0:0:
199,65,72137,6,0,L|220:226,1,158,4|0,0:3|0:0,0:0:0:0:
111,131,72587,1,2,0:0:0:0:
292,14,72737,2,0,L|313:175,1,158,8|0,0:0|0:0,0:0:0:0:
234,300,73187,1,2,0:0:0:0:
386,357,73337,6,0,L|465:341,1,79,0|2,0:0|0:0,0:0:0:0:
405,260,73637,1,0,0:0:0:0:
204,201,73787,2,0,P|148:255|140:332,1,158,2|0,0:0|0:0,0:0:0:0:
317,246,74237,2,0,L|329:161,1,79,0|0,0:0|0:0,0:0:0:0:
289,45,74537,6,0,B|372:33|356:84|442:63,2,158,2|0|8,0:0|0:0|0:0,0:0:0:0:
157,136,75287,1,0,0:0:0:0:
80,86,75437,2,0,P|72:46|77:9,1,79,0|0,0:0|0:0,0:0:0:0:
230,82,75737,5,0,0:0:0:0:
107,220,75887,2,0,L|26:202,1,79,2|0,0:0|0:0,0:0:0:0:
167,310,76187,2,0,P|227:260|303:266,1,158,2|0,0:0|0:0,0:0:0:0:
401,313,76637,1,0,0:0:0:0:
401,313,76937,6,0,L|414:234,1,79,2|0,0:0|0:0,0:0:0:0:
321,70,77237,2,0,L|308:149,1,79,0|2,0:0|0:0,0:0:0:0:
215,244,77537,1,8,0:0:0:0:
127,170,77687,1,0,0:0:0:0:
115,279,77837,2,0,L|25:259,1,79,0|2,0:0|0:0,0:0:0:0:
192,360,78137,6,0,P|259:322|335:335,1,158,0|8,0:0|0:0,0:0:0:0:
443,272,78587,2,0,L|468:110,1,158,0|0,0:0|0:0,0:0:0:0:
402,34,79037,1,8,0:0:0:0:
402,33,79337,6,0,P|350:60|291:55,1,118.5,8|0,0:0|0:0,0:0:0:0:
212,25,79637,2,0,P|153:19|101:46,1,118.5,8|0,0:0|0:0,0:0:0:0:
43,106,79937,2,0,L|65:225,1,118.5,8|0,0:0|0:0,0:0:0:0:
137,268,80237,2,0,P|194:254|246:279,1,118.5,8|0,0:0|0:0,0:0:0:0:
292,345,80537,2,0,L|311:220,1,118.5,8|0,0:0|0:0,0:0:0:0:
293,195,80837,1,8,0:0:0:0:
184,95,80987,1,10,0:0:0:0:
366,24,81137,2,0,L|352:101,1,79,2|8,0:0|0:0,0:0:0:0:
435,234,81437,2,0,L|449:157,1,79,8|8,0:0|0:0,0:0:0:0:
275,169,81737,5,4,0:3:0:0:
256,192,81812,12,0,84137,0:0:0:0:
