osu file format v14

[General]
AudioFilename: audio.mp3
AudioLeadIn: 0
PreviewTime: 33630
Countdown: 0
SampleSet: Soft
StackLeniency: 0.7
Mode: 3
LetterboxInBreaks: 0
SpecialStyle: 0
WidescreenStoryboard: 0
SamplesMatchPlaybackRate: 1

[Editor]
DistanceSpacing: 0.9
BeatDivisor: 4
GridSize: 4
TimelineZoom: 2.3

[Metadata]
Title:Crazy Noisy Bizarre Town
TitleUnicode:Crazy Noisy Bizarre Town
Artist:The DU
ArtistUnicode:The DU
Creator:Acelight
Version:Bizarre
Source:ジョジョの奇妙な冒険 ダイヤモンドは砕けない
Tags:JOJO Diamond Is Unbreakable
BeatmapID:1491601
BeatmapSetID:705188

[Difficulty]
HPDrainRate:7
CircleSize:4
OverallDifficulty:7
ApproachRate:5
SliderMultiplier:1.6
SliderTickRate:1

[Events]
//Background and Video events
0,0,"josuke1.png",0,0
//Break Periods
//Storyboard Layer 0 (Background)
//Storyboard Layer 1 (Fail)
//Storyboard Layer 2 (Pass)
//Storyboard Layer 3 (Foreground)
//Storyboard Sound Samples

[TimingPoints]
1205,441.176470588235,4,2,1,60,1,0
5616,441.176470588235,4,2,1,60,1,0
49733,-100,4,2,1,60,0,1
73557,-100,4,2,1,60,0,0

[HitObjects]
448,192,1205,5,8,2:2:0:70:soft-hitclap.mp3
320,192,1205,1,8,2:0:0:70:soft-hitclap.mp3
192,192,1315,1,8,2:2:0:70:soft-hitclap.mp3
64,192,1425,1,8,2:2:0:70:soft-hitclap.mp3
448,192,1535,1,8,2:0:0:70:soft-hitclap.mp3
192,192,1535,1,8,2:0:0:70:soft-hitclap.mp3
64,192,1866,1,8,2:2:0:70:soft-hitclap.mp3
192,192,1866,1,8,2:0:0:70:soft-hitclap.mp3
320,192,1977,1,8,2:2:0:70:soft-hitclap.mp3
448,192,2087,1,8,2:2:0:70:soft-hitclap.mp3
64,192,2197,1,8,2:2:0:70:soft-hitclap.mp3
320,192,2197,1,8,2:0:0:70:soft-hitclap.mp3
64,192,2528,1,8,2:2:0:70:soft-hitclap.mp3
448,192,2528,1,8,2:2:0:70:soft-hitclap.mp3
192,192,2638,1,8,2:2:0:70:soft-hitclap.mp3
320,192,2638,1,8,2:2:0:70:soft-hitclap.mp3
448,192,2969,1,8,2:2:0:70:soft-hitclap.mp3
320,192,2969,1,8,2:0:0:70:soft-hitclap.mp3
192,192,3079,1,8,2:2:0:70:soft-hitclap.mp3
320,192,3190,1,8,2:2:0:70:soft-hitclap.mp3
64,192,3300,1,8,2:2:0:70:soft-hitclap.mp3
448,192,3300,1,8,2:0:0:70:soft-hitclap.mp3
64,192,3631,1,8,2:2:0:70:soft-hitclap.mp3
320,192,3631,1,8,2:0:0:70:soft-hitclap.mp3
448,192,3741,1,8,2:2:0:70:soft-hitclap.mp3
320,192,3852,1,8,2:2:0:70:soft-hitclap.mp3
192,192,3962,1,8,2:2:0:70:soft-hitclap.mp3
64,192,3962,1,8,2:0:0:70:soft-hitclap.mp3
448,192,4293,1,8,2:2:0:70:soft-hitclap.mp3
64,192,4293,1,8,2:2:0:70:soft-hitclap.mp3
320,192,4293,1,8,2:0:0:70:soft-hitclap.mp3
448,192,4403,1,8,2:2:0:70:soft-hitclap.mp3
64,192,4403,1,8,2:2:0:70:soft-hitclap.mp3
320,192,4403,1,8,2:0:0:70:soft-hitclap.mp3
192,192,4734,128,8,5065:2:0:0:70:soft-hitclap.mp3
448,192,5065,128,8,5396:2:0:0:70:soft-hitclap.mp3
64,192,5175,128,8,5616:2:0:0:70:soft-hitclap.mp3
448,192,5616,1,8,2:2:0:70:soft-hitclap.mp3
320,192,5616,1,8,2:0:0:70:soft-hitclap.mp3
192,192,5726,128,8,5836:2:0:0:70:soft-hitclap.mp3
64,192,5836,128,8,5946:2:0:0:70:soft-hitclap.mp3
320,192,5946,128,8,6057:2:0:0:70:soft-hitclap.mp3
64,192,6277,1,8,2:0:0:70:soft-hitclap.mp3
192,192,6277,1,8,2:0:0:70:soft-hitclap.mp3
448,192,6388,128,8,6498:2:0:0:70:soft-hitclap.mp3
192,192,6498,128,8,6608:2:0:0:70:soft-hitclap.mp3
320,192,6608,128,8,6718:2:0:0:70:soft-hitclap.mp3
448,192,6939,1,8,2:2:0:70:soft-hitclap.mp3
320,192,6939,1,8,2:0:0:70:soft-hitclap.mp3
192,192,7049,128,8,7160:2:0:0:70:soft-hitclap.mp3
320,192,7160,128,8,7270:2:0:0:70:soft-hitclap.mp3
64,192,7270,128,8,7380:2:0:0:70:soft-hitclap.mp3
320,192,7490,128,8,8152:2:2:0:70:soft-hitclap.mp3
448,192,7601,128,8,8263:2:2:0:70:soft-hitclap.mp3
448,192,8483,1,8,2:2:0:70:soft-hitclap.mp3
320,192,8483,1,8,2:0:0:70:soft-hitclap.mp3
192,192,8593,1,8,2:2:0:70:soft-hitclap.mp3
64,192,8704,1,8,2:2:0:70:soft-hitclap.mp3
448,192,8704,1,8,2:0:0:70:soft-hitclap.mp3
320,192,8814,1,8,2:2:0:70:soft-hitclap.mp3
192,192,8924,1,8,2:2:0:70:soft-hitclap.mp3
448,192,9035,128,8,9365:2:0:0:70:soft-hitclap.mp3
320,192,9035,128,8,9365:2:0:0:70:soft-hitclap.mp3
64,192,9365,128,8,9807:2:0:0:70:soft-hitclap.mp3
192,192,9586,128,8,10027:2:2:0:70:soft-hitclap.mp3
320,192,10027,128,8,10468:2:2:0:70:soft-hitclap.mp3
64,192,10468,128,8,10910:2:2:0:70:soft-hitclap.mp3
320,192,10689,1,8,2:0:0:70:soft-hitclap.mp3
192,192,10799,1,8,2:0:0:70:soft-hitclap.mp3
448,192,10910,128,8,11351:2:2:0:70:soft-hitclap.mp3
320,192,11351,128,8,11792:2:2:0:70:soft-hitclap.mp3
192,192,11792,128,8,12233:2:2:0:70:soft-hitclap.mp3
64,192,12233,128,8,12674:2:2:0:70:soft-hitclap.mp3
448,192,12674,1,8,2:2:0:70:soft-hitclap.mp3
320,192,12674,1,8,2:0:0:70:soft-hitclap.mp3
192,192,12785,128,8,12895:2:0:0:70:soft-hitclap.mp3
448,192,12895,128,8,13005:2:0:0:70:soft-hitclap.mp3
320,192,13005,128,8,13115:2:0:0:70:soft-hitclap.mp3
64,192,13336,1,8,2:2:0:70:soft-hitclap.mp3
192,192,13336,1,8,2:0:0:70:soft-hitclap.mp3
320,192,13446,128,8,13557:2:0:0:70:soft-hitclap.mp3
192,192,13557,128,8,13667:2:0:0:70:soft-hitclap.mp3
448,192,13667,128,8,13777:2:0:0:70:soft-hitclap.mp3
448,192,13998,1,8,2:2:0:70:soft-hitclap.mp3
320,192,13998,1,8,2:0:0:70:soft-hitclap.mp3
192,192,14108,128,8,14218:2:0:0:70:soft-hitclap.mp3
64,192,14218,128,8,14329:2:0:0:70:soft-hitclap.mp3
320,192,14329,128,8,14439:2:0:0:70:soft-hitclap.mp3
192,192,14549,128,8,15321:2:2:0:70:soft-hitclap.mp3
448,192,14660,128,8,15432:2:2:0:70:soft-hitclap.mp3
64,192,15542,1,8,2:2:0:70:soft-hitclap.mp3
192,192,15542,1,8,2:0:0:70:soft-hitclap.mp3
320,192,15763,1,8,2:2:0:70:soft-hitclap.mp3
192,192,15763,1,8,2:2:0:70:soft-hitclap.mp3
448,192,15983,128,8,16424:2:0:0:70:soft-hitclap.mp3
320,192,15983,128,8,16424:2:0:0:70:soft-hitclap.mp3
192,192,16424,1,8,2:2:0:70:soft-hitclap.mp3
64,192,16645,1,8,2:2:0:70:soft-hitclap.mp3
192,192,16645,1,8,2:2:0:70:soft-hitclap.mp3
448,192,16865,128,8,17307:2:0:0:70:soft-hitclap.mp3
192,192,16865,128,8,17307:2:0:0:70:soft-hitclap.mp3
320,192,16865,1,8,2:0:0:70:soft-hitclap.mp3
64,192,17307,1,8,2:0:0:70:soft-hitclap.mp3
320,192,17527,1,8,2:0:0:70:soft-hitclap.mp3
64,192,17527,1,8,2:2:0:70:soft-hitclap.mp3
448,192,17748,128,8,18189:2:0:0:70:soft-hitclap.mp3
192,192,17748,128,8,18189:2:0:0:70:soft-hitclap.mp3
320,192,18189,1,8,2:0:0:70:soft-hitclap.mp3
64,192,18410,1,8,2:2:0:70:soft-hitclap.mp3
320,192,18630,1,8,2:2:0:70:soft-hitclap.mp3
192,192,18630,128,8,19071:2:0:0:70:soft-hitclap.mp3
448,192,19071,128,8,19182:2:2:0:70:soft-hitclap.mp3
320,192,19071,128,8,19182:2:2:0:70:soft-hitclap.mp3
448,192,19292,128,8,19402:2:2:0:70:soft-hitclap.mp3
320,192,19292,128,8,19402:2:2:0:70:soft-hitclap.mp3
64,192,19513,1,8,2:0:0:70:soft-hitclap.mp3
448,192,19513,128,8,19954:2:2:0:70:soft-hitclap.mp3
320,192,19513,128,8,19954:2:2:0:70:soft-hitclap.mp3
192,192,19623,1,8,2:0:0:70:soft-hitclap.mp3
64,192,19733,1,8,2:0:0:70:soft-hitclap.mp3
64,192,19954,1,8,2:0:0:70:soft-hitclap.mp3
192,192,20174,1,8,2:0:0:70:soft-hitclap.mp3
320,192,20174,1,8,2:0:0:70:soft-hitclap.mp3
64,192,20395,1,8,2:0:0:70:soft-hitclap.mp3
320,192,20615,1,8,2:0:0:70:soft-hitclap.mp3
448,192,20615,1,8,2:0:0:70:soft-hitclap.mp3
64,192,20836,1,8,2:0:0:70:soft-hitclap.mp3
448,192,21057,1,8,2:0:0:70:soft-hitclap.mp3
192,192,21057,1,8,2:0:0:70:soft-hitclap.mp3
192,192,21277,1,8,2:0:0:70:soft-hitclap.mp3
64,192,21498,1,8,2:0:0:70:soft-hitclap.mp3
320,192,21498,1,8,2:0:0:70:soft-hitclap.mp3
448,192,21718,1,8,2:0:0:70:soft-hitclap.mp3
320,192,21939,1,8,2:0:0:70:soft-hitclap.mp3
64,192,21939,1,8,2:0:0:70:soft-hitclap.mp3
448,192,21939,1,8,2:0:0:70:soft-hitclap.mp3
192,192,22160,1,8,2:0:0:70:soft-hitclap.mp3
320,192,22380,1,8,2:0:0:70:soft-hitclap.mp3
448,192,22380,1,8,2:0:0:70:soft-hitclap.mp3
64,192,22380,1,8,2:0:0:70:soft-hitclap.mp3
448,192,22601,1,8,2:2:0:70:soft-hitclap.mp3
320,192,22601,1,8,2:0:0:70:soft-hitclap.mp3
64,192,22711,1,8,2:2:0:70:soft-hitclap.mp3
320,192,22821,1,8,2:2:0:70:soft-hitclap.mp3
192,192,22821,1,8,2:0:0:70:soft-hitclap.mp3
448,192,22932,1,8,2:0:0:70:soft-hitclap.mp3
64,192,23042,1,8,2:2:0:70:soft-hitclap.mp3
192,192,23042,1,8,2:0:0:70:soft-hitclap.mp3
320,192,23152,1,8,2:2:0:70:soft-hitclap.mp3
192,192,23263,1,8,2:0:0:70:soft-hitclap.mp3
448,192,23263,1,8,2:0:0:70:soft-hitclap.mp3
320,192,23483,1,8,2:0:0:70:soft-hitclap.mp3
192,192,23704,1,8,2:0:0:70:soft-hitclap.mp3
64,192,23704,1,8,2:0:0:70:soft-hitclap.mp3
448,192,23924,1,8,2:0:0:70:soft-hitclap.mp3
192,192,24145,1,8,2:0:0:70:soft-hitclap.mp3
320,192,24145,1,8,2:0:0:70:soft-hitclap.mp3
320,192,24365,1,8,2:0:0:70:soft-hitclap.mp3
64,192,24586,1,8,2:0:0:70:soft-hitclap.mp3
448,192,24586,1,8,2:0:0:70:soft-hitclap.mp3
320,192,24807,1,8,2:0:0:70:soft-hitclap.mp3
192,192,25027,1,8,2:0:0:70:soft-hitclap.mp3
448,192,25027,1,8,2:0:0:70:soft-hitclap.mp3
320,192,25248,1,8,2:0:0:70:soft-hitclap.mp3
64,192,25468,1,8,2:0:0:70:soft-hitclap.mp3
320,192,25468,1,8,2:0:0:70:soft-hitclap.mp3
448,192,25468,1,8,2:0:0:70:soft-hitclap.mp3
192,192,25689,1,8,2:0:0:70:soft-hitclap.mp3
448,192,25910,1,8,2:0:0:70:soft-hitclap.mp3
320,192,25910,1,8,2:0:0:70:soft-hitclap.mp3
192,192,26130,1,8,2:2:0:70:soft-hitclap.mp3
320,192,26130,1,8,2:0:0:70:soft-hitclap.mp3
448,192,26240,1,8,2:2:0:70:soft-hitclap.mp3
64,192,26351,1,8,2:2:0:70:soft-hitclap.mp3
192,192,26351,1,8,2:0:0:70:soft-hitclap.mp3
448,192,26461,1,8,2:0:0:70:soft-hitclap.mp3
192,192,26571,1,8,2:2:0:70:soft-hitclap.mp3
64,192,26571,1,8,2:0:0:70:soft-hitclap.mp3
320,192,26682,1,8,2:0:0:70:soft-hitclap.mp3
64,192,26792,128,8,27454:2:0:0:70:soft-hitclap.mp3
448,192,26792,128,8,27454:2:0:0:70:soft-hitclap.mp3
192,192,27233,1,8,2:0:0:70:soft-hitclap.mp3
320,192,27233,1,8,2:0:0:70:soft-hitclap.mp3
192,192,27454,128,8,28115:2:0:0:70:soft-hitclap.mp3
320,192,27454,128,8,28115:2:0:0:70:soft-hitclap.mp3
448,192,27895,1,8,2:0:0:70:soft-hitclap.mp3
64,192,28115,128,8,28777:2:0:0:70:soft-hitclap.mp3
320,192,28336,1,8,2:0:0:70:soft-hitclap.mp3
448,192,28336,1,8,2:0:0:70:soft-hitclap.mp3
448,192,28557,128,8,29218:2:0:0:70:soft-hitclap.mp3
192,192,28998,1,8,2:0:0:70:soft-hitclap.mp3
320,192,28998,1,8,2:0:0:70:soft-hitclap.mp3
64,192,29218,128,8,30101:2:0:0:70:soft-hitclap.mp3
320,192,29660,1,8,2:0:0:70:soft-hitclap.mp3
192,192,29660,1,8,2:0:0:70:soft-hitclap.mp3
320,192,29880,1,8,2:0:0:70:soft-hitclap.mp3
448,192,29880,1,8,2:0:0:70:soft-hitclap.mp3
192,192,30101,1,8,2:0:0:70:soft-hitclap.mp3
448,192,30101,1,8,2:0:0:70:soft-hitclap.mp3
448,192,30321,128,8,31645:2:0:0:70:soft-hitclap.mp3
320,192,30321,128,8,31645:2:0:0:70:soft-hitclap.mp3
192,192,30321,128,8,31645:2:0:0:70:soft-hitclap.mp3
448,192,32086,128,8,32527:2:0:0:70:soft-hitclap.mp3
320,192,32086,128,8,32527:2:0:0:70:soft-hitclap.mp3
192,192,32527,128,8,32968:2:0:0:70:soft-hitclap.mp3
64,192,32968,128,8,33410:2:0:0:70:soft-hitclap.mp3
320,192,32968,128,8,33410:2:0:0:70:soft-hitclap.mp3
192,192,33410,128,8,33851:2:0:0:70:soft-hitclap.mp3
320,192,33630,128,8,33740:2:0:0:70:soft-hitclap.mp3
448,192,33740,128,8,33851:2:0:0:70:soft-hitclap.mp3
64,192,33851,128,8,34071:2:0:0:70:soft-hitclap.mp3
448,192,34071,128,8,34292:2:0:0:70:soft-hitclap.mp3
192,192,34292,128,8,34513:2:0:0:70:soft-hitclap.mp3
64,192,34513,128,8,34733:2:0:0:70:soft-hitclap.mp3
320,192,34733,128,8,34954:2:2:0:70:soft-hitclap.mp3
192,192,34954,128,8,35174:2:2:0:70:soft-hitclap.mp3
448,192,35174,128,8,35395:2:2:0:70:soft-hitclap.mp3
64,192,35395,128,8,36057:2:0:0:70:soft-hitclap.mp3
320,192,35836,1,8,2:0:0:70:soft-hitclap.mp3
448,192,35836,1,8,2:0:0:70:soft-hitclap.mp3
192,192,36057,1,8,2:0:0:70:soft-hitclap.mp3
320,192,36057,1,8,2:0:0:70:soft-hitclap.mp3
320,192,36277,1,8,2:0:0:70:soft-hitclap.mp3
448,192,36277,1,8,2:0:0:70:soft-hitclap.mp3
448,192,36498,1,8,2:0:0:70:soft-hitclap.mp3
192,192,36498,1,8,2:0:0:70:soft-hitclap.mp3
192,192,36718,1,8,2:0:0:70:soft-hitclap.mp3
64,192,36718,1,8,2:0:0:70:soft-hitclap.mp3
320,192,36718,1,8,2:0:0:70:soft-hitclap.mp3
64,192,36939,1,8,2:0:0:70:soft-hitclap.mp3
320,192,36939,1,8,2:0:0:70:soft-hitclap.mp3
320,192,37160,128,8,37380:2:0:0:70:soft-hitclap.mp3
448,192,37270,128,8,37490:2:0:0:70:soft-hitclap.mp3
64,192,37380,128,8,37601:2:0:0:70:soft-hitclap.mp3
320,192,37601,128,8,37821:2:0:0:70:soft-hitclap.mp3
448,192,37821,128,8,38042:2:0:0:70:soft-hitclap.mp3
64,192,38042,128,8,38263:2:0:0:70:soft-hitclap.mp3
320,192,38263,128,8,38483:2:2:0:70:soft-hitclap.mp3
192,192,38483,128,8,38704:2:2:0:70:soft-hitclap.mp3
448,192,38704,128,8,38924:2:2:0:70:soft-hitclap.mp3
64,192,38924,1,8,2:0:0:70:soft-hitclap.mp3
192,192,38924,1,8,2:0:0:70:soft-hitclap.mp3
192,192,39145,1,8,2:0:0:70:soft-hitclap.mp3
320,192,39145,1,8,2:0:0:70:soft-hitclap.mp3
64,192,39365,1,8,2:0:0:70:soft-hitclap.mp3
448,192,39365,1,8,2:0:0:70:soft-hitclap.mp3
320,192,39586,1,8,2:0:0:70:soft-hitclap.mp3
448,192,39586,1,8,2:0:0:70:soft-hitclap.mp3
448,192,39807,1,8,2:0:0:70:soft-hitclap.mp3
192,192,39807,1,8,2:0:0:70:soft-hitclap.mp3
64,192,40027,1,8,2:0:0:70:soft-hitclap.mp3
320,192,40027,1,8,2:0:0:70:soft-hitclap.mp3
448,192,40027,1,8,2:0:0:70:soft-hitclap.mp3
320,192,40248,1,8,2:0:0:70:soft-hitclap.mp3
192,192,40248,1,8,2:0:0:70:soft-hitclap.mp3
64,192,40468,1,8,2:0:0:70:soft-hitclap.mp3
448,192,40468,1,8,2:0:0:70:soft-hitclap.mp3
320,192,40689,128,8,40799:2:0:0:70:soft-hitclap.mp3
448,192,40799,128,8,40910:2:0:0:70:soft-hitclap.mp3
64,192,40910,128,8,41130:2:0:0:70:soft-hitclap.mp3
192,192,41130,128,8,41351:2:0:0:70:soft-hitclap.mp3
448,192,41351,128,8,41571:2:0:0:70:soft-hitclap.mp3
64,192,41571,128,8,41792:2:0:0:70:soft-hitclap.mp3
320,192,41792,128,8,42013:2:2:0:70:soft-hitclap.mp3
192,192,42013,128,8,42233:2:2:0:70:soft-hitclap.mp3
448,192,42233,128,8,42454:2:2:0:70:soft-hitclap.mp3
192,192,42454,128,8,42895:2:0:0:70:soft-hitclap.mp3
320,192,42895,1,8,2:0:0:70:soft-hitclap.mp3
448,192,42895,1,8,2:0:0:70:soft-hitclap.mp3
192,192,43115,1,8,2:0:0:70:soft-hitclap.mp3
64,192,43115,1,8,2:0:0:70:soft-hitclap.mp3
448,192,43336,1,8,2:0:0:70:soft-hitclap.mp3
320,192,43336,1,8,2:0:0:70:soft-hitclap.mp3
192,192,43557,1,8,2:0:0:70:soft-hitclap.mp3
320,192,43557,1,8,2:0:0:70:soft-hitclap.mp3
448,192,43777,1,8,2:0:0:70:soft-hitclap.mp3
320,192,43777,1,8,2:0:0:70:soft-hitclap.mp3
64,192,43998,1,8,2:0:0:70:soft-hitclap.mp3
192,192,43998,1,8,2:0:0:70:soft-hitclap.mp3
320,192,44218,1,8,2:0:0:70:soft-hitclap.mp3
448,192,44218,1,8,2:0:0:70:soft-hitclap.mp3
448,192,44329,1,8,2:0:0:70:soft-hitclap.mp3
192,192,44329,1,8,2:0:0:70:soft-hitclap.mp3
64,192,44439,1,8,2:0:0:70:soft-hitclap.mp3
320,192,44439,1,8,2:0:0:70:soft-hitclap.mp3
448,192,44660,1,8,2:0:0:70:soft-hitclap.mp3
320,192,44660,1,8,2:0:0:70:soft-hitclap.mp3
192,192,44880,1,8,2:0:0:70:soft-hitclap.mp3
64,192,44880,1,8,2:0:0:70:soft-hitclap.mp3
64,192,45101,128,8,45542:2:0:0:70:soft-hitclap.mp3
448,192,45101,1,8,2:0:0:70:soft-hitclap.mp3
192,192,45542,1,8,2:0:0:70:soft-hitclap.mp3
320,192,45542,128,8,45983:2:0:0:70:soft-hitclap.mp3
64,192,45983,1,8,2:0:0:70:soft-hitclap.mp3
448,192,45983,128,8,47307:2:0:0:70:soft-hitclap.mp3
192,192,46424,1,8,2:0:0:70:soft-hitclap.mp3
192,192,46645,1,8,2:0:0:70:soft-hitclap.mp3
64,192,46645,1,8,2:0:0:70:soft-hitclap.mp3
320,192,46865,1,8,2:0:0:70:soft-hitclap.mp3
320,192,47086,1,8,2:0:0:70:soft-hitclap.mp3
192,192,47086,1,8,2:0:0:70:soft-hitclap.mp3
64,192,47307,1,8,2:0:0:70:soft-hitclap.mp3
448,192,47527,1,8,2:0:0:70:soft-hitclap.mp3
192,192,47527,1,8,2:0:0:70:soft-hitclap.mp3
320,192,47527,1,8,2:0:0:70:soft-hitclap.mp3
320,192,47748,128,8,48079:2:0:0:70:soft-hitclap.mp3
64,192,47748,128,8,48079:2:0:0:70:soft-hitclap.mp3
448,192,47748,128,8,48079:2:0:0:70:soft-hitclap.mp3
64,192,48189,1,8,2:0:0:70:soft-hitclap.mp3
320,192,48189,1,8,2:0:0:70:soft-hitclap.mp3
448,192,48189,1,8,2:0:0:70:soft-hitclap.mp3
448,192,48410,1,8,2:0:0:70:soft-hitclap.mp3
320,192,48410,1,8,2:0:0:70:soft-hitclap.mp3
64,192,48410,1,8,2:0:0:70:soft-hitclap.mp3
448,192,48630,1,8,2:0:0:70:soft-hitclap.mp3
320,192,48630,1,8,2:0:0:70:soft-hitclap.mp3
64,192,48630,1,8,2:0:0:70:soft-hitclap.mp3
64,192,48851,1,8,2:0:0:70:soft-hitclap.mp3
192,192,48851,1,8,2:0:0:70:soft-hitclap.mp3
448,192,48851,1,8,2:0:0:70:soft-hitclap.mp3
320,192,49071,1,8,2:0:0:70:soft-hitclap.mp3
448,192,49071,1,8,2:0:0:70:soft-hitclap.mp3
192,192,49182,1,8,2:0:0:70:soft-hitclap.mp3
64,192,49182,1,8,2:0:0:70:soft-hitclap.mp3
320,192,49292,1,8,2:0:0:70:soft-hitclap.mp3
448,192,49292,1,8,2:0:0:70:soft-hitclap.mp3
192,192,49402,1,8,2:0:0:70:soft-hitclap.mp3
64,192,49402,1,8,2:0:0:70:soft-hitclap.mp3
320,192,49513,1,8,2:0:0:70:soft-hitclap.mp3
448,192,49513,1,8,2:0:0:70:soft-hitclap.mp3
192,192,49733,128,8,50174:2:0:0:70:soft-hitclap.mp3
448,192,49954,128,8,50174:2:0:0:70:soft-hitclap.mp3
64,192,50174,128,8,50395:2:0:0:70:soft-hitclap.mp3
320,192,50395,128,8,50615:2:0:0:70:soft-hitclap.mp3
64,192,50615,128,8,51057:2:0:0:70:soft-hitclap.mp3
192,192,50615,128,8,51057:2:0:0:70:soft-hitclap.mp3
448,192,51057,128,8,51498:2:0:0:70:soft-hitclap.mp3
320,192,51057,128,8,51498:2:0:0:70:soft-hitclap.mp3
64,192,51498,1,8,2:0:0:70:soft-hitclap.mp3
192,192,51498,128,8,51718:2:0:0:70:soft-hitclap.mp3
448,192,51718,1,8,2:0:0:70:soft-hitclap.mp3
64,192,51718,128,8,52160:2:0:0:70:soft-hitclap.mp3
448,192,52160,128,8,52601:2:0:0:70:soft-hitclap.mp3
320,192,52160,128,8,52601:2:0:0:70:soft-hitclap.mp3
64,192,52601,1,8,2:0:0:70:soft-hitclap.mp3
320,192,52821,1,8,2:0:0:70:soft-hitclap.mp3
192,192,52821,1,8,2:0:0:70:soft-hitclap.mp3
64,192,53042,1,8,2:0:0:70:soft-hitclap.mp3
448,192,53263,1,8,2:0:0:70:soft-hitclap.mp3
320,192,53263,1,8,2:0:0:70:soft-hitclap.mp3
192,192,53483,1,8,2:0:0:70:soft-hitclap.mp3
64,192,53924,1,8,2:0:0:70:soft-hitclap.mp3
320,192,53924,1,8,2:0:0:70:soft-hitclap.mp3
192,192,54145,1,8,2:0:0:70:soft-hitclap.mp3
448,192,54145,1,8,2:0:0:70:soft-hitclap.mp3
192,192,54365,1,8,2:0:0:70:soft-hitclap.mp3
320,192,54365,1,8,2:0:0:70:soft-hitclap.mp3
64,192,54586,1,8,2:0:0:70:soft-hitclap.mp3
448,192,54586,1,8,2:0:0:70:soft-hitclap.mp3
192,192,54586,1,8,2:0:0:70:soft-hitclap.mp3
320,192,54807,1,8,2:0:0:70:soft-hitclap.mp3
192,192,54807,1,8,2:0:0:70:soft-hitclap.mp3
448,192,55027,1,8,2:0:0:70:soft-hitclap.mp3
192,192,55027,1,8,2:0:0:70:soft-hitclap.mp3
320,192,55027,1,8,2:0:0:70:soft-hitclap.mp3
64,192,55248,1,8,2:0:0:70:soft-hitclap.mp3
192,192,55248,1,8,2:0:0:70:soft-hitclap.mp3
320,192,55468,1,8,2:0:0:70:soft-hitclap.mp3
64,192,55468,1,8,2:0:0:70:soft-hitclap.mp3
192,192,55468,1,8,2:0:0:70:soft-hitclap.mp3
64,192,55689,128,8,56130:2:0:0:70:soft-hitclap.mp3
320,192,55689,128,8,56130:2:0:0:70:soft-hitclap.mp3
448,192,56130,1,8,2:0:0:70:soft-hitclap.mp3
320,192,56351,1,8,2:0:0:70:soft-hitclap.mp3
64,192,56351,1,8,2:0:0:70:soft-hitclap.mp3
192,192,56571,1,8,2:0:0:70:soft-hitclap.mp3
64,192,56792,1,8,2:0:0:70:soft-hitclap.mp3
320,192,56792,128,8,57674:2:0:0:70:soft-hitclap.mp3
448,192,57013,1,8,2:0:0:70:soft-hitclap.mp3
192,192,57233,1,8,2:0:0:70:soft-hitclap.mp3
64,192,57454,1,8,2:0:0:70:soft-hitclap.mp3
192,192,57454,1,8,2:0:0:70:soft-hitclap.mp3
448,192,57674,128,8,58115:2:0:0:70:soft-hitclap.mp3
192,192,58115,128,8,58557:2:0:0:70:soft-hitclap.mp3
64,192,58557,128,8,58998:2:0:0:70:soft-hitclap.mp3
320,192,58998,128,8,59218:2:0:0:70:soft-hitclap.mp3
448,192,59218,128,8,59880:2:0:0:70:soft-hitclap.mp3
64,192,60321,128,8,60763:2:0:0:70:soft-hitclap.mp3
448,192,60321,128,8,60763:2:0:0:70:soft-hitclap.mp3
192,192,60763,128,8,61204:2:0:0:70:soft-hitclap.mp3
320,192,60763,128,8,61204:2:0:0:70:soft-hitclap.mp3
448,192,61204,128,8,61645:2:0:0:70:soft-hitclap.mp3
320,192,61645,128,8,62086:2:0:0:70:soft-hitclap.mp3
64,192,61645,128,8,62086:2:0:0:70:soft-hitclap.mp3
192,192,62086,128,8,62968:2:0:0:70:soft-hitclap.mp3
448,192,62086,128,8,62968:2:0:0:70:soft-hitclap.mp3
320,192,62968,128,8,63630:2:0:0:70:soft-hitclap.mp3
64,192,63630,128,8,64513:2:0:0:70:soft-hitclap.mp3
192,192,63630,128,8,64513:2:0:0:70:soft-hitclap.mp3
448,192,63630,128,8,64513:2:0:0:70:soft-hitclap.mp3
320,192,64071,1,8,2:0:0:70:soft-hitclap.mp3
320,192,64292,1,8,2:0:0:70:soft-hitclap.mp3
320,192,64513,128,8,65395:2:0:0:70:soft-hitclap.mp3
448,192,64954,1,8,2:0:0:70:soft-hitclap.mp3
448,192,65174,1,8,2:0:0:70:soft-hitclap.mp3
192,192,65174,1,8,0:0:0:70:soft-hitclap.mp3
64,192,65395,128,8,66057:2:0:0:70:soft-hitclap.mp3
192,192,65395,128,8,66057:2:0:0:70:soft-hitclap.mp3
320,192,65836,1,8,2:0:0:70:soft-hitclap.mp3
448,192,66057,1,8,2:0:0:70:soft-hitclap.mp3
320,192,66057,1,8,2:0:0:70:soft-hitclap.mp3
320,192,66277,128,8,66939:2:0:0:70:soft-hitclap.mp3
192,192,66277,128,8,66939:2:0:0:70:soft-hitclap.mp3
64,192,66718,1,8,2:0:0:70:soft-hitclap.mp3
448,192,66939,1,8,2:0:0:70:soft-hitclap.mp3
192,192,67160,1,8,2:0:0:70:soft-hitclap.mp3
448,192,67380,1,8,2:0:0:70:soft-hitclap.mp3
320,192,67380,1,8,2:0:0:70:soft-hitclap.mp3
192,192,67490,1,8,2:0:0:70:soft-hitclap.mp3
320,192,67490,1,8,2:0:0:70:soft-hitclap.mp3
64,192,67601,1,8,2:0:0:70:soft-hitclap.mp3
192,192,67601,1,8,2:0:0:70:soft-hitclap.mp3
448,192,67711,1,8,2:0:0:70:soft-hitclap.mp3
64,192,67711,1,8,2:0:0:70:soft-hitclap.mp3
64,192,68042,1,8,2:0:0:70:soft-hitclap.mp3
192,192,68042,1,8,2:0:0:70:soft-hitclap.mp3
192,192,68152,1,8,2:0:0:70:soft-hitclap.mp3
320,192,68152,1,8,2:0:0:70:soft-hitclap.mp3
320,192,68263,1,8,2:0:0:70:soft-hitclap.mp3
448,192,68263,1,8,2:0:0:70:soft-hitclap.mp3
448,192,68373,1,8,2:0:0:70:soft-hitclap.mp3
192,192,68373,1,8,2:0:0:70:soft-hitclap.mp3
448,192,68704,1,8,2:0:0:70:soft-hitclap.mp3
320,192,68704,1,8,2:0:0:70:soft-hitclap.mp3
320,192,68814,1,8,2:0:0:70:soft-hitclap.mp3
192,192,68814,1,8,2:0:0:70:soft-hitclap.mp3
192,192,68924,1,8,2:0:0:70:soft-hitclap.mp3
64,192,68924,1,8,2:0:0:70:soft-hitclap.mp3
64,192,69035,1,8,2:0:0:70:soft-hitclap.mp3
320,192,69035,1,8,2:0:0:70:soft-hitclap.mp3
64,192,69365,1,8,2:0:0:70:soft-hitclap.mp3
192,192,69365,1,8,2:0:0:70:soft-hitclap.mp3
320,192,69476,1,8,2:0:0:70:soft-hitclap.mp3
192,192,69476,1,8,2:0:0:70:soft-hitclap.mp3
448,192,69586,1,8,2:0:0:70:soft-hitclap.mp3
320,192,69586,1,8,2:0:0:70:soft-hitclap.mp3
192,192,69696,1,8,2:0:0:70:soft-hitclap.mp3
448,192,69696,1,8,2:0:0:70:soft-hitclap.mp3
64,192,70248,1,8,2:0:0:70:soft-hitclap.mp3
192,192,70248,1,8,2:0:0:70:soft-hitclap.mp3
320,192,70358,1,8,2:0:0:70:soft-hitclap.mp3
192,192,70358,1,8,2:0:0:70:soft-hitclap.mp3
448,192,70468,1,8,2:0:0:70:soft-hitclap.mp3
64,192,70468,1,8,2:0:0:70:soft-hitclap.mp3
64,192,70579,1,8,2:0:0:70:soft-hitclap.mp3
192,192,70579,1,8,2:0:0:70:soft-hitclap.mp3
320,192,70689,1,8,2:0:0:70:soft-hitclap.mp3
192,192,70689,1,8,2:0:0:70:soft-hitclap.mp3
320,192,70799,128,8,71130:2:0:0:70:soft-hitclap.mp3
448,192,70799,128,8,71130:2:0:0:70:soft-hitclap.mp3
192,192,71130,128,8,73557:2:0:0:70:soft-hitclap.mp3
64,192,71130,128,8,73557:2:0:0:70:soft-hitclap.mp3
