osu file format v14

[General]
AudioFilename: he has no style.mp3.mp3
AudioLeadIn: 0
PreviewTime: -1
Countdown: 1
SampleSet: None
StackLeniency: 0.7
Mode: 0
LetterboxInBreaks: 0
WidescreenStoryboard: 0

[Editor]
Bookmarks: 22854,53880,78726,81513,112055,139203,170714
DistanceSpacing: 1
BeatDivisor: 8
GridSize: 16
TimelineZoom: 2.8

[Metadata]
Title:DK Rap
TitleUnicode:DK Rap
Artist:The DK Crew
ArtistUnicode:The DK Crew
Creator:TvSize225
Version:Expand
Source:Donkey Kong 64
Tags:he has no style ciao deltmin tvsize225 bad pandah kaifin boobs toke spirit
BeatmapID:932092
BeatmapSetID:432252

[Difficulty]
HPDrainRate:5
CircleSize:4.3
OverallDifficulty:9
ApproachRate:9
SliderMultiplier:1.4
SliderTickRate:1

[Events]
//Background and Video events
0,0,"BG picture.png",0,0
Video,-448,"Dk Rap Final video.mp4"
//Break Periods
//Storyboard Layer 0 (Background)
//Storyboard Layer 1 (Fail)
//Storyboard Layer 2 (Pass)
//Storyboard Layer 3 (Foreground)
//Storyboard Sound Samples

[TimingPoints]
69,484.789722457884,4,1,0,100,1,0
22975,-66.6666666666667,4,1,0,100,0,0
53880,-55.5555555555556,4,1,0,100,0,0
57516,-50,4,1,0,100,0,0
64061,-50,4,2,0,50,0,0
65212,-50,4,1,0,100,0,0
66242,-55.5555555555556,4,1,0,100,0,0
66485,-62.5,4,1,0,100,0,0
66727,-71.4285714285714,4,1,0,100,0,0
68424,-83.3333333333333,4,1,0,100,0,0
68909,-100,4,1,0,100,0,0
69393,-50,4,1,0,100,0,0
78968,-50,4,2,0,60,0,0
79574,-50,4,1,0,60,0,0
93633,-100,4,1,0,60,0,0
94118,-50,4,1,0,60,0,0
105753,-133.333333333333,4,1,0,60,0,0
106237,-50,4,1,0,60,0,0
112540,-200,4,1,0,60,0,0
113206,-50,4,1,0,60,0,0
134840,-66.6666666666667,4,3,0,52,0,0
140658,-125,4,3,0,52,0,0
141627,-55.5555555555556,4,3,0,52,0,0
142597,-83.3333333333333,4,3,0,52,0,0
143081,-37.037037037037,4,3,0,52,0,0
143566,-125,4,3,0,52,0,0
144536,-58.8235294117647,4,3,0,52,0,0
145505,-35.7142857142857,4,3,0,52,0,0
146475,-500,4,3,0,52,0,0
147445,-125,4,3,0,52,0,0
148414,-58.8235294117647,4,3,0,52,0,0
149384,-35.7142857142857,4,3,0,52,0,0
150353,-25,4,3,0,52,0,0
151323,-125,4,3,0,52,0,0
152292,-58.8235294117647,4,3,0,52,0,0
153262,-35.7142857142857,4,3,0,52,0,0
154232,-27.027027027027,4,3,0,52,0,0
154716,-500,4,3,0,52,0,0
155201,-125,4,3,0,52,0,0
156171,-58.8235294117647,4,3,0,52,0,0
157140,-35.7142857142857,4,3,0,52,0,0
158110,-25,4,3,0,52,0,0
159080,-142.857142857143,4,3,0,52,0,0
160049,-55.5555555555556,4,3,0,52,0,0
161019,-37.037037037037,4,3,0,52,0,0
161988,-25,4,3,0,52,0,0
162958,-125,4,3,0,52,0,0
163927,-58.8235294117647,4,3,0,52,0,0
164897,-35.7142857142857,4,3,0,52,0,0
165867,-25,4,3,0,52,0,0
166351,-500,4,3,0,52,0,0
166836,-142.857142857143,4,3,0,52,0,0
167806,-55.5555555555556,4,3,0,52,0,0
168775,-35.7142857142857,4,3,0,52,0,0
169745,-27.7777777777778,4,3,0,52,0,0

[Colours]
Combo1 : 128,64,0
Combo2 : 255,255,128

[HitObjects]
288,192,69,6,0,P|249:206|227:178,1,70
288,192,553,1,0,0:0:0:0:
230,188,796,1,0,0:0:0:0:
0,384,1038,6,0,L|8:372,2,8.75
60,312,1280,1,0,0:0:0:0:
512,384,1523,2,0,L|504:372,2,8.75
500,224,1765,1,0,0:0:0:0:
228,224,2008,2,0,L|236:212,2,8.75
256,384,2250,2,0,L|264:372,2,8.75
228,224,2492,2,0,L|236:212,2,8.75
432,88,2735,6,0,B|424:92|432:100|416:108|420:120|408:124|392:120|392:120|392:128|384:120,1,70
64,192,3220,5,0,0:0:0:0:
64,64,3462,1,0,0:0:0:0:
160,64,3704,1,0,0:0:0:0:
160,320,3947,6,0,B|192:288|192:288|160:256,1,70
174,270,4189,2,0,B|192:224|192:224|224:256,1,70
206,238,4432,2,0,B|192:224|192:224|174:270,1,70
174,270,4674,2,0,B|192:288|192:288|160:320,1,70
256,336,5159,5,0,0:0:0:0:
447,336,5280,1,0,0:0:0:0:
447,142,5401,1,0,0:0:0:0:
32,64,5644,6,0,L|32:128,1,35
96,96,5766,2,0,L|96:32,1,35
32,64,5886,2,0,L|32:128,1,35
96,96,6008,2,0,L|96:32,1,35
32,64,6128,2,0,L|32:128,1,35
96,96,6250,2,0,L|96:32,1,35
32,64,6371,2,0,L|32:128,1,35
96,96,6493,2,0,L|96:32,1,35
32,64,6613,2,0,L|32:159,1,70
32,134,6856,2,0,L|32:229,1,70
32,204,7098,2,0,L|32:299,1,70
32,274,7340,2,0,B|56:252|56:252|85:285|85:285|147:270,1,140
512,0,8068,1,0,0:0:0:0:
288,128,8310,5,0,0:0:0:0:
224,128,8552,1,0,0:0:0:0:
224,192,8795,1,0,0:0:0:0:
288,192,9037,2,0,L|384:192,1,70
64,320,9522,1,0,0:0:0:0:
256,192,9764,12,0,9885,0:0:0:0:
256,192,9764,5,0,0:0:0:0:
256,192,10128,12,0,10249,0:0:0:0:
256,192,10128,5,0,0:0:0:0:
256,192,10491,12,0,10733,0:0:0:0:
256,192,10491,5,0,0:0:0:0:
480,32,10976,1,0,0:0:0:0:
442,114,11097,1,0,0:0:0:0:
372,173,11219,1,0,0:0:0:0:
291,215,11340,1,0,0:0:0:0:
198,227,11461,1,0,0:0:0:0:
114,268,11582,1,0,0:0:0:0:
81,187,11703,2,0,B|82:174|83:187|98:186|70:191|84:177|83:197|68:191|98:190|76:197|52:185|65:199|90:208|106:196|102:173|102:176|97:159,1,70
32,64,12188,5,0,0:0:0:0:
480,64,12431,1,0,0:0:0:0:
0,2,12673,1,0,0:0:0:0:
512,0,12915,1,0,0:0:0:0:
512,384,13158,1,0,0:0:0:0:
0,384,13400,1,0,0:0:0:0:
353,198,13643,2,0,B|345:204|343:195|343:195|321:199,4,35
112,141,14370,5,0,0:0:0:0:
257,48,15097,1,0,0:0:0:0:
251,65,15158,1,0,0:0:0:0:
263,75,15218,1,0,0:0:0:0:
247,89,15279,1,0,0:0:0:0:
268,101,15339,1,0,0:0:0:0:
246,122,15400,1,0,0:0:0:0:
278,133,15461,1,0,0:0:0:0:
248,145,15521,1,0,0:0:0:0:
272,159,15582,1,0,0:0:0:0:
47,157,16067,2,0,B|69:127|69:127|81:141|81:141|92:131,1,70
91,131,16309,2,0,B|168:76|281:76|280:76|280:76|280:66,1,210
151,98,17036,2,0,B|165:175|165:175|108:197,1,140
312,121,17521,2,0,B|388:132|388:132|429:78,1,140
377,127,18006,2,0,L|349:197,1,70
351,191,18248,1,0,0:0:0:0:
256,192,18975,12,0,19006,0:0:0:0:
256,384,19460,5,0,0:0:0:0:
256,192,19702,1,0,0:0:0:0:
256,384,19945,1,0,0:0:0:0:
256,192,20187,1,0,0:0:0:0:
0,192,20430,5,0,0:0:0:0:
96,96,20672,1,0,0:0:0:0:
192,192,20914,2,0,B|224:160|224:160|224:192|224:192|256:160|256:160|256:192,1,140
256,177,21399,1,0,0:0:0:0:
256,128,21520,1,0,0:0:0:0:
256,96,21642,1,0,0:0:0:0:
224,96,21763,1,0,0:0:0:0:
192,96,21884,1,0,0:0:0:0:
160,96,22005,1,0,0:0:0:0:
64,192,22126,2,0,L|128:256,1,70
256,128,22369,2,0,L|334:78,1,70
448,256,22611,2,0,L|384:288,1,70
286,215,23096,2,0,P|233:213|164:228,1,105.000004005432
320,353,23581,5,0,0:0:0:0:
91,210,23823,1,0,0:0:0:0:
355,223,24066,1,0,0:0:0:0:
88,167,24308,2,0,P|86:92|108:49,1,105.000004005432
248,212,24793,5,0,0:0:0:0:
56,283,25035,1,0,0:0:0:0:
124,52,25278,2,0,P|200:46|251:52,1,105.000004005432
169,233,25762,2,0,P|167:153|179:91,1,105.000004005432
255,182,26247,2,0,P|314:183|365:174,2,105.000004005432
315,35,26974,1,0,0:0:0:0:
460,181,27217,1,0,0:0:0:0:
125,172,27459,1,0,0:0:0:0:
351,8,27702,1,0,0:0:0:0:
316,222,27944,6,0,P|308:313|310:352,1,105.000004005432
437,240,28429,1,0,0:0:0:0:
149,204,28671,1,0,0:0:0:0:
452,157,28913,1,0,0:0:0:0:
172,113,29156,6,0,P|97:109|59:115,1,105.000004005432
156,327,29641,1,0,0:0:0:0:
229,170,29883,1,0,0:0:0:0:
261,318,30125,1,0,0:0:0:0:
305,179,30368,1,0,0:0:0:0:
351,314,30610,6,0,P|436:317|483:305,1,105.000004005432
359,145,31095,1,0,0:0:0:0:
321,108,31216,1,0,0:0:0:0:
273,86,31337,1,0,0:0:0:0:
220,78,31459,1,0,0:0:0:0:
167,81,31580,1,0,0:0:0:0:
118,100,31701,1,0,0:0:0:0:
89,144,31822,2,0,P|77:231|86:279,1,105.000004005432
287,232,32307,5,0,0:0:0:0:
147,210,32549,1,0,0:0:0:0:
302,168,32792,5,0,0:0:0:0:
153,151,33034,2,0,P|159:79|176:32,1,105.000004005432
302,168,33519,1,0,0:0:0:0:
111,269,33761,1,0,0:0:0:0:
320,113,34004,2,0,P|403:116|447:132,1,105.000004005432
317,298,34489,1,0,0:0:0:0:
180,82,34731,1,0,0:0:0:0:
472,64,34973,1,0,0:0:0:0:
280,339,35216,1,0,0:0:0:0:
213,47,35458,6,0,P|291:47|347:58,1,105.000004005432
151,272,35943,1,0,0:0:0:0:
325,52,36185,1,0,0:0:0:0:
382,275,36428,1,0,0:0:0:0:
119,79,36670,1,0,0:0:0:0:
376,64,36913,6,0,P|447:100|478:154,1,105.000004005432
277,207,37397,2,0,P|199:212|138:205,1,105.000004005432
295,17,37882,1,0,0:0:0:0:
124,361,38124,1,0,0:0:0:0:
383,15,38367,5,0,0:0:0:0:
370,315,38609,6,0,B|395:222|339:195|380:105,1,210.000008010865
450,168,39336,1,0,0:0:0:0:
263,283,39579,1,0,0:0:0:0:
295,63,39821,6,0,B|259:122|259:122|262:262,1,210.000008010865
160,126,40548,1,0,0:0:0:0:
354,224,40791,1,0,0:0:0:0:
140,309,41033,1,0,0:0:0:0:
199,92,41276,2,0,P|287:86|345:88,1,105.000004005432
251,162,41760,2,0,L|251:269,2,105.000004005432
366,248,42488,1,0,0:0:0:0:
134,196,42730,6,0,P|120:136|128:70,1,105.000004005432
270,236,43215,2,0,P|285:292|290:343,2,105.000004005432
145,332,43942,1,0,0:0:0:0:
376,148,44184,1,0,0:0:0:0:
80,82,44427,1,0,0:0:0:0:
133,379,44669,1,0,0:0:0:0:
421,114,44912,1,0,0:0:0:0:
50,47,45154,1,0,0:0:0:0:
183,359,45396,2,0,P|275:365|327:354,1,105.000004005432
88,143,45881,5,0,0:0:0:0:
324,319,46124,1,0,0:0:0:0:
225,152,46608,6,0,L|226:87,1,35.0000013351441
332,216,47093,2,0,L|330:272,1,35.0000013351441
165,225,47335,1,0,0:0:0:0:
355,72,47578,1,0,0:0:0:0:
319,351,47820,1,0,0:0:0:0:
162,169,48063,6,0,P|156:95|176:58,1,105.000004005432
265,208,48547,1,0,0:0:0:0:
265,208,48669,1,0,0:0:0:0:
265,208,48790,1,0,0:0:0:0:
386,70,49032,1,0,0:0:0:0:
366,309,49275,2,0,P|294:311|244:298,1,105.000004005432
428,192,49759,1,0,0:0:0:0:
181,135,50002,1,0,0:0:0:0:
453,138,50244,1,0,0:0:0:0:
182,67,50487,6,0,L|181:38,4,17.500000667572
293,187,50971,2,0,L|293:217,4,17.500000667572
115,126,51456,1,0,0:0:0:0:
394,156,51699,1,0,0:0:0:0:
67,132,51941,2,0,P|88:56|128:24,1,105.000004005432
260,338,52426,1,0,0:0:0:0:
24,212,52668,1,0,0:0:0:0:
300,23,52911,1,0,0:0:0:0:
257,378,53153,1,0,0:0:0:0:
54,76,53395,1,0,0:0:0:0:
456,170,53638,1,0,0:0:0:0:
16,368,53880,2,8,B|48:224|48:224|96:224|96:224|112:160,1,251.999992309571
256,192,54607,5,0,0:0:0:0:
496,16,54850,2,8,B|464:160|464:160|416:160|416:160|400:224,1,251.999992309571
384,272,55577,1,0,0:0:0:0:
112,160,56062,1,0,0:0:0:0:
400,224,56304,1,0,0:0:0:0:
80,192,56547,1,0,0:0:0:0:
416,192,56789,1,0,0:0:0:0:
48,224,57031,1,0,0:0:0:0:
448,160,57455,1,0,0:0:0:0:
480,128,57516,2,0,B|336:128|336:128|288:176|288:176|224:176,1,245
224,208,58001,2,0,L|368:208,1,140
256,192,58486,1,0,0:0:0:0:
0,288,58728,5,0,0:0:0:0:
512,96,58970,1,0,0:0:0:0:
256,192,59213,1,0,0:0:0:0:
256,320,59940,5,0,0:0:0:0:
192,128,60182,2,0,P|192:64|176:48,1,70
208,144,60425,2,0,P|240:80|240:48,1,70
224,176,60667,2,0,P|288:128|288:112,1,70
224,208,60910,2,0,P|304:208|320:192,1,70
144,320,61394,5,0,0:0:0:0:
256,48,61516,1,0,0:0:0:0:
368,320,61637,1,0,0:0:0:0:
112,144,61758,1,0,0:0:0:0:
400,144,61879,1,0,0:0:0:0:
144,320,62000,1,0,0:0:0:0:
256,192,62122,5,0,0:0:0:0:
48,48,62606,2,0,B|176:48|176:48|240:112|240:112|272:80,1,262.5
288,96,63091,2,0,B|240:144|240:144|176:80,1,140
160,192,63576,1,0,0:0:0:0:
352,192,63818,1,0,0:0:0:0:
96,192,64061,2,0,L|64:192,15,17.5
128,192,64546,2,0,L|160:192,7,17.5
256,192,64788,1,8,0:0:0:0:
48,32,65212,2,0,L|80:32,1,17.5
32,64,65273,2,0,L|336:64,1,280
416,64,66000,6,0,L|336:64,1,70
416,96,66242,2,0,L|352:96,1,62.9999980773926
416,128,66485,2,0,L|352:128,1,56
416,160,66727,2,0,L|352:160,1,48.9999985046387
48,160,66969,1,0,0:0:0:0:
416,160,67454,1,0,0:0:0:0:
48,160,67697,1,0,0:0:0:0:
64,160,68181,2,0,L|160:160,1,85.7499973831178
176,160,68424,2,0,L|336:160,1,157.499995193482
352,160,68909,2,0,L|488:160,1,131.25
480,208,69393,2,0,L|352:208,1,122.5
320,208,69636,2,0,L|192:208,1,122.5
224,224,69909,5,0,0:0:0:0:
224,160,70121,1,0,0:0:0:0:
288,160,70363,1,0,0:0:0:0:
288,224,70605,1,0,0:0:0:0:
256,272,70848,1,0,0:0:0:0:
176,192,71090,1,0,0:0:0:0:
256,112,71333,1,0,0:0:0:0:
336,192,71575,1,0,0:0:0:0:
336,272,71817,5,0,0:0:0:0:
176,272,72060,1,0,0:0:0:0:
176,112,72302,1,0,0:0:0:0:
336,112,72545,1,0,0:0:0:0:
448,64,73029,2,0,B|304:64|304:64|288:48|288:48|288:64|288:64|272:80|272:80|272:64|272:64|256:48|256:48|256:64|256:64|240:80|240:80,1,280
384,96,73151,1,0,0:0:0:0:
304,32,73272,1,0,0:0:0:0:
256,96,73393,1,0,0:0:0:0:
208,32,73514,1,0,0:0:0:0:
16,16,73757,5,0,0:0:0:0:
16,368,73999,1,0,0:0:0:0:
496,368,74241,1,0,0:0:0:0:
496,16,74484,1,0,0:0:0:0:
256,192,74726,1,0,0:0:0:0:
16,368,74969,1,0,0:0:0:0:
256,192,75453,1,0,0:0:0:0:
96,48,75696,6,0,B|224:48|224:48|256:80|256:80|352:80,1,262.5
352,112,76180,2,0,B|224:112|224:112|192:144|192:144|96:144,1,262.5
96,176,76665,2,0,B|224:176|224:176|256:208|256:208|352:208,1,262.5
384,208,77150,2,0,L|416:208,6,17.5
64,80,77605,1,0,0:0:0:0:
48,48,77635,1,0,0:0:0:0:
448,320,78089,1,0,0:0:0:0:
464,352,78120,1,0,0:0:0:0:
256,16,78362,5,0,0:0:0:0:
256,368,78604,1,0,0:0:0:0:
256,192,78847,5,0,0:0:0:0:
304,112,78968,2,0,L|336:112,1,17.5
336,96,78998,2,0,L|368:96,1,17.5
368,80,79029,2,0,L|400:80,1,17.5
400,64,79059,2,0,L|432:64,1,17.5
432,48,79089,2,0,L|464:48,15,17.5
464,80,79574,5,0,0:0:0:0:
80,320,79786,1,0,0:0:0:0:
32,304,79816,1,0,0:0:0:0:
496,16,80301,1,0,0:0:0:0:
496,48,80331,1,0,0:0:0:0:
48,352,80544,6,0,B|160:320|176:224|256:192|256:192|272:192|272:192|272:160|272:160|304:176|304:176|304:144|304:144|336:160|336:160|336:128|336:128|368:144|368:144|368:112|368:112|400:112|400:112|400:112,1,542.5
400,96,81513,1,0,0:0:0:0:
141,31,81756,5,0,0:0:0:0:
71,330,81998,1,0,0:0:0:0:
50,135,82240,1,0,0:0:0:0:
232,207,82483,2,0,L|248:126,1,70
136,256,82725,2,0,L|57:282,1,70,0|0,0:3|0:3,0:3:0:0:
242,311,82968,2,0,L|304:365,1,70,0|0,0:3|0:3,0:3:0:0:
369,199,83210,5,0,0:0:0:0:
5,185,83452,1,0,0:0:0:0:
464,312,83695,2,0,L|480:350,4,35
322,175,84180,6,0,P|310:208|289:236,1,70
118,344,84422,1,0,0:0:0:0:
105,120,84664,6,0,L|91:61,1,35
203,211,84786,2,0,L|217:270,1,35
228,87,84907,2,0,L|214:28,1,35
334,185,85029,2,0,L|348:244,1,35
392,93,85149,2,0,L|336:115,3,35
217,148,85391,5,0,0:0:0:0:
363,378,85634,1,0,0:0:0:0:
193,280,85876,5,0,0:0:0:0:
47,50,86119,1,0,0:0:0:0:
40,189,86361,1,0,0:0:0:0:
218,78,86603,1,0,0:0:0:0:
43,315,86846,1,0,0:0:0:0:
403,163,87088,1,0,0:0:0:0:
253,366,87331,5,0,0:0:0:0:
237,323,87391,1,0,0:0:0:0:
222,279,87452,1,0,0:0:0:0:
169,134,87573,1,0,0:0:0:0:
74,320,87815,1,0,0:0:0:0:
313,25,88058,1,0,0:0:0:0:
50,47,88300,6,0,L|62:131,1,70
159,151,88543,2,0,L|199:225,1,70
295,231,88785,2,0,L|358:287,1,70
442,234,89027,2,0,L|520:265,1,70
500,239,89209,1,0,0:0:0:0:
492,217,89270,6,0,P|477:277|486:315,1,70
219,177,89512,2,0,P|217:142|204:109,1,70
430,277,89755,6,0,P|379:313|362:348,1,70
246,71,89997,2,0,P|267:43|278:10,1,70
303,344,90239,5,0,0:0:0:0:
368,2,90482,1,0,0:0:0:0:
111,258,90724,1,0,0:0:0:0:
383,191,90967,5,0,0:0:0:0:
367,213,91027,1,0,0:0:0:0:
351,235,91088,1,0,0:0:0:0:
336,257,91148,1,0,0:0:0:0:
320,280,91209,6,0,L|306:195,1,70
186,95,91451,2,0,L|200:180,1,70
464,144,91694,5,0,0:0:0:0:
21,211,91936,1,0,0:0:0:0:
351,274,92421,6,0,P|352:229|313:305,1,280
293,235,93148,6,0,L|297:138,1,70
185,283,93391,2,0,L|181:380,1,70
99,190,93633,6,0,L|103:93,1,70
406,262,94118,6,0,B|435:231|381:182|381:182|467:130|108:167|291:216|291:216|371:28,1,542.5
408,24,95087,6,0,L|449:156,1,122.5
387,99,95330,6,0,L|245:142,1,140
66,330,95814,6,0,L|72:312,1,17.5
125,121,96057,5,0,0:0:0:0:
241,244,96178,1,0,0:0:0:0:
183,40,96299,1,0,0:0:0:0:
423,136,96542,6,0,L|429:177,1,35
35,180,96784,2,0,L|29:139,1,35
368,315,97026,5,0,0:0:0:0:
4,255,97269,1,0,0:0:0:0:
497,157,97511,1,0,0:0:0:0:
2,55,97754,1,0,0:0:0:0:
420,29,97996,6,0,P|376:80|473:63,1,245
353,59,98481,2,0,P|397:110|299:93,1,245
420,29,98966,5,0,0:0:0:0:
2,55,99087,1,0,0:0:0:0:
497,157,99208,1,0,0:0:0:0:
4,255,99329,1,0,0:0:0:0:
368,315,99450,1,0,0:0:0:0:
245,198,99572,1,0,0:0:0:0:
153,329,99693,6,0,P|124:277|123:239,1,70
66,107,99935,2,0,L|45:206,1,70
194,196,100178,2,0,L|208:264,1,70
354,277,100420,2,0,B|371:232|371:232|350:210|350:210|395:210|395:210|351:169|351:169|397:211|421:169|394:159,1,245
425,155,100905,5,0,0:0:0:0:
5,148,101147,2,0,P|18:188|60:132,1,140
453,308,101632,2,0,P|417:355|390:302,1,140
274,62,102117,5,0,0:0:0:0:
246,141,102359,1,0,0:0:0:0:
212,218,102602,1,0,0:0:0:0:
174,293,102844,6,0,L|171:195,1,70
274,62,103086,2,0,L|277:160,1,70
69,174,103329,6,0,P|31:179|0:218,1,70
421,272,103571,2,0,P|459:277|490:316,1,70
291,309,103814,5,0,0:0:0:0:
325,224,103935,1,0,0:0:0:0:
253,310,104056,5,0,0:0:0:0:
302,232,104177,1,0,0:0:0:0:
214,301,104298,5,0,0:0:0:0:
276,233,104419,1,0,0:0:0:0:
174,281,104541,5,0,0:0:0:0:
246,224,104662,1,0,0:0:0:0:
115,247,104783,6,0,B|76:127|76:127|190:152|207:232|206:262|206:262|120:294,1,420
240,102,105753,2,0,L|338:306,1,210
286,194,106237,6,0,L|336:64,1,140
286,194,106237,6,0,L|432:256,1,140
109,158,106965,5,0,0:0:0:0:
430,162,107207,1,0,0:0:0:0:
41,276,107449,1,0,0:0:0:0:
287,67,107692,6,0,L|308:154,1,70
207,297,107934,2,0,L|186:210,1,70
261,99,108177,6,0,L|282:186,1,70
181,329,108419,2,0,L|160:242,1,70
133,124,108661,6,0,P|77:97|80:172,1,140
377,267,109146,2,0,P|433:240|430:315,1,140
131,123,109631,5,0,0:0:0:0:
377,267,109873,1,0,0:0:0:0:
203,174,110116,1,0,0:0:0:0:
302,225,110358,1,0,0:0:0:0:
203,174,110601,5,0,0:0:0:0:
302,225,110722,1,0,0:0:0:0:
131,123,110843,1,0,0:0:0:0:
377,267,110964,1,0,0:0:0:0:
316,141,111085,1,0,0:0:0:0:
322,338,111207,1,0,0:0:0:0:
398,165,111328,1,0,0:0:0:0:
224,254,111449,1,0,0:0:0:0:
247,123,111570,6,0,L|262:35,1,70
434,246,111813,2,0,L|419:334,1,70
209,85,112055,2,0,L|224:-3,1,70
466,315,112297,2,0,L|451:403,1,70
95,176,112540,6,0,L|116:175,1,17.5
244,170,112782,2,0,L|268:169,2,17.5
95,176,113206,2,0,P|174:163|94:170,1,245
142,162,113752,1,0,0:0:0:0:
190,153,113873,1,0,0:0:0:0:
238,146,113994,1,0,0:0:0:0:
286,137,114115,2,0,L|379:142,2,70
145,173,114479,6,0,B|139:134|139:134|157:85,1,70
215,52,114721,1,0,0:0:0:0:
298,42,114842,1,0,0:0:0:0:
376,72,114964,1,0,0:0:0:0:
409,148,115085,1,0,0:0:0:0:
384,228,115206,2,0,B|265:284|265:284|325:197|226:163|168:211|111:213|168:309,1,420
455,286,115327,2,0,L|449:357,1,70
36,96,115570,2,0,L|42:25,1,70
159,374,115812,2,0,L|165:303,1,70
165,305,115933,2,0,P|259:313|251:201,1,210
264,90,116418,5,0,0:0:0:0:
281,23,116539,2,0,L|251:145,1,70
264,90,116782,1,0,0:0:0:0:
264,90,116842,1,0,0:0:0:0:
264,90,116903,1,0,0:0:0:0:
269,264,117024,1,0,0:0:0:0:
94,264,117145,1,0,0:0:0:0:
82,89,117266,1,0,0:0:0:0:
272,101,117388,2,0,L|267:187,1,70
37,184,117630,1,0,0:0:0:0:
475,213,117872,2,0,L|325:210,1,140
208,140,118357,6,0,P|174:196|212:263,1,140
230,272,118660,2,0,P|299:272|244:360,1,210
191,331,119084,2,0,L|429:278,1,210
415,55,119569,2,0,B|434:95|393:101|461:109|461:109|411:126|398:135|398:135|456:135|343:104|343:104|403:154|339:189,1,350
204,286,120296,5,0,0:0:0:0:
281,334,120418,1,0,0:0:0:0:
368,309,120539,1,0,0:0:0:0:
368,309,120781,1,0,0:0:0:0:
291,261,120903,1,0,0:0:0:0:
204,286,121024,1,0,0:0:0:0:
260,359,121266,2,0,L|344:-3,1,350
324,86,121751,2,0,L|405:103,1,70
304,175,121993,5,0,0:0:0:0:
185,84,122114,1,0,0:0:0:0:
185,84,122236,1,0,0:0:0:0:
329,154,122357,1,0,0:0:0:0:
140,209,122478,1,0,0:0:0:0:
338,31,122599,1,0,0:0:0:0:
336,37,122720,1,0,0:0:0:0:
335,48,122841,1,0,0:0:0:0:
332,65,122963,2,0,P|273:83|309:-19,1,210
432,309,123447,2,0,L|244:316,1,175
19,241,123932,1,0,0:0:0:0:
178,224,124053,5,0,0:0:0:0:
339,208,124175,1,0,0:0:0:0:
178,224,124417,1,0,0:0:0:0:
494,188,124902,1,0,0:0:0:0:
311,94,125144,2,0,L|314:167,1,70
313,163,125326,2,0,L|224:170,1,70
243,168,125508,2,0,L|249:249,1,70
248,238,125690,2,0,L|333:262,1,70
315,257,125871,2,0,L|366:184,1,70
254,29,126114,5,0,0:0:0:0:
507,377,126356,1,0,0:0:0:0:
0,0,126599,1,0,0:0:0:0:
512,185,126841,1,0,0:0:0:0:
0,384,127023,1,0,0:0:0:0:
100,242,127326,2,0,P|104:210|107:176,10,35
150,307,128053,2,0,L|236:300,1,70
358,158,128235,2,0,P|399:210|385:236,1,105
301,246,128538,2,0,P|244:210|247:157,1,105
309,112,128780,2,0,L|277:309,1,175
205,315,129265,1,0,0:0:0:0:
79,281,129386,1,0,0:0:0:0:
205,315,129507,1,0,0:0:0:0:
79,281,129629,1,0,0:0:0:0:
205,315,129750,2,0,L|289:338,1,70
175,307,129992,2,0,L|92:284,1,70
90,219,130235,1,0,0:0:0:0:
136,167,130295,1,0,0:0:0:0:
202,144,130356,1,0,0:0:0:0:
271,153,130416,1,0,0:0:0:0:
331,187,130477,1,0,0:0:0:0:
325,257,130538,1,0,0:0:0:0:
256,272,130598,1,0,0:0:0:0:
203,225,130659,1,0,0:0:0:0:
237,164,130719,1,0,0:0:0:0:
308,172,130780,2,0,L|266:238,1,70
182,190,130962,2,0,L|256:231,1,70
262,304,131144,2,0,L|259:228,1,70
259,234,131325,2,0,L|253:287,1,35
259,234,131447,2,0,P|256:171|322:189,1,140
411,259,131931,1,0,0:0:0:0:
287,66,132174,1,0,0:0:0:0:
174,242,132416,1,0,0:0:0:0:
312,149,132658,2,0,L|302:300,1,140
106,326,133143,2,0,L|153:167,1,140
262,90,133628,1,0,0:0:0:0:
370,148,133870,1,0,0:0:0:0:
262,90,133992,1,0,0:0:0:0:
370,148,134113,1,0,0:0:0:0:
262,90,134234,1,0,0:0:0:0:
370,148,134355,1,0,0:0:0:0:
423,330,134476,2,0,L|257:340,1,140
89,230,134840,2,0,P|133:232|147:237,1,52.5000020027161
283,338,135082,2,0,P|239:336|225:331,1,52.5000020027161
34,185,135325,2,0,P|78:187|92:192,1,52.5000020027161
228,293,135567,2,0,P|184:291|170:286,1,52.5000020027161
255,189,135810,1,0,0:0:0:0:
88,265,136052,1,0,0:0:0:0:
139,275,136173,1,0,0:0:0:0:
188,258,136294,1,0,0:0:0:0:
251,176,136537,2,0,L|260:240,1,52.5000020027161
275,313,136779,1,0,0:0:0:0:
80,142,137022,1,0,0:0:0:0:
370,90,137264,2,0,B|414:119|353:45|585:105,1,210.000008010865
427,202,137749,1,0,0:0:0:0:
148,72,137991,1,0,0:0:0:0:
418,46,138234,1,0,0:0:0:0:
37,330,138476,1,0,0:0:0:0:
256,192,139203,5,0,0:0:0:0:
186,160,139688,6,0,P|187:80|244:192,1,367.500014019013,4|0,0:3|0:0,0:0:0:0:
255,191,140658,2,0,P|172:166|182:263,1,196,4|0,0:3|0:0,0:0:0:0:
163,250,141627,2,0,P|206:200|168:317,1,440.999986541748,4|0,0:3|0:0,0:0:0:0:
191,345,142597,2,0,P|207:284|145:251,1,125.999996154785,4|0,0:3|0:0,0:0:0:0:
162,250,143081,2,0,P|205:249|250:200,1,94.5000003604889,4|0,3:0|0:0,0:0:0:0:
339,105,143324,2,0,P|304:74|257:72,1,94.5000003604889,4|0,0:3|0:0,0:0:0:0:
243,217,143566,2,0,P|298:249|440:217,1,196,4|0,0:3|0:0,0:0:0:0:
423,229,144536,2,0,P|276:210|61:369,1,416.500007944107,4|0,0:3|0:0,0:0:0:0:
66,356,145505,2,0,P|213:343|-5:231,1,685.999979064942,4|0,0:3|0:0,0:0:0:0:
39,138,146233,5,0,0:0:0:0:
102,222,146475,2,0,L|113:219,1,7
328,85,146717,2,0,L|334:86,1,7
305,324,146960,2,0,L|294:321,1,7
137,70,147202,2,0,L|130:71,1,7
113,314,147445,6,0,P|190:344|301:320,1,196,4|0,0:3|0:0,0:0:0:0:
298,321,148414,2,0,P|174:259|339:246,1,416.500007944107,4|0,0:3|0:0,0:0:0:0:
337,232,149384,2,0,P|219:240|395:149,1,685.999979064942,4|0,0:3|0:0,0:0:0:0:
345,283,150353,2,0,P|207:285|110:47,1,420,4|0,0:3|0:0,0:0:0:0:
271,123,150838,2,0,P|349:141|431:116,1,140,4|0,0:3|0:0,0:0:0:0:
345,283,151080,2,0,P|267:265|185:290,1,140,4|0,0:3|0:0,0:0:0:0:
11,343,151323,2,0,P|87:344|113:235,1,196,4|0,0:3|0:0,0:0:0:0:
290,36,152292,2,0,P|180:10|142:261,1,416.500007944107,4|0,0:3|0:0,0:0:0:0:
208,144,153262,2,0,P|373:304|119:235,1,685.999979064942,4|0,0:3|0:0,0:0:0:0:
117,242,154232,2,0,P|101:360|238:258,1,388.49999851799,4|0,0:3|0:0,0:0:0:0:
215,142,154716,6,0,P|209:143|204:147,1,7,4|0,0:3|0:0,0:0:0:0:
415,343,154959,6,0,P|421:344|426:348,1,7,4|0,0:3|0:0,0:0:0:0:
244,268,155201,2,0,P|153:309|119:231,1,196,4|0,0:3|0:0,0:0:0:0:
51,118,156171,2,4,B|179:70|259:118|259:118|355:70|483:118,1,416.500007944107,4|4,0:3|0:3,0:3:0:0:
454,108,157140,2,0,P|395:357|269:108,1,685.999979064942,4|0,0:3|0:0,0:0:0:0:
236,30,158110,2,0,P|63:45|72:313,1,420,4|0,0:3|0:0,0:0:0:0:
162,178,158595,2,0,B|233:165|233:165|178:228,1,140,4|0,0:3|0:0,0:0:0:0:
406,317,158837,2,0,B|334:304|334:304|389:367,1,140,4|0,0:3|0:0,0:0:0:0:
279,351,159080,2,0,P|260:297|345:234,1,171.499994766236,4|0,0:3|0:0,0:0:0:0:
337,232,160049,2,0,P|239:288|62:53,1,440.999986541748,4|0,0:3|0:0,0:0:0:0:
383,379,161019,2,0,P|439:113|184:207,1,661.500002523422,4|0,0:3|0:0,0:0:0:0:
337,232,161988,2,0,P|397:162|142:115,1,420,4|0,0:3|0:0,0:0:0:0:
217,304,162443,5,0,0:0:0:0:
217,304,162473,6,0,L|349:226,1,140,4|0,0:3|0:0,0:0:0:0:
201,9,162715,2,0,L|80:80,1,140,4|0,0:3|0:0,0:0:0:0:
155,249,162958,2,0,P|216:216|346:238,1,196,4|0,0:3|0:0,0:0:0:0:
337,232,163927,2,0,P|228:298|219:99,1,416.500007944107,4|0,0:3|0:0,0:0:0:0:
449,71,164897,2,0,B|363:317|363:317|272:10|272:10|185:150,1,685.999979064942,4|0,0:3|0:0,0:0:0:0:
216,99,165867,2,0,P|73:49|60:266,1,420,4|0,0:3|0:0,0:0:0:0:
364,317,166351,2,0,L|370:315,1,7,0|0,0:3|0:0,0:0:0:0:
50,257,166594,2,0,L|43:255,1,7,4|0,0:3|0:0,0:0:0:0:
284,215,166836,2,0,P|266:135|343:111,1,171.499994766236,4|0,0:3|0:0,0:0:0:0:
294,298,167806,2,0,P|179:175|370:41,1,440.999986541748,4|0,0:3|0:0,0:0:0:0:
370,241,168775,2,0,P|270:300|264:300,1,97.9999970092774
92,51,169018,2,0,P|204:79|208:84,1,97.9999970092774
350,274,169260,2,0,P|240:312|234:311,1,97.9999970092774
113,34,169503,2,0,P|217:83|221:88,1,97.9999970092774
419,139,169745,2,0,B|414:173|414:173|407:177|407:177|409:185|409:185|403:194|403:194|405:204|405:204|401:212|401:212|402:221|402:221|397:229|397:229|397:238|397:238|392:242|392:242|393:253|393:253|374:322|374:322|307:193,1,251.999992309571
93,139,170199,5,0,0:0:0:0:
93,139,170230,6,0,B|98:173|98:173|105:177|105:177|103:185|103:185|109:194|109:194|107:204|107:204|111:212|111:212|110:221|110:221|114:229|114:229|114:238|114:238|119:242|119:242|118:253|118:253|138:322|138:322|205:193,1,251.999992309571
256,192,170714,12,0,170775,0:0:0:0:
256,192,170836,12,0,171139,0:0:0:0:
256,192,171199,12,0,171381,0:0:0:0:
256,192,171442,12,0,171805,0:0:0:0:
256,192,171866,12,0,171926,0:0:0:0:
256,192,171987,12,0,172048,0:0:0:0:
256,192,172108,12,0,172169,0:0:0:0:
256,192,172229,12,0,172411,0:0:0:0:
256,192,172472,12,0,173805,0:0:0:0:
256,192,173866,12,0,174047,0:0:0:0:
256,192,174108,12,0,174290,0:0:0:0:
256,192,174350,12,0,174532,0:0:0:0:
256,192,174593,12,0,175017,0:0:0:0:
256,192,175078,12,0,175502,0:0:0:0:
256,192,175562,12,0,175986,0:0:0:0:
256,192,176047,12,0,176471,0:0:0:0:
256,192,176532,12,0,176714,0:0:0:0:
256,192,176774,12,0,176956,0:0:0:0:
256,192,177017,12,0,177199,0:0:0:0:
256,192,177259,12,0,177683,0:0:0:0:
256,192,177744,12,0,177926,0:0:0:0:
256,192,177986,12,0,178168,0:0:0:0:
256,192,178229,12,0,178411,0:0:0:0:
256,192,178471,12,0,178895,0:0:0:0:
256,192,178956,12,0,179138,0:0:0:0:
256,192,179198,12,0,179380,0:0:0:0:
256,192,179441,12,0,179622,0:0:0:0:
256,192,179683,12,0,179865,0:0:0:0:
256,192,179925,12,0,180107,0:0:0:0:
256,192,180168,12,0,180350,0:0:0:0:
256,192,180410,12,0,180592,0:0:0:0:
256,192,180653,12,0,180834,0:0:0:0:
256,192,180895,12,0,181077,0:0:0:0:
256,192,181137,12,0,181561,0:0:0:0:
256,192,181622,12,0,181804,0:0:0:0:
256,192,181865,12,0,182289,0:0:0:0:
256,192,182349,12,0,182773,0:0:0:0:
256,192,182834,12,0,183258,0:0:0:0:
256,192,183318,12,0,183742,0:0:0:0:
256,192,183803,12,0,184227,0:0:0:0:
256,192,184288,12,0,184470,0:0:0:0:
256,192,184530,12,0,184712,0:0:0:0:
256,192,184773,12,0,184955,0:0:0:0:
256,192,185015,12,0,185439,0:0:0:0:
256,192,185500,12,0,185682,0:0:0:0:
256,192,185742,12,0,185924,0:0:0:0:
256,192,185985,12,0,186167,0:0:0:0:
256,192,186227,12,0,186651,0:0:0:0:
256,192,186712,12,0,186894,0:0:0:0:
256,192,186954,12,0,187136,0:0:0:0:
256,192,187197,12,0,187378,0:0:0:0:
256,192,187439,12,0,187621,0:0:0:0:
256,192,187681,12,0,187863,0:0:0:0:
256,192,187924,12,0,188106,0:0:0:0:
256,192,188166,12,0,188348,0:0:0:0:
256,192,188409,12,0,188590,0:0:0:0:
256,192,188651,12,0,188833,0:0:0:0:
256,192,188893,12,0,189317,0:0:0:0:
256,192,189378,12,0,189560,0:0:0:0:
256,192,189621,12,0,190045,0:0:0:0:
256,192,190106,12,0,196893,0:0:0:0:
