osu file format v14

[General]
AudioFilename: audio.mp3
AudioLeadIn: 0
PreviewTime: 28892
Countdown: 0
SampleSet: None
StackLeniency: 0.7
Mode: 0
LetterboxInBreaks: 0
WidescreenStoryboard: 1

[Editor]
Bookmarks: 8812,38550
DistanceSpacing: 1.8
BeatDivisor: 4
GridSize: 16
TimelineZoom: 1

[Metadata]
Title:DJ Sona: Ultimate Concert
TitleUnicode:DJ Sona: Ultimate Concert
Artist:The Crystal Method, Dada Life Bassnectar, Pretty Lights
ArtistUnicode:The Crystal Method, Dada Life Bassnectar, Pretty Lights
Creator:N0thing
Version:Normal
Source:League of Legends
Tags:League, legends, LoL, DJ, Sona, 2015, Ultimate, Skin, Riot Games, Riot, Nosaj Thing, Pretty Lights, The Crystal Method, Dada Life, Bassnectar, Renholdër, trailer
BeatmapID:1514056
BeatmapSetID:635398

[Difficulty]
HPDrainRate:5
CircleSize:3.3
OverallDifficulty:5
ApproachRate:5
SliderMultiplier:1.1
SliderTickRate:1

[Events]
//Background and Video events
0,0,"DJ_Sona.jpg",0,0
Video,0,"DJ Sona Ultimate Concert Skins Trailer - League of Legends.avi"
//Break Periods
//Storyboard Layer 0 (Background)
//Storyboard Layer 1 (Fail)
//Storyboard Layer 2 (Pass)
//Storyboard Layer 3 (Foreground)
//Storyboard Sound Samples

[TimingPoints]
6000,468.75,4,2,0,43,1,0
14320,-142.857142857143,4,2,5,43,0,0
15375,-125,4,2,0,63,0,0
16195,-125,4,2,5,43,0,0
19125,-111.111111111111,4,2,0,63,0,0
19945,-111.111111111111,4,2,5,43,0,0
21000,-100,4,3,1,39,0,0
28500,428.571428571429,4,2,0,43,1,0
28940,400,4,2,0,100,1,0
28940,-83.3333333333333,4,3,0,63,0,1
30840,-83.3333333333333,4,3,0,43,0,1
31340,-83.3333333333333,4,3,0,63,0,1
34040,-83.3333333333333,4,3,0,43,0,1
34540,-83.3333333333333,4,3,0,63,0,1
37240,-83.3333333333333,4,3,0,43,0,1
37740,-83.3333333333333,4,3,0,63,0,1
48145,545.454545454546,4,2,0,43,1,0
48145,-83.3333333333333,4,2,0,63,0,0
50326,-142.857142857143,4,2,5,35,0,0
65599,-142.857142857143,4,2,5,35,0,0
65610,468.75,4,2,0,43,1,0
66313,-100,4,2,1,43,0,0
68070,-100,4,3,1,53,0,0
69360,-100,4,3,1,53,0,0
71235,-100,4,3,30,53,0,0
73110,-76.9230769230769,4,3,40,59,0,1
88110,-100,4,3,0,43,0,0
91742,-100,4,3,0,5,0,0

[Colours]
Combo1 : 250,54,5
Combo2 : 79,198,57
Combo3 : 90,168,231
Combo4 : 244,119,26
Combo5 : 124,85,242

[HitObjects]
251,207,14320,22,8,L|316:183,1,57.7499982376099,10|8,0:0|0:0,0:0:0:0:
362,135,14906,2,8,L|401:150,1,38.4999988250733
459,212,15375,54,0,B|404:237|404:237|376:224,1,88,6|0,0:0|0:0,0:0:0:0:
277,299,16195,6,8,L|213:271,1,66
234,195,16781,2,8,L|206:155,1,44
261,99,17250,2,8,L|246:42,1,44,10|8,0:0|0:0,0:0:0:0:
321,23,17718,1,8,0:0:0:0:
371,130,18070,54,8,L|400:207,1,66
336,245,18656,2,8,L|346:307,1,44
260,254,19125,6,0,B|215:208|215:208|206:156,1,98.9999969787599,6|0,0:0|0:0,0:0:0:0:
262,51,19945,54,8,L|339:86,1,74.2499977340699
408,39,20531,2,8,L|464:21,1,49.4999984893799
494,114,21000,5,8,0:0:0:0:
447,201,21234,1,4,0:0:0:0:
406,291,21468,54,12,B|354:306|354:306|294:290,1,110
103,318,22406,2,12,B|88:266|88:266|102:213,1,110
100,13,23343,6,12,B|152:-2|152:-2|212:14,1,110
404,25,24281,2,12,B|419:77|419:77|404:131,1,110
324,312,25218,54,0,L|307:367,2,55,8|4|0,0:0|0:0|0:0,0:0:0:0:
136,247,26156,2,0,L|75:223,2,55,8|4|8,0:0|0:0|0:0,0:0:0:0:
192,57,27093,6,0,L|212:0,2,55,8|4|8,0:0|0:0|0:0,0:0:0:0:
374,135,28031,2,0,L|431:154,2,55,8|4|10,0:0|0:0|0:0,0:0:0:0:
125,240,28940,38,0,B|194:220|254:255|254:255|314:216|399:240,1,263.99999194336,8|12,0:0|0:0,0:0:0:0:
322,72,30140,1,8,0:0:0:0:
248,26,30340,1,4,0:0:0:0:
162,14,30540,2,0,B|95:32|95:32|39:65,1,131.99999597168,8|4,0:0|0:0,0:0:0:0:
70,232,31340,2,0,B|136:214|136:214|193:181,1,131.99999597168,8|4,0:0|0:0,0:0:0:0:
315,62,32140,54,0,B|253:46|186:73|186:73|120:46|56:62,1,263.99999194336,8|12,0:0|0:0,0:0:0:0:
80,233,33340,1,8,0:0:0:0:
144,290,33540,1,4,0:0:0:0:
227,307,33740,2,0,B|292:302|292:302|350:270,1,131.99999597168,8|4,0:0|0:0,0:0:0:0:
327,99,34540,2,0,B|258:101|258:101|205:135,1,131.99999597168,8|4,0:0|0:0,0:0:0:0:
75,247,35340,6,0,B|129:274|200:243|200:243|267:277|329:248,1,263.99999194336,8|12,0:0|0:0,0:0:0:0:
287,81,36540,1,8,0:0:0:0:
222,30,36740,1,4,0:0:0:0:
140,56,36940,2,0,B|67:58|67:58|-3:93,1,131.99999597168,8|4,0:0|0:0,0:0:0:0:
22,255,37740,2,0,B|94:252|94:252|165:217,1,131.99999597168,8|4,0:0|0:0,0:0:0:0:
277,113,38540,54,0,B|223:88|149:118|149:118|88:90|19:114,1,263.99999194336,8|12,0:0|0:0,0:0:0:0:
43,283,39740,1,12,0:0:0:0:
117,325,39940,1,4,0:0:0:0:
200,303,40140,6,0,L|247:355,1,65.9999979858399,8|4,0:0|0:0,0:0:0:0:
302,189,40740,54,0,L|347:140,1,65.9999979858399,8|4,0:0|0:0,0:0:0:0:
418,296,41340,6,0,L|465:348,1,65.9999979858399,8|4,0:0|0:0,0:0:0:0:
472,367,41740,54,0,B|433:297|484:237|484:237|494:164,1,197.99999395752,8|12,0:0|0:0,0:0:0:0:
406,165,42540,2,0,B|419:132|413:94,1,65.9999979858399,8|4,0:0|0:0,0:0:0:0:
242,97,43140,1,8,0:0:0:0:
173,148,43340,2,0,B|126:178|45:176,1,131.99999597168,8|4,0:0|0:0,0:0:0:0:
145,315,44140,2,0,B|105:338|89:374,1,65.9999979858399,8|4,0:0|0:0,0:0:0:0:
245,369,44940,6,0,B|288:290|258:243|258:243|252:165,1,197.99999395752,8|12,0:0|0:0,0:0:0:0:
163,188,45740,2,0,B|167:152|156:117,1,65.9999979858399,8|4,0:0|0:0,0:0:0:0:
337,126,46340,1,8,0:0:0:0:
385,196,46540,2,0,B|423:187|513:224,1,131.99999597168,8|4,0:0|0:0,0:0:0:0:
385,339,47340,2,0,B|425:362|441:398,1,65.9999979858399,8|4,0:0|0:0,0:0:0:0:
255,313,48145,37,4,0:0:0:0:
98,96,50326,6,0,B|137:78|174:91|174:91|220:107|250:95,1,153.999995300293,2|8,0:0|0:0,0:0:0:0:
156,196,52508,2,0,B|195:178|232:191|232:191|278:207|308:195,1,153.999995300293,2|8,0:0|0:0,0:0:0:0:
197,298,54690,2,0,B|236:280|273:293|273:293|319:309|349:297,1,153.999995300293,2|8,0:0|0:0,0:0:0:0:
443,316,56872,38,0,B|456:277|440:240|440:240|423:204|442:163,1,153.999995300293,2|8,0:0|0:0,0:0:0:0:
440,75,59054,2,0,B|401:57|364:70|364:70|318:86|288:74,1,153.999995300293,2|8,0:0|0:0,0:0:0:0:
351,182,61235,2,0,B|312:164|275:177|275:177|229:193|199:181,1,153.999995300293,2|8,0:0|0:0,0:0:0:0:
103,150,63417,2,0,B|85:189|98:226|98:226|114:272|102:302,1,153.999995300293,2|8,0:0|0:0,0:0:0:0:
258,192,65610,5,12,0:1:0:0:
98,273,66313,38,0,B|118:327|178:344|178:344|185:373,1,137.5,2|2,0:0|0:0,0:0:0:0:
328,334,67250,2,0,B|385:326|415:272|415:272|445:271,1,137.5,2|2,0:0|0:0,0:0:0:0:
437,170,68070,6,0,L|472:82,1,82.5,8|4,0:0|0:0,0:0:0:0:
383,40,68656,2,0,L|428:-7,2,55,8|4|8,0:0|0:0|0:0,0:0:0:0:
293,82,69360,54,0,L|232:98,1,55,8|4,0:0|0:0,0:0:0:0:
162,34,69828,2,0,L|106:6,1,55,8|4,0:0|0:0,0:0:0:0:
59,93,70298,2,0,L|41:159,1,55,8|4,0:0|0:0,0:0:0:0:
132,191,70766,2,0,L|157:252,1,55,8|4,0:0|0:0,0:0:0:0:
252,239,71235,6,0,L|263:204,12,27.5,8|8|8|8|8|8|8|8|8|8|8|8|8,0:0|0:0|0:0|0:0|0:0|0:0|0:0|0:0|0:0|0:0|0:0|0:0|0:0,0:0:0:0:
264,93,73110,54,0,L|336:133,1,71.4999967269899,8|0,0:0|0:0,2:0:0:0:
395,219,73578,2,0,B|413:195|413:195|413:168|413:168|431:147,1,71.4999967269899,2|0,0:3|0:3,2:0:0:0:
488,250,74047,2,0,B|431:337|431:337|385:344,1,142.99999345398,10|10,0:0|0:0,2:0:0:0:
191,231,74985,6,0,B|144:182|144:182|126:101,1,142.99999345398,8|4,0:0|0:0,2:0:0:0:
319,233,75922,2,0,B|370:185|370:185|381:106,1,142.99999345398,8|4,0:0|0:0,2:0:0:0:
294,325,76860,54,0,L|200:341,1,71.4999967269899,8|4,0:0|0:0,2:0:0:0:
114,301,77328,2,0,B|126:323|126:323|108:350|108:350|119:371,1,71.4999967269899,2|2,0:0|0:0,0:0:0:0:
24,290,77797,2,0,B|37:222|37:222|99:165,1,142.99999345398,8|4,0:0|0:0,2:0:0:0:
319,147,78735,6,0,B|339:77|339:77|386:25,1,142.99999345398,8|4,0:0|0:0,2:0:0:0:
194,149,79672,2,0,B|174:79|174:79|127:27,1,142.99999345398,8|4,0:0|0:0,2:0:0:0:
56,245,80610,54,0,B|78:310|78:310|140:358,1,142.99999345398,8|4,0:0|0:0,2:0:0:0:
365,357,81547,2,0,B|428:315|428:315|452:237,1,142.99999345398,8|4,0:0|0:0,2:0:0:0:
491,25,82485,1,12,0:0:0:0:
263,46,82953,6,0,L|288:124,1,71.4999967269899,8|4,0:0|0:0,2:0:0:0:
177,153,83422,2,0,L|160:229,1,71.4999967269899,8|4,0:0|0:0,2:0:0:0:
262,277,83891,2,0,L|292:355,1,71.4999967269899,8|4,0:0|0:0,2:0:0:0:
399,316,84360,2,0,L|465:364,1,71.4999967269899,8|4,0:0|0:0,2:0:0:0:
496,251,84828,2,0,L|432:210,1,71.4999967269899,8|4,0:0|0:0,2:0:0:0:
403,102,85297,54,0,B|332:135|332:135|323:204,1,142.99999345398,8|4,0:0|0:0,2:0:0:0:
116,100,86235,2,0,B|185:134|185:134|196:212,1,142.99999345398,8|4,0:0|0:0,2:0:0:0:
386,323,87172,6,0,P|421:325|457:321,1,71.4999967269899,8|4,0:0|0:0,2:0:0:0:
418,236,87641,1,12,0:0:0:0:
256,192,88110,5,12,0:1:0:0:
256,192,88578,12,0,91860,0:0:0:0:
