osu file format v14

[General]
AudioFilename: keran beres.mp3
AudioLeadIn: 0
PreviewTime: 57232
Countdown: 0
SampleSet: Soft
StackLeniency: 0.7
Mode: 1
LetterboxInBreaks: 0
WidescreenStoryboard: 0

[Editor]
DistanceSpacing: 1
BeatDivisor: 4
GridSize: 32
TimelineZoom: 1

[Metadata]
Title:Animal Instinct
TitleUnicode:Animal Instinct
Artist:The Cranberries
ArtistUnicode:The Cranberries
Creator:Surono
Version:Oni
Source:
Tags:
BeatmapID:1942563
BeatmapSetID:930166

[Difficulty]
HPDrainRate:5
CircleSize:2
OverallDifficulty:5
ApproachRate:10
SliderMultiplier:1.4
SliderTickRate:1

[Events]
//Background and Video events
0,0,"wew.jpg",0,0
//Break Periods
//Storyboard Layer 0 (Background)
//Storyboard Layer 1 (Fail)
//Storyboard Layer 2 (Pass)
//Storyboard Layer 3 (Foreground)
//Storyboard Sound Samples

[TimingPoints]
-315,454.029511918275,4,2,0,85,1,0
63,-133.333333333333,4,2,0,85,0,0
12095,-100,4,2,0,85,0,0
12322,-100,4,1,0,85,0,0
19518,-95.2380952380952,4,1,0,85,0,0
19632,-90.9090909090909,4,1,0,85,0,0
20910,-90.9090909090909,4,2,0,85,0,0
21107,-95.2380952380952,4,2,0,85,0,0
21334,-100,4,2,0,85,0,0
21537,-100,4,1,0,85,0,0
26783,-95.2380952380952,4,1,0,85,0,0
26896,-90.9090909090909,4,1,0,85,0,0
28175,-90.9090909090909,4,2,0,85,0,0
28372,-95.2380952380952,4,2,0,85,0,0
28599,-100,4,1,0,85,0,0
34047,-95.2380952380952,4,1,0,85,0,0
34161,-90.9090909090909,4,1,0,85,0,0
35439,-90.9090909090909,4,2,0,85,0,0
35636,-95.2380952380952,4,2,0,85,0,0
35863,-100,4,1,0,85,0,0
41312,-95.2380952380952,4,1,0,85,0,0
41425,-90.9090909090909,4,1,0,85,0,0
42901,-86.9565217391304,4,1,0,85,0,0
43128,-83.3333333333333,4,1,0,85,0,0
49938,-86.9565217391304,4,2,0,85,0,0
50165,-90.9090909090909,4,2,0,85,0,0
50392,-83.3333333333333,4,1,0,85,0,0
56975,-86.9565217391304,4,1,0,85,0,0
57202,-90.9090909090909,4,2,0,85,0,0
57429,-95.2380952380952,4,2,0,85,0,0
57800,-100,4,1,0,85,0,1
63105,-95.2380952380952,4,1,0,85,0,1
63218,-90.9090909090909,4,1,0,85,0,1
64497,-90.9090909090909,4,2,0,85,0,1
64951,-90.9090909090909,4,1,0,85,0,1
65261,-100,4,1,0,85,0,1
70369,-95.2380952380952,4,1,0,85,0,1
70483,-90.9090909090909,4,1,0,85,0,1
72412,-100,4,1,0,85,0,1
78996,-90.9090909090909,4,2,0,85,0,1
79223,-95.2380952380952,4,2,0,85,0,1
79594,-100,4,1,0,85,0,0
93525,-90.9090909090909,4,2,0,85,0,0
93751,-95.2380952380952,4,2,0,85,0,0
93978,-100,4,1,0,85,0,0
100789,-90.9090909090909,4,2,0,85,0,0
101016,-95.2380952380952,4,2,0,85,0,0
101243,-100,4,1,0,85,0,0
106691,-95.2380952380952,4,1,0,85,0,0
106805,-90.9090909090909,4,1,0,85,0,0
108084,-90.9090909090909,4,2,0,85,0,0
108280,-95.2380952380952,4,2,0,85,0,0
108507,-100,4,2,0,85,0,0
108879,-100,4,1,0,85,0,0
113956,-95.2380952380952,4,1,0,85,0,0
114069,-90.9090909090909,4,1,0,85,0,0
115545,-86.9565217391304,4,1,0,85,0,0
115772,-83.3333333333333,4,1,0,85,0,0
122582,-86.9565217391304,4,2,0,85,0,0
122809,-90.9090909090909,4,2,0,85,0,0
123036,-83.3333333333333,4,1,0,85,0,0
130301,-80,4,1,0,85,0,0
137111,-86.9565217391304,4,2,0,85,0,0
137338,-83.3333333333333,4,2,0,85,0,0
137565,-80,4,1,0,85,0,0
144974,-76.9230769230769,4,1,0,85,0,1
151640,-83.3333333333333,4,2,0,85,0,1
151867,-80,4,2,0,85,0,1
152094,-76.9230769230769,4,1,0,85,0,1
159131,-74.0740740740741,4,1,0,85,0,1
159358,-71.4285714285714,4,1,0,85,0,1
166200,-71.4285714285714,4,2,0,85,0,1
166654,-71.4285714285714,4,1,0,85,0,1
172298,-74.0740740740741,4,1,0,85,0,1
172525,-76.9230769230769,4,1,0,85,0,1
172752,-80,4,1,0,85,0,1
172979,-83.3333333333333,4,1,0,85,0,1
173206,-86.9565217391304,4,1,0,85,0,1
173433,-90.9090909090909,4,1,0,85,0,1
173660,-95.2380952380952,4,1,0,85,0,1
174032,-100,4,1,0,85,0,0
180471,-105.263157894737,4,1,0,85,0,0
180956,-100,4,2,0,85,0,0
181152,-100,4,1,0,85,0,0
194886,-105.263157894737,4,1,0,85,0,0
195485,-105.263157894737,4,2,0,85,0,0
195680,-100,4,2,0,85,0,0
195939,-100,4,1,0,85,0,0
201356,-95.2380952380952,4,1,0,85,0,0
201583,-90.9090909090909,4,1,0,85,0,0
201810,-86.9565217391304,4,1,0,85,0,0
202037,-83.3333333333333,4,1,0,85,0,0
202264,-80,4,1,0,85,0,0
202491,-76.9230769230769,4,1,0,85,0,0
202718,-74.0740740740741,4,1,0,85,0,0
202831,-71.4285714285714,4,1,0,85,0,0
203172,-71.4285714285714,4,2,0,25,0,0
205215,-71.4285714285714,4,1,0,15,0,0

[HitObjects]
256,192,139,5,0,0:0:0:0:
256,192,366,1,8,0:0:0:0:
256,192,820,1,0,0:0:0:0:
256,192,1047,1,8,0:0:0:0:
256,192,1274,1,8,0:0:0:0:
256,192,1501,1,0,0:0:0:0:
256,192,1728,1,0,0:0:0:0:
256,192,1955,1,0,0:0:0:0:
256,192,2182,1,8,0:0:0:0:
256,192,2636,1,8,0:0:0:0:
256,192,2863,1,8,0:0:0:0:
256,192,3090,1,8,0:0:0:0:
256,192,3317,1,0,0:0:0:0:
256,192,3544,1,0,0:0:0:0:
256,192,3771,1,0,0:0:0:0:
256,192,3998,1,8,0:0:0:0:
256,192,4452,1,8,0:0:0:0:
256,192,4679,1,8,0:0:0:0:
256,192,4906,1,0,0:0:0:0:
256,192,5019,1,0,0:0:0:0:
256,192,5133,1,8,0:0:0:0:
256,192,5360,1,0,0:0:0:0:
256,192,5587,1,8,0:0:0:0:
256,192,5814,1,0,0:0:0:0:
256,192,6041,1,8,0:0:0:0:
256,192,6268,1,0,0:0:0:0:
256,192,6495,1,8,0:0:0:0:
256,192,6722,1,8,0:0:0:0:
256,192,6949,1,0,0:0:0:0:
256,192,7176,1,0,0:0:0:0:
256,192,7403,1,0,0:0:0:0:
256,192,7630,1,8,0:0:0:0:
256,192,8084,1,0,0:0:0:0:
256,192,8311,1,8,0:0:0:0:
256,192,8538,1,8,0:0:0:0:
256,192,8765,1,0,0:0:0:0:
256,192,8992,1,0,0:0:0:0:
256,192,9219,1,0,0:0:0:0:
256,192,9446,1,8,0:0:0:0:
256,192,9900,1,8,0:0:0:0:
256,192,10127,1,8,0:0:0:0:
256,192,10354,1,8,0:0:0:0:
256,192,10581,1,0,0:0:0:0:
256,192,10808,1,0,0:0:0:0:
256,192,11035,1,0,0:0:0:0:
256,192,11262,1,8,0:0:0:0:
256,192,11716,1,8,0:0:0:0:
256,192,11943,1,8,0:0:0:0:
256,192,12170,5,0,0:0:0:0:
256,192,12284,1,0,0:0:0:0:
256,192,12397,5,8,0:0:0:0:
256,192,12624,1,0,0:0:0:0:
256,192,12851,1,8,0:0:0:0:
256,192,13078,1,0,0:0:0:0:
256,192,13305,1,8,0:0:0:0:
256,192,13532,1,0,0:0:0:0:
256,192,13759,1,8,0:0:0:0:
256,192,13986,1,8,0:0:0:0:
256,192,14213,1,4,0:0:0:0:
256,192,14440,1,0,0:0:0:0:
256,192,14667,1,8,0:0:0:0:
256,192,14894,1,0,0:0:0:0:
256,192,15349,1,0,0:0:0:0:
256,192,15576,1,8,0:0:0:0:
256,192,15803,1,0,0:0:0:0:
256,192,15916,1,0,0:0:0:0:
256,192,16030,1,0,0:0:0:0:
256,192,16257,1,0,0:0:0:0:
256,192,16484,1,8,0:0:0:0:
256,192,16711,1,0,0:0:0:0:
256,192,17165,1,0,0:0:0:0:
256,192,17392,1,8,0:0:0:0:
256,192,17619,1,8,0:0:0:0:
256,192,17732,1,8,0:0:0:0:
256,192,17846,1,0,0:0:0:0:
256,192,18073,1,0,0:0:0:0:
256,192,18300,1,8,0:0:0:0:
256,192,18527,1,0,0:0:0:0:
256,192,18981,1,0,0:0:0:0:
256,192,19208,1,8,0:0:0:0:
256,192,19435,1,0,0:0:0:0:
256,192,19548,1,0,0:0:0:0:
256,192,19662,1,8,0:0:0:0:
256,192,19889,1,8,0:0:0:0:
256,192,20116,1,8,0:0:0:0:
256,192,20343,1,8,0:0:0:0:
256,192,20570,1,0,0:0:0:0:
256,192,20797,1,8,0:0:0:0:
256,192,21024,1,4,0:0:0:0:
256,192,21251,1,4,0:0:0:0:
256,192,21478,1,12,0:0:0:0:
256,192,21705,1,0,0:0:0:0:
256,192,21932,1,8,0:0:0:0:
256,192,22159,1,0,0:0:0:0:
256,192,22613,1,0,0:0:0:0:
256,192,22840,1,8,0:0:0:0:
256,192,23067,1,0,0:0:0:0:
256,192,23181,1,0,0:0:0:0:
256,192,23294,1,0,0:0:0:0:
256,192,23521,1,0,0:0:0:0:
256,192,23748,1,8,0:0:0:0:
256,192,23975,1,0,0:0:0:0:
256,192,24429,1,0,0:0:0:0:
256,192,24656,1,8,0:0:0:0:
256,192,24883,1,8,0:0:0:0:
256,192,24997,1,8,0:0:0:0:
256,192,25110,1,0,0:0:0:0:
256,192,25337,1,0,0:0:0:0:
256,192,25564,1,8,0:0:0:0:
256,192,25791,1,0,0:0:0:0:
256,192,26245,1,0,0:0:0:0:
256,192,26472,1,8,0:0:0:0:
256,192,26699,1,0,0:0:0:0:
256,192,26813,1,0,0:0:0:0:
256,192,26926,1,8,0:0:0:0:
256,192,27153,1,0,0:0:0:0:
256,192,27380,1,8,0:0:0:0:
256,192,27607,1,8,0:0:0:0:
256,192,27834,1,8,0:0:0:0:
256,192,28061,1,0,0:0:0:0:
256,192,28288,1,0,0:0:0:0:
256,192,28515,1,0,0:0:0:0:
256,192,28742,1,12,0:0:0:0:
256,192,29196,1,8,0:0:0:0:
256,192,29423,1,0,0:0:0:0:
256,192,29877,1,0,0:0:0:0:
256,192,30104,1,8,0:0:0:0:
256,192,30331,1,0,0:0:0:0:
256,192,30559,1,0,0:0:0:0:
256,192,31013,1,8,0:0:0:0:
256,192,31240,1,0,0:0:0:0:
256,192,31694,1,0,0:0:0:0:
256,192,31921,1,8,0:0:0:0:
256,192,32148,1,8,0:0:0:0:
256,192,32261,1,8,0:0:0:0:
256,192,32375,1,0,0:0:0:0:
256,192,32602,1,0,0:0:0:0:
256,192,32829,1,8,0:0:0:0:
256,192,33056,1,0,0:0:0:0:
256,192,33510,1,0,0:0:0:0:
256,192,33737,1,8,0:0:0:0:
256,192,33964,1,8,0:0:0:0:
256,192,34077,1,0,0:0:0:0:
256,192,34191,1,8,0:0:0:0:
256,192,34418,1,0,0:0:0:0:
256,192,34645,1,8,0:0:0:0:
256,192,34872,1,0,0:0:0:0:
256,192,35099,1,0,0:0:0:0:
256,192,35553,1,4,0:0:0:0:
256,192,35780,1,4,0:0:0:0:
256,192,36007,1,12,0:0:0:0:
256,192,36461,1,8,0:0:0:0:
256,192,36688,1,0,0:0:0:0:
256,192,37142,1,0,0:0:0:0:
256,192,37369,1,8,0:0:0:0:
256,192,37596,1,0,0:0:0:0:
256,192,37823,1,0,0:0:0:0:
256,192,38277,1,8,0:0:0:0:
256,192,38504,1,0,0:0:0:0:
256,192,38958,1,0,0:0:0:0:
256,192,39185,1,8,0:0:0:0:
256,192,39412,1,8,0:0:0:0:
256,192,39526,1,8,0:0:0:0:
256,192,39639,1,0,0:0:0:0:
256,192,39866,1,0,0:0:0:0:
256,192,40093,1,8,0:0:0:0:
256,192,40320,1,0,0:0:0:0:
256,192,40774,1,0,0:0:0:0:
256,192,41001,1,8,0:0:0:0:
256,192,41228,1,8,0:0:0:0:
256,192,41342,1,0,0:0:0:0:
256,192,41455,1,8,0:0:0:0:
256,192,41682,1,0,0:0:0:0:
256,192,41909,1,8,0:0:0:0:
256,192,42136,1,0,0:0:0:0:
256,192,42363,1,8,0:0:0:0:
256,192,42590,1,0,0:0:0:0:
256,192,42817,1,8,0:0:0:0:
256,192,43044,1,8,0:0:0:0:
256,192,43271,1,4,0:0:0:0:
256,192,43498,1,0,0:0:0:0:
256,192,43725,1,8,0:0:0:0:
256,192,43952,1,8,0:0:0:0:
256,192,44066,1,0,0:0:0:0:
256,192,44179,1,0,0:0:0:0:
256,192,44633,1,8,0:0:0:0:
256,192,44860,1,0,0:0:0:0:
256,192,45087,1,0,0:0:0:0:
256,192,45314,1,0,0:0:0:0:
256,192,45541,1,8,0:0:0:0:
256,192,45768,1,8,0:0:0:0:
256,192,45882,1,0,0:0:0:0:
256,192,45996,1,0,0:0:0:0:
256,192,46450,1,8,0:0:0:0:
256,192,46677,1,8,0:0:0:0:
256,192,46790,1,8,0:0:0:0:
256,192,46904,1,0,0:0:0:0:
256,192,47131,1,0,0:0:0:0:
256,192,47358,1,8,0:0:0:0:
256,192,47585,1,8,0:0:0:0:
256,192,47698,1,0,0:0:0:0:
256,192,47812,1,0,0:0:0:0:
256,192,48266,1,8,0:0:0:0:
256,192,48493,1,0,0:0:0:0:
256,192,48606,1,0,0:0:0:0:
256,192,48720,1,0,0:0:0:0:
256,192,48947,1,0,0:0:0:0:
256,192,49174,1,8,0:0:0:0:
256,192,49401,1,0,0:0:0:0:
256,192,49514,1,0,0:0:0:0:
256,192,49628,1,8,0:0:0:0:
256,192,49855,1,8,0:0:0:0:
256,192,50082,1,4,0:0:0:0:
256,192,50309,1,4,0:0:0:0:
256,192,50536,1,12,0:0:0:0:
256,192,50763,1,0,0:0:0:0:
256,192,50990,1,8,0:0:0:0:
256,192,51217,1,8,0:0:0:0:
256,192,51330,1,0,0:0:0:0:
256,192,51444,1,0,0:0:0:0:
256,192,51898,1,8,0:0:0:0:
256,192,52125,1,0,0:0:0:0:
256,192,52352,1,0,0:0:0:0:
256,192,52579,1,0,0:0:0:0:
256,192,52806,1,8,0:0:0:0:
256,192,53033,1,8,0:0:0:0:
256,192,53146,1,0,0:0:0:0:
256,192,53260,1,0,0:0:0:0:
256,192,53714,1,8,0:0:0:0:
256,192,53941,1,8,0:0:0:0:
256,192,54055,1,8,0:0:0:0:
256,192,54168,1,0,0:0:0:0:
256,192,54395,1,0,0:0:0:0:
256,192,54622,1,8,0:0:0:0:
256,192,54849,1,8,0:0:0:0:
256,192,54963,1,0,0:0:0:0:
256,192,55076,1,0,0:0:0:0:
256,192,55530,1,8,0:0:0:0:
256,192,55757,1,0,0:0:0:0:
256,192,55871,1,0,0:0:0:0:
256,192,55984,1,8,0:0:0:0:
256,192,56211,1,0,0:0:0:0:
256,192,56438,1,8,0:0:0:0:
256,192,56665,1,0,0:0:0:0:
256,192,56892,1,8,0:0:0:0:
256,192,57119,1,0,0:0:0:0:
256,192,57346,1,4,0:0:0:0:
256,192,57573,1,4,0:0:0:0:
256,192,57800,1,4,0:0:0:0:
256,192,58254,1,8,0:0:0:0:
256,192,58481,1,8,0:0:0:0:
256,192,58935,1,0,0:0:0:0:
256,192,59162,1,8,0:0:0:0:
256,192,59389,1,0,0:0:0:0:
256,192,59616,1,0,0:0:0:0:
256,192,60070,1,8,0:0:0:0:
256,192,60297,1,0,0:0:0:0:
256,192,60751,1,0,0:0:0:0:
256,192,60978,1,8,0:0:0:0:
256,192,61205,1,8,0:0:0:0:
256,192,61319,1,8,0:0:0:0:
256,192,61433,1,0,0:0:0:0:
256,192,61887,1,8,0:0:0:0:
256,192,62114,1,8,0:0:0:0:
256,192,62568,1,0,0:0:0:0:
256,192,62795,1,8,0:0:0:0:
256,192,63022,1,8,0:0:0:0:
256,192,63135,1,0,0:0:0:0:
256,192,63249,1,8,0:0:0:0:
256,192,63476,1,0,0:0:0:0:
256,192,63703,1,8,0:0:0:0:
256,192,63930,1,0,0:0:0:0:
256,192,64157,1,8,0:0:0:0:
256,192,64384,1,8,0:0:0:0:
256,192,64611,1,0,0:0:0:0:
256,192,64838,1,0,0:0:0:0:
256,192,65065,1,4,0:0:0:0:
256,192,65519,1,8,0:0:0:0:
256,192,65746,1,8,0:0:0:0:
256,192,66200,1,0,0:0:0:0:
256,192,66427,1,8,0:0:0:0:
256,192,66654,1,0,0:0:0:0:
256,192,66881,1,0,0:0:0:0:
256,192,67335,1,8,0:0:0:0:
256,192,67562,1,0,0:0:0:0:
256,192,68243,1,8,0:0:0:0:
256,192,68470,1,8,0:0:0:0:
256,192,68583,1,8,0:0:0:0:
256,192,68697,1,0,0:0:0:0:
256,192,68924,1,0,0:0:0:0:
256,192,69151,1,8,0:0:0:0:
256,192,69378,1,8,0:0:0:0:
256,192,70059,1,8,0:0:0:0:
256,192,70286,1,0,0:0:0:0:
256,192,70400,1,0,0:0:0:0:
256,192,70513,1,8,0:0:0:0:
256,192,70740,1,8,0:0:0:0:
256,192,70967,1,0,0:0:0:0:
256,192,71194,1,0,0:0:0:0:
256,192,71421,1,8,0:0:0:0:
256,192,71648,1,0,0:0:0:0:
256,192,71875,1,8,0:0:0:0:
256,192,72102,1,8,0:0:0:0:
256,192,72329,1,4,0:0:0:0:
256,192,72783,1,8,0:0:0:0:
256,192,73010,1,8,0:0:0:0:
256,192,73691,1,8,0:0:0:0:
256,192,73918,1,0,0:0:0:0:
256,192,74145,1,0,0:0:0:0:
256,192,74599,1,8,0:0:0:0:
256,192,74826,1,8,0:0:0:0:
256,192,75507,1,8,0:0:0:0:
256,192,75734,1,8,0:0:0:0:
256,192,75961,1,0,0:0:0:0:
256,192,76415,1,8,0:0:0:0:
256,192,76643,1,8,0:0:0:0:
256,192,77324,1,8,0:0:0:0:
256,192,77551,1,0,0:0:0:0:
256,192,77778,1,0,0:0:0:0:
256,192,78232,1,8,0:0:0:0:
256,192,78459,1,0,0:0:0:0:
256,192,78686,1,8,0:0:0:0:
256,192,79140,1,4,0:0:0:0:
256,192,79367,1,4,0:0:0:0:
256,192,79594,1,4,0:0:0:0:
256,192,79821,1,8,0:0:0:0:
256,192,80048,1,8,0:0:0:0:
256,192,80275,1,0,0:0:0:0:
256,192,80388,1,0,0:0:0:0:
256,192,80502,1,8,0:0:0:0:
256,192,80956,1,8,0:0:0:0:
256,192,81183,1,8,0:0:0:0:
256,192,81410,1,0,0:0:0:0:
256,192,81750,1,0,0:0:0:0:
256,192,81864,1,8,0:0:0:0:
256,192,82091,1,8,0:0:0:0:
256,192,82545,1,0,0:0:0:0:
256,192,82772,1,8,0:0:0:0:
256,192,82999,1,8,0:0:0:0:
256,192,83112,1,8,0:0:0:0:
256,192,83226,1,0,0:0:0:0:
256,192,83453,1,0,0:0:0:0:
256,192,83680,1,8,0:0:0:0:
256,192,83907,1,0,0:0:0:0:
256,192,84020,1,0,0:0:0:0:
256,192,84134,1,8,0:0:0:0:
256,192,84588,1,8,0:0:0:0:
256,192,84815,1,0,0:0:0:0:
256,192,85042,1,8,0:0:0:0:
256,192,85496,1,8,0:0:0:0:
256,192,85610,1,0,0:0:0:0:
256,192,85723,1,8,0:0:0:0:
256,192,85950,1,8,0:0:0:0:
256,192,86177,1,0,0:0:0:0:
256,192,86404,1,8,0:0:0:0:
256,192,86631,1,8,0:0:0:0:
256,192,86858,1,4,0:0:0:0:
256,192,87312,1,8,0:0:0:0:
256,192,87539,1,0,0:0:0:0:
256,192,87993,1,0,0:0:0:0:
256,192,88220,1,8,0:0:0:0:
256,192,88447,1,0,0:0:0:0:
256,192,88561,1,0,0:0:0:0:
256,192,88674,1,0,0:0:0:0:
256,192,88901,1,0,0:0:0:0:
256,192,89128,1,8,0:0:0:0:
256,192,89355,1,0,0:0:0:0:
256,192,89809,1,0,0:0:0:0:
256,192,90036,1,8,0:0:0:0:
256,192,90263,1,8,0:0:0:0:
256,192,90377,1,8,0:0:0:0:
256,192,90490,1,0,0:0:0:0:
256,192,90717,1,0,0:0:0:0:
256,192,90944,1,8,0:0:0:0:
256,192,91171,1,0,0:0:0:0:
256,192,91625,1,0,0:0:0:0:
256,192,91852,1,8,0:0:0:0:
256,192,92080,1,0,0:0:0:0:
256,192,92193,1,0,0:0:0:0:
256,192,92307,1,8,0:0:0:0:
256,192,92761,1,8,0:0:0:0:
256,192,92988,1,8,0:0:0:0:
256,192,93215,1,0,0:0:0:0:
256,192,93669,1,4,0:0:0:0:
256,192,93896,1,4,0:0:0:0:
256,192,94123,1,12,0:0:0:0:
256,192,94577,1,8,0:0:0:0:
256,192,94804,1,0,0:0:0:0:
256,192,95258,1,0,0:0:0:0:
256,192,95485,1,8,0:0:0:0:
256,192,95712,1,0,0:0:0:0:
256,192,95825,1,0,0:0:0:0:
256,192,95939,1,0,0:0:0:0:
256,192,96166,1,0,0:0:0:0:
256,192,96393,1,8,0:0:0:0:
256,192,96620,1,0,0:0:0:0:
256,192,97074,1,0,0:0:0:0:
256,192,97301,1,8,0:0:0:0:
256,192,97528,1,8,0:0:0:0:
256,192,97641,1,8,0:0:0:0:
256,192,97755,1,0,0:0:0:0:
256,192,97982,1,0,0:0:0:0:
256,192,98209,1,8,0:0:0:0:
256,192,98436,1,0,0:0:0:0:
256,192,98890,1,0,0:0:0:0:
256,192,99117,1,8,0:0:0:0:
256,192,99344,1,0,0:0:0:0:
256,192,99457,1,0,0:0:0:0:
256,192,99571,1,8,0:0:0:0:
256,192,100025,1,8,0:0:0:0:
256,192,100252,1,8,0:0:0:0:
256,192,100479,1,8,0:0:0:0:
256,192,100706,1,8,0:0:0:0:
256,192,100933,1,0,0:0:0:0:
256,192,101160,1,0,0:0:0:0:
256,192,101387,1,4,0:0:0:0:
256,192,101841,1,8,0:0:0:0:
256,192,102068,1,0,0:0:0:0:
256,192,102522,1,0,0:0:0:0:
256,192,102749,1,8,0:0:0:0:
256,192,102976,1,0,0:0:0:0:
256,192,103203,1,0,0:0:0:0:
256,192,103657,1,8,0:0:0:0:
256,192,103884,1,0,0:0:0:0:
256,192,104565,1,8,0:0:0:0:
256,192,104792,1,8,0:0:0:0:
256,192,104906,1,8,0:0:0:0:
256,192,105019,1,0,0:0:0:0:
256,192,105473,1,8,0:0:0:0:
256,192,105700,1,0,0:0:0:0:
256,192,106154,1,0,0:0:0:0:
256,192,106381,1,8,0:0:0:0:
256,192,106608,1,8,0:0:0:0:
256,192,106722,1,0,0:0:0:0:
256,192,106835,1,8,0:0:0:0:
256,192,107062,1,0,0:0:0:0:
256,192,107289,1,8,0:0:0:0:
256,192,107517,1,0,0:0:0:0:
256,192,107744,1,0,0:0:0:0:
256,192,108198,1,4,0:0:0:0:
256,192,108425,1,4,0:0:0:0:
256,192,108652,1,12,0:0:0:0:
256,192,109106,1,8,0:0:0:0:
256,192,109333,1,8,0:0:0:0:
256,192,109446,1,0,0:0:0:0:
256,192,109787,1,0,0:0:0:0:
256,192,110014,1,8,0:0:0:0:
256,192,110241,1,0,0:0:0:0:
256,192,110468,1,0,0:0:0:0:
256,192,110695,1,0,0:0:0:0:
256,192,110922,1,8,0:0:0:0:
256,192,111149,1,8,0:0:0:0:
256,192,111262,1,0,0:0:0:0:
256,192,111830,1,8,0:0:0:0:
256,192,112057,1,8,0:0:0:0:
256,192,112170,1,8,0:0:0:0:
256,192,112284,1,0,0:0:0:0:
256,192,112511,1,0,0:0:0:0:
256,192,112738,1,8,0:0:0:0:
256,192,112965,1,8,0:0:0:0:
256,192,113078,1,0,0:0:0:0:
256,192,113419,1,0,0:0:0:0:
256,192,113646,1,8,0:0:0:0:
256,192,113873,1,8,0:0:0:0:
256,192,113986,1,0,0:0:0:0:
256,192,114100,1,8,0:0:0:0:
256,192,114327,1,0,0:0:0:0:
256,192,114554,1,8,0:0:0:0:
256,192,114781,1,0,0:0:0:0:
256,192,114894,1,0,0:0:0:0:
256,192,115008,1,8,0:0:0:0:
256,192,115235,1,0,0:0:0:0:
256,192,115462,1,8,0:0:0:0:
256,192,115689,1,8,0:0:0:0:
256,192,115916,1,4,0:0:0:0:
256,192,116143,1,0,0:0:0:0:
256,192,116370,1,8,0:0:0:0:
256,192,116597,1,8,0:0:0:0:
256,192,116711,1,0,0:0:0:0:
256,192,116824,1,0,0:0:0:0:
256,192,117278,1,8,0:0:0:0:
256,192,117505,1,0,0:0:0:0:
256,192,117732,1,0,0:0:0:0:
256,192,117959,1,0,0:0:0:0:
256,192,118186,1,8,0:0:0:0:
256,192,118413,1,8,0:0:0:0:
256,192,118527,1,0,0:0:0:0:
256,192,118640,1,0,0:0:0:0:
256,192,119094,1,8,0:0:0:0:
256,192,119321,1,8,0:0:0:0:
256,192,119435,1,8,0:0:0:0:
256,192,119548,1,0,0:0:0:0:
256,192,119775,1,0,0:0:0:0:
256,192,120002,1,8,0:0:0:0:
256,192,120229,1,8,0:0:0:0:
256,192,120343,1,0,0:0:0:0:
256,192,120456,1,0,0:0:0:0:
256,192,120910,1,8,0:0:0:0:
256,192,121137,1,0,0:0:0:0:
256,192,121251,1,0,0:0:0:0:
256,192,121364,1,0,0:0:0:0:
256,192,121591,1,0,0:0:0:0:
256,192,121818,1,8,0:0:0:0:
256,192,122045,1,0,0:0:0:0:
256,192,122159,1,0,0:0:0:0:
256,192,122272,1,8,0:0:0:0:
256,192,122499,1,8,0:0:0:0:
256,192,122726,1,4,0:0:0:0:
256,192,122954,1,4,0:0:0:0:
256,192,123181,1,12,0:0:0:0:
256,192,123408,1,0,0:0:0:0:
256,192,123635,1,8,0:0:0:0:
256,192,123862,1,8,0:0:0:0:
256,192,123975,1,0,0:0:0:0:
256,192,124089,1,0,0:0:0:0:
256,192,124543,1,8,0:0:0:0:
256,192,124770,1,0,0:0:0:0:
256,192,124997,1,0,0:0:0:0:
256,192,125224,1,0,0:0:0:0:
256,192,125451,1,8,0:0:0:0:
256,192,125678,1,8,0:0:0:0:
256,192,125791,1,0,0:0:0:0:
256,192,125905,1,0,0:0:0:0:
256,192,126359,1,8,0:0:0:0:
256,192,126586,1,8,0:0:0:0:
256,192,126699,1,8,0:0:0:0:
256,192,126813,1,0,0:0:0:0:
256,192,127040,1,0,0:0:0:0:
256,192,127267,1,8,0:0:0:0:
256,192,127494,1,8,0:0:0:0:
256,192,127607,1,0,0:0:0:0:
256,192,127721,1,0,0:0:0:0:
256,192,128175,1,8,0:0:0:0:
256,192,128402,1,0,0:0:0:0:
256,192,128515,1,0,0:0:0:0:
256,192,128629,1,8,0:0:0:0:
256,192,128856,1,0,0:0:0:0:
256,192,129083,1,8,0:0:0:0:
256,192,129310,1,0,0:0:0:0:
256,192,129537,1,8,0:0:0:0:
256,192,129764,1,0,0:0:0:0:
256,192,129991,1,0,0:0:0:0:
256,192,130218,1,8,0:0:0:0:
256,192,130445,1,4,0:0:0:0:
256,192,130672,1,0,0:0:0:0:
256,192,130899,1,8,0:0:0:0:
256,192,131126,1,8,0:0:0:0:
256,192,131240,1,0,0:0:0:0:
256,192,131353,1,0,0:0:0:0:
256,192,131807,1,8,0:0:0:0:
256,192,132034,1,8,0:0:0:0:
256,192,132261,1,0,0:0:0:0:
256,192,132488,1,0,0:0:0:0:
256,192,132715,1,8,0:0:0:0:
256,192,132942,1,8,0:0:0:0:
256,192,133056,1,0,0:0:0:0:
256,192,133169,1,0,0:0:0:0:
256,192,133623,1,8,0:0:0:0:
256,192,133850,1,8,0:0:0:0:
256,192,133964,1,8,0:0:0:0:
256,192,134077,1,0,0:0:0:0:
256,192,134304,1,0,0:0:0:0:
256,192,134531,1,8,0:0:0:0:
256,192,134758,1,8,0:0:0:0:
256,192,134872,1,0,0:0:0:0:
256,192,134985,1,0,0:0:0:0:
256,192,135439,1,8,0:0:0:0:
256,192,135666,1,0,0:0:0:0:
256,192,135893,1,0,0:0:0:0:
256,192,136120,1,0,0:0:0:0:
256,192,136234,1,0,0:0:0:0:
256,192,136347,1,8,0:0:0:0:
256,192,136574,1,8,0:0:0:0:
256,192,136688,1,0,0:0:0:0:
256,192,136801,1,0,0:0:0:0:
256,192,137255,1,4,0:0:0:0:
256,192,137482,1,4,0:0:0:0:
256,192,137709,1,12,0:0:0:0:
256,192,137936,1,0,0:0:0:0:
256,192,138164,1,8,0:0:0:0:
256,192,138391,1,8,0:0:0:0:
256,192,138504,1,0,0:0:0:0:
256,192,138618,1,0,0:0:0:0:
256,192,139072,1,8,0:0:0:0:
256,192,139299,1,8,0:0:0:0:
256,192,139526,1,0,0:0:0:0:
256,192,139753,1,0,0:0:0:0:
256,192,139980,1,8,0:0:0:0:
256,192,140207,1,8,0:0:0:0:
256,192,140320,1,0,0:0:0:0:
256,192,140434,1,0,0:0:0:0:
256,192,140888,1,8,0:0:0:0:
256,192,141115,1,8,0:0:0:0:
256,192,141228,1,8,0:0:0:0:
256,192,141342,1,0,0:0:0:0:
256,192,141569,1,0,0:0:0:0:
256,192,141796,1,8,0:0:0:0:
256,192,142023,1,8,0:0:0:0:
256,192,142136,1,0,0:0:0:0:
256,192,142250,1,0,0:0:0:0:
256,192,142704,1,8,0:0:0:0:
256,192,142931,1,0,0:0:0:0:
256,192,143158,1,0,0:0:0:0:
256,192,143385,1,0,0:0:0:0:
256,192,143498,1,0,0:0:0:0:
256,192,143612,1,8,0:0:0:0:
256,192,143839,1,8,0:0:0:0:
256,192,143952,1,0,0:0:0:0:
256,192,144066,1,8,0:0:0:0:
256,192,144293,1,8,0:0:0:0:
256,192,144520,1,8,0:0:0:0:
256,192,144747,1,0,0:0:0:0:
256,192,144974,1,12,0:0:0:0:
256,192,145201,1,0,0:0:0:0:
256,192,145428,1,8,0:0:0:0:
256,192,145655,1,8,0:0:0:0:
256,192,146109,1,0,0:0:0:0:
256,192,146336,1,8,0:0:0:0:
256,192,146563,1,0,0:0:0:0:
256,192,146790,1,0,0:0:0:0:
256,192,147017,1,0,0:0:0:0:
256,192,147244,1,8,0:0:0:0:
256,192,147471,1,8,0:0:0:0:
256,192,147925,1,0,0:0:0:0:
256,192,148152,1,8,0:0:0:0:
256,192,148379,1,8,0:0:0:0:
256,192,148493,1,8,0:0:0:0:
256,192,148606,1,0,0:0:0:0:
256,192,148833,1,0,0:0:0:0:
256,192,149060,1,8,0:0:0:0:
256,192,149287,1,8,0:0:0:0:
256,192,149741,1,0,0:0:0:0:
256,192,149968,1,8,0:0:0:0:
256,192,150195,1,8,0:0:0:0:
256,192,150422,1,0,0:0:0:0:
256,192,150649,1,0,0:0:0:0:
256,192,150763,1,0,0:0:0:0:
256,192,150876,1,8,0:0:0:0:
256,192,151103,1,8,0:0:0:0:
256,192,151330,1,0,0:0:0:0:
256,192,151784,1,4,0:0:0:0:
256,192,152011,1,4,0:0:0:0:
256,192,152238,1,12,0:0:0:0:
256,192,152465,1,0,0:0:0:0:
256,192,152692,1,8,0:0:0:0:
256,192,152919,1,8,0:0:0:0:
256,192,153373,1,0,0:0:0:0:
256,192,153601,1,8,0:0:0:0:
256,192,153828,1,0,0:0:0:0:
256,192,154055,1,0,0:0:0:0:
256,192,154282,1,0,0:0:0:0:
256,192,154509,1,8,0:0:0:0:
256,192,154736,1,8,0:0:0:0:
256,192,155190,1,0,0:0:0:0:
256,192,155417,1,8,0:0:0:0:
256,192,155644,1,8,0:0:0:0:
256,192,155757,1,8,0:0:0:0:
256,192,155871,1,0,0:0:0:0:
256,192,156098,1,0,0:0:0:0:
256,192,156325,1,8,0:0:0:0:
256,192,156552,1,8,0:0:0:0:
256,192,157006,1,0,0:0:0:0:
256,192,157233,1,8,0:0:0:0:
256,192,157460,1,8,0:0:0:0:
256,192,157687,1,0,0:0:0:0:
256,192,157914,1,0,0:0:0:0:
256,192,158027,1,0,0:0:0:0:
256,192,158141,1,8,0:0:0:0:
256,192,158368,1,0,0:0:0:0:
256,192,158595,1,8,0:0:0:0:
256,192,158822,1,0,0:0:0:0:
256,192,159049,1,8,0:0:0:0:
256,192,159276,1,0,0:0:0:0:
256,192,159503,1,4,0:0:0:0:
256,192,159730,1,0,0:0:0:0:
256,192,159957,1,8,0:0:0:0:
256,192,160184,1,8,0:0:0:0:
256,192,160638,1,0,0:0:0:0:
256,192,160865,1,8,0:0:0:0:
256,192,161092,1,0,0:0:0:0:
256,192,161205,1,8,0:0:0:0:
256,192,161319,1,0,0:0:0:0:
256,192,161546,1,0,0:0:0:0:
256,192,161773,1,8,0:0:0:0:
256,192,162000,1,8,0:0:0:0:
256,192,162227,1,0,0:0:0:0:
256,192,162681,1,8,0:0:0:0:
256,192,162908,1,8,0:0:0:0:
256,192,163022,1,8,0:0:0:0:
256,192,163135,1,0,0:0:0:0:
256,192,163362,1,0,0:0:0:0:
256,192,163589,1,8,0:0:0:0:
256,192,163816,1,8,0:0:0:0:
256,192,164270,1,0,0:0:0:0:
256,192,164497,1,8,0:0:0:0:
256,192,164724,1,0,0:0:0:0:
256,192,164838,1,8,0:0:0:0:
256,192,164951,1,0,0:0:0:0:
256,192,165178,1,0,0:0:0:0:
256,192,165405,1,8,0:0:0:0:
256,192,165632,1,0,0:0:0:0:
256,192,165746,1,0,0:0:0:0:
256,192,165859,1,8,0:0:0:0:
256,192,166086,1,8,0:0:0:0:
256,192,166313,1,4,0:0:0:0:
256,192,166540,1,4,0:0:0:0:
256,192,166767,1,4,0:0:0:0:
256,192,166994,1,0,0:0:0:0:
256,192,167221,1,8,0:0:0:0:
256,192,167448,1,8,0:0:0:0:
256,192,167902,1,0,0:0:0:0:
256,192,168129,1,8,0:0:0:0:
256,192,168356,1,0,0:0:0:0:
256,192,168470,1,8,0:0:0:0:
256,192,168583,1,0,0:0:0:0:
256,192,168810,1,0,0:0:0:0:
256,192,169038,1,8,0:0:0:0:
256,192,169265,1,8,0:0:0:0:
256,192,169492,1,0,0:0:0:0:
256,192,169946,1,8,0:0:0:0:
256,192,170173,1,8,0:0:0:0:
256,192,170286,1,8,0:0:0:0:
256,192,170400,1,0,0:0:0:0:
256,192,170627,1,0,0:0:0:0:
256,192,170854,1,8,0:0:0:0:
256,192,171081,1,8,0:0:0:0:
256,192,171535,1,0,0:0:0:0:
256,192,171762,1,8,0:0:0:0:
256,192,171989,1,0,0:0:0:0:
256,192,172102,1,8,0:0:0:0:
256,192,172216,1,0,0:0:0:0:
256,192,172443,1,0,0:0:0:0:
256,192,172670,1,8,0:0:0:0:
256,192,172897,1,8,0:0:0:0:
256,192,173124,1,0,0:0:0:0:
256,192,173351,1,8,0:0:0:0:
256,192,173578,1,0,0:0:0:0:
256,192,173805,1,8,0:0:0:0:
256,192,174032,1,4,0:0:0:0:
256,192,174259,1,8,0:0:0:0:
256,192,174486,1,8,0:0:0:0:
256,192,174713,1,0,0:0:0:0:
256,192,174826,1,0,0:0:0:0:
256,192,174940,1,8,0:0:0:0:
256,192,175394,1,8,0:0:0:0:
256,192,175621,1,8,0:0:0:0:
256,192,175848,1,0,0:0:0:0:
256,192,176188,1,0,0:0:0:0:
256,192,176302,1,8,0:0:0:0:
256,192,176529,1,8,0:0:0:0:
256,192,176983,1,8,0:0:0:0:
256,192,177097,1,0,0:0:0:0:
256,192,177210,1,8,0:0:0:0:
256,192,177437,1,8,0:0:0:0:
256,192,177551,1,8,0:0:0:0:
256,192,177664,1,0,0:0:0:0:
256,192,177891,1,0,0:0:0:0:
256,192,178118,1,8,0:0:0:0:
256,192,178345,1,0,0:0:0:0:
256,192,178459,1,0,0:0:0:0:
256,192,178572,1,8,0:0:0:0:
256,192,179026,1,8,0:0:0:0:
256,192,179253,1,0,0:0:0:0:
256,192,179480,1,8,0:0:0:0:
256,192,179934,1,8,0:0:0:0:
256,192,180161,1,8,0:0:0:0:
256,192,180388,1,0,0:0:0:0:
256,192,180615,1,8,0:0:0:0:
256,192,180842,1,8,0:0:0:0:
256,192,181069,1,4,0:0:0:0:
256,192,181296,1,4,0:0:0:0:
256,192,181523,1,8,0:0:0:0:
256,192,181750,1,8,0:0:0:0:
256,192,181977,1,0,0:0:0:0:
256,192,182431,1,0,0:0:0:0:
256,192,182545,1,0,0:0:0:0:
256,192,182658,1,8,0:0:0:0:
256,192,182885,1,0,0:0:0:0:
256,192,182999,1,8,0:0:0:0:
256,192,183112,1,0,0:0:0:0:
256,192,183339,1,8,0:0:0:0:
256,192,183566,1,8,0:0:0:0:
256,192,183793,1,0,0:0:0:0:
256,192,184247,1,0,0:0:0:0:
256,192,184361,1,0,0:0:0:0:
256,192,184475,1,8,0:0:0:0:
256,192,184702,1,8,0:0:0:0:
256,192,184815,1,8,0:0:0:0:
256,192,184929,1,0,0:0:0:0:
256,192,185156,1,8,0:0:0:0:
256,192,185383,1,8,0:0:0:0:
256,192,185610,1,0,0:0:0:0:
256,192,186064,1,0,0:0:0:0:
256,192,186177,1,0,0:0:0:0:
256,192,186291,1,8,0:0:0:0:
256,192,186518,1,0,0:0:0:0:
256,192,186631,1,8,0:0:0:0:
256,192,186745,1,0,0:0:0:0:
256,192,186972,1,8,0:0:0:0:
256,192,187199,1,8,0:0:0:0:
256,192,187426,1,0,0:0:0:0:
256,192,187653,1,8,0:0:0:0:
256,192,187880,1,0,0:0:0:0:
256,192,188107,1,0,0:0:0:0:
256,192,188220,1,8,0:0:0:0:
256,192,188334,1,8,0:0:0:0:
256,192,188561,1,4,0:0:0:0:
256,192,188788,1,8,0:0:0:0:
256,192,189015,1,8,0:0:0:0:
256,192,189242,1,0,0:0:0:0:
256,192,189355,1,0,0:0:0:0:
256,192,189469,1,8,0:0:0:0:
256,192,189923,1,8,0:0:0:0:
256,192,190150,1,0,0:0:0:0:
256,192,190263,1,8,0:0:0:0:
256,192,190377,1,8,0:0:0:0:
256,192,190604,1,0,0:0:0:0:
256,192,190831,1,8,0:0:0:0:
256,192,190944,1,8,0:0:0:0:
256,192,191058,1,8,0:0:0:0:
256,192,191512,1,0,0:0:0:0:
256,192,191739,1,8,0:0:0:0:
256,192,191966,1,0,0:0:0:0:
256,192,192193,1,0,0:0:0:0:
256,192,192420,1,8,0:0:0:0:
256,192,192647,1,8,0:0:0:0:
256,192,192874,1,0,0:0:0:0:
256,192,193328,1,0,0:0:0:0:
256,192,193442,1,0,0:0:0:0:
256,192,193555,1,8,0:0:0:0:
256,192,193782,1,0,0:0:0:0:
256,192,193896,1,8,0:0:0:0:
256,192,194009,1,8,0:0:0:0:
256,192,194236,1,8,0:0:0:0:
256,192,194463,1,8,0:0:0:0:
256,192,194690,1,0,0:0:0:0:
256,192,195144,1,0,0:0:0:0:
256,192,195258,1,0,0:0:0:0:
256,192,195371,1,0,0:0:0:0:
256,192,195598,1,4,0:0:0:0:
256,192,195825,1,12,0:0:0:0:
256,192,196052,1,0,0:0:0:0:
256,192,196279,1,8,0:0:0:0:
256,192,196506,1,8,0:0:0:0:
256,192,196960,1,0,0:0:0:0:
256,192,197187,1,8,0:0:0:0:
256,192,197414,1,0,0:0:0:0:
256,192,197641,1,8,0:0:0:0:
256,192,197868,1,0,0:0:0:0:
256,192,198095,1,8,0:0:0:0:
256,192,198322,1,8,0:0:0:0:
256,192,198776,1,0,0:0:0:0:
256,192,199003,1,8,0:0:0:0:
256,192,199230,1,0,0:0:0:0:
256,192,199344,1,8,0:0:0:0:
256,192,199457,1,0,0:0:0:0:
256,192,199685,1,8,0:0:0:0:
256,192,199912,1,8,0:0:0:0:
256,192,200139,1,0,0:0:0:0:
256,192,200593,1,0,0:0:0:0:
256,192,200820,1,8,0:0:0:0:
256,192,201047,1,0,0:0:0:0:
256,192,201274,1,8,0:0:0:0:
256,192,201501,1,0,0:0:0:0:
256,192,201728,1,8,0:0:0:0:
256,192,201955,1,8,0:0:0:0:
256,192,202182,1,8,0:0:0:0:
256,192,202409,1,0,0:0:0:0:
256,192,202636,1,0,0:0:0:0:
256,192,202749,1,8,0:0:0:0:
256,192,202863,1,8,0:0:0:0:
256,192,203090,1,4,0:0:0:0:
256,192,203317,2,0,L|217:153,16,48.9999985046387
256,192,205360,12,0,208084,0:0:0:0:
