osu file format v14

[General]
AudioFilename: audio.mp3
AudioLeadIn: 0
PreviewTime: 16527
Countdown: 0
SampleSet: Normal
StackLeniency: 0.7
Mode: 1
LetterboxInBreaks: 0
WidescreenStoryboard: 0

[Editor]
DistanceSpacing: 1.4
BeatDivisor: 4
GridSize: 32
TimelineZoom: 2.999999

[Metadata]
Title:Igerrr
TitleUnicode:Igerrr
Artist:The Cloudfags Union
ArtistUnicode:The Cloudfags Union
Creator:Jaltzu
Version:Innerrr Oni
Source:
Tags:electronic instrumental russian breakcore mashcore mashup hard rock black death heavy metal experimental ambient after burial π pi mercury god of infinity forging a future self corrosive recordings anaal nathrakh insipid flock codex necro mordgrimm igorrr phasme obèse obese acroplane moisissure Öxxö Xööx oxxo xoox mastication numérique numerique poisson soluble cicadidae hallelujah ad noiseam caros nostril infinite loop lullaby for fat jellyfish melting nails huile molle absolute psalm fekalia maid potata!
BeatmapID:2440067
BeatmapSetID:1169670

[Difficulty]
HPDrainRate:6.5
CircleSize:2
OverallDifficulty:7
ApproachRate:0
SliderMultiplier:1.4
SliderTickRate:1

[Events]
//Background and Video events
0,0,"25270.jpg",0,40
//Break Periods
//Storyboard Layer 0 (Background)
//Storyboard Layer 1 (Fail)
//Storyboard Layer 2 (Pass)
//Storyboard Layer 3 (Foreground)
//Storyboard Layer 4 (Overlay)
//Storyboard Sound Samples

[TimingPoints]
-1863,229.885057471264,4,1,0,40,1,0
15817,-100,4,1,0,60,0,0
16010,-100,4,1,0,50,0,0
16240,-100,4,1,0,40,0,0
16680,-100,4,1,0,50,0,0
16737,-100,4,1,0,60,0,0
17772,-100,4,1,0,40,0,0
17886,-100,4,1,0,60,0,0
22159,-101.26582278481,4,1,0,57,0,0
22389,-102.564102564103,4,1,0,55,0,0
22619,-103.896103896104,4,1,0,52,0,0
22849,-105.263157894737,4,1,0,50,0,0
23079,-106.666666666667,4,1,0,47,0,0
23309,-108.108108108108,4,1,0,45,0,0
23539,-109.58904109589,4,1,0,42,0,0
23769,-111.111111111111,4,1,0,40,0,0
24056,-108.108108108108,4,1,0,45,0,0
24286,-105.263157894737,4,1,0,50,0,0
24553,-102.564102564103,4,1,0,56,0,0
24611,-101.910828025478,4,1,0,57,0,0
24668,-101.26582278481,4,1,0,58,0,0
24726,-100.62893081761,4,1,0,59,0,0
24783,-100,4,1,0,60,0,0
31182,-100,4,1,0,80,0,0
31240,-95.2380952380952,4,1,0,80,0,1
45895,-100,4,1,0,40,0,1
45953,-100,4,1,0,40,0,0
50981,-100,4,1,0,50,0,0
51441,-100,4,1,0,60,0,0
53251,-100,4,1,0,40,0,0
56929,-100,4,1,0,50,0,0
60608,-100,4,1,0,40,0,0
63596,-100,4,1,0,30,0,0
63855,-100,4,1,0,36,0,0
63970,-100,4,1,0,40,0,0
64085,-100,4,1,0,43,0,0
64314,-100,4,1,0,50,0,0
64573,-100,4,1,0,40,0,0
67418,-100,4,1,0,42,0,0
67677,-100,4,1,0,46,0,0
67753,-100,4,1,0,47,0,0
67983,-100,4,1,0,40,0,0

[HitObjects]
256,192,1815,5,0,0:0:0:0:
256,192,2045,1,0,0:0:0:0:
256,192,2274,1,8,0:0:0:0:
256,192,2504,1,0,0:0:0:0:
256,192,2562,1,0,0:0:0:0:
256,192,2619,1,0,0:0:0:0:
256,192,2734,1,0,0:0:0:0:
256,192,2849,1,8,0:0:0:0:
256,192,2964,1,0,0:0:0:0:
256,192,3079,1,0,0:0:0:0:
256,192,3194,1,8,0:0:0:0:
256,192,3309,1,8,0:0:0:0:
256,192,3424,1,8,0:0:0:0:
256,192,3539,1,8,0:0:0:0:
256,192,3654,1,0,0:0:0:0:
256,192,3884,1,0,0:0:0:0:
256,192,4114,1,8,0:0:0:0:
256,192,4343,1,0,0:0:0:0:
256,192,4401,1,0,0:0:0:0:
256,192,4458,1,0,0:0:0:0:
256,192,4573,1,0,0:0:0:0:
256,192,4688,1,8,0:0:0:0:
256,192,4803,1,0,0:0:0:0:
256,192,5033,1,8,0:0:0:0:
256,192,5263,1,0,0:0:0:0:
256,192,5378,1,8,0:0:0:0:
256,192,5435,1,8,0:0:0:0:
256,192,5493,1,0,0:0:0:0:
256,192,5723,1,0,0:0:0:0:
256,192,5953,1,8,0:0:0:0:
256,192,6182,1,0,0:0:0:0:
256,192,6240,1,0,0:0:0:0:
256,192,6297,1,0,0:0:0:0:
256,192,6412,1,8,0:0:0:0:
256,192,6527,1,0,0:0:0:0:
256,192,6642,1,8,0:0:0:0:
256,192,6700,1,8,0:0:0:0:
256,192,6757,1,8,0:0:0:0:
256,192,6872,1,8,0:0:0:0:
256,192,6987,1,8,0:0:0:0:
256,192,7102,1,8,0:0:0:0:
256,192,7159,1,8,0:0:0:0:
256,192,7217,1,8,0:0:0:0:
256,192,7332,1,0,0:0:0:0:
256,192,7562,1,0,0:0:0:0:
256,192,7792,1,8,0:0:0:0:
256,192,8022,1,0,0:0:0:0:
256,192,8079,1,0,0:0:0:0:
256,192,8136,1,0,0:0:0:0:
256,192,8251,1,0,0:0:0:0:
256,192,8366,1,8,0:0:0:0:
256,192,8481,1,8,0:0:0:0:
256,192,8596,1,0,0:0:0:0:
256,192,8711,1,8,0:0:0:0:
256,192,8826,1,8,0:0:0:0:
256,192,8941,1,8,0:0:0:0:
256,192,9056,1,8,0:0:0:0:
256,192,9171,1,0,0:0:0:0:
256,192,9631,1,8,0:0:0:0:
256,192,9746,1,8,0:0:0:0:
256,192,9861,1,8,0:0:0:0:
256,192,9976,1,8,0:0:0:0:
256,192,10091,1,0,0:0:0:0:
256,192,10205,1,8,0:0:0:0:
256,192,10320,1,0,0:0:0:0:
256,192,10435,1,8,0:0:0:0:
256,192,10550,1,8,0:0:0:0:
256,192,10665,1,0,0:0:0:0:
256,192,10723,1,8,0:0:0:0:
256,192,10780,1,0,0:0:0:0:
256,192,10895,1,8,0:0:0:0:
256,192,11010,1,0,0:0:0:0:
256,192,11240,1,0,0:0:0:0:
256,192,11470,1,8,0:0:0:0:
256,192,11700,1,8,0:0:0:0:
256,192,11930,1,8,0:0:0:0:
256,192,12159,1,0,0:0:0:0:
256,192,12389,1,0,0:0:0:0:
256,192,12504,1,8,0:0:0:0:
256,192,12619,1,8,0:0:0:0:
256,192,12734,1,0,0:0:0:0:
256,192,12792,1,0,0:0:0:0:
256,192,12849,1,0,0:0:0:0:
256,192,13079,1,0,0:0:0:0:
256,192,13136,1,0,0:0:0:0:
256,192,13194,1,0,0:0:0:0:
256,192,13309,1,8,0:0:0:0:
256,192,13424,1,0,0:0:0:0:
256,192,13539,1,8,0:0:0:0:
256,192,13654,1,0,0:0:0:0:
256,192,13769,1,8,0:0:0:0:
256,192,13884,1,0,0:0:0:0:
256,192,13999,1,8,0:0:0:0:
256,192,14114,1,8,0:0:0:0:
256,192,14228,1,8,0:0:0:0:
256,192,14343,1,8,0:0:0:0:
256,192,14458,1,8,0:0:0:0:
256,192,14516,1,8,0:0:0:0:
256,192,14573,1,8,0:0:0:0:
256,192,14688,1,0,0:0:0:0:
256,192,14918,1,0,0:0:0:0:
256,192,15148,1,8,0:0:0:0:
256,192,15378,1,0,0:0:0:0:
256,192,15493,1,0,0:0:0:0:
256,192,15608,1,0,0:0:0:0:
256,192,15723,1,8,0:0:0:0:
256,192,15780,1,8,0:0:0:0:
256,192,15838,1,8,0:0:0:0:
256,192,16068,1,8,0:0:0:0:
256,192,16297,1,8,0:0:0:0:
256,192,16527,5,0,0:0:0:0:
256,192,16700,1,8,0:0:0:0:
256,192,16757,1,0,0:0:0:0:
256,192,16987,1,0,0:0:0:0:
256,192,17217,1,0,0:0:0:0:
256,192,17447,1,8,0:0:0:0:
256,192,17792,1,8,0:0:0:0:
256,192,17907,1,8,0:0:0:0:
256,192,18136,1,8,0:0:0:0:
256,192,18366,1,0,0:0:0:0:
256,192,18481,1,8,0:0:0:0:
256,192,18596,1,0,0:0:0:0:
256,192,18826,1,8,0:0:0:0:
256,192,19056,1,0,0:0:0:0:
256,192,19286,1,0,0:0:0:0:
256,192,19401,1,0,0:0:0:0:
256,192,19516,1,0,0:0:0:0:
256,192,19746,1,8,0:0:0:0:
256,192,19861,1,8,0:0:0:0:
256,192,19976,1,8,0:0:0:0:
256,192,20205,1,0,0:0:0:0:
256,192,20435,1,0,0:0:0:0:
256,192,20493,1,0,0:0:0:0:
256,192,20550,1,8,0:0:0:0:
256,192,20665,1,0,0:0:0:0:
256,192,20780,1,0,0:0:0:0:
256,192,20895,1,8,0:0:0:0:
256,192,21010,1,8,0:0:0:0:
256,192,21125,1,0,0:0:0:0:
256,192,21240,1,8,0:0:0:0:
256,192,21355,1,0,0:0:0:0:
256,192,21470,1,8,0:0:0:0:
256,192,21585,1,8,0:0:0:0:
256,192,21700,1,0,0:0:0:0:
256,192,21757,1,0,0:0:0:0:
256,192,21815,1,8,0:0:0:0:
256,192,21930,1,8,0:0:0:0:
256,192,22045,1,0,0:0:0:0:
256,192,22274,1,0,0:0:0:0:
256,192,22504,1,0,0:0:0:0:
256,192,22734,1,0,0:0:0:0:
256,192,22964,1,0,0:0:0:0:
256,192,23194,1,0,0:0:0:0:
256,192,23424,1,0,0:0:0:0:
256,192,23654,1,0,0:0:0:0:
256,192,23884,1,0,0:0:0:0:
256,192,24114,1,0,0:0:0:0:
256,192,24343,1,0,0:0:0:0:
256,192,24573,1,0,0:0:0:0:
256,192,24631,1,0,0:0:0:0:
256,192,24688,1,0,0:0:0:0:
256,192,24746,1,0,0:0:0:0:
256,192,24803,1,0,0:0:0:0:
256,192,24918,1,8,0:0:0:0:
256,192,25033,1,0,0:0:0:0:
256,192,25148,1,8,0:0:0:0:
256,192,25263,1,0,0:0:0:0:
256,192,25378,1,8,0:0:0:0:
256,192,25493,1,0,0:0:0:0:
256,192,25550,1,0,0:0:0:0:
256,192,25608,1,0,0:0:0:0:
256,192,25723,1,8,0:0:0:0:
256,192,25953,1,0,0:0:0:0:
256,192,26182,1,8,0:0:0:0:
256,192,26527,1,0,0:0:0:0:
256,192,26585,1,0,0:0:0:0:
256,192,26642,1,8,0:0:0:0:
256,192,26757,1,8,0:0:0:0:
256,192,26872,1,8,0:0:0:0:
256,192,26987,1,0,0:0:0:0:
256,192,27102,1,8,0:0:0:0:
256,192,27217,1,8,0:0:0:0:
256,192,27332,1,8,0:0:0:0:
256,192,27447,1,8,0:0:0:0:
256,192,27504,1,8,0:0:0:0:
256,192,27562,1,0,0:0:0:0:
256,192,27792,1,8,0:0:0:0:
256,192,27849,1,8,0:0:0:0:
256,192,27907,1,0,0:0:0:0:
256,192,27964,1,0,0:0:0:0:
256,192,28022,1,8,0:0:0:0:
256,192,28136,1,8,0:0:0:0:
256,192,28194,1,8,0:0:0:0:
256,192,28251,1,8,0:0:0:0:
256,192,28309,1,0,0:0:0:0:
256,192,28366,1,8,0:0:0:0:
256,192,28481,1,0,0:0:0:0:
256,192,28711,1,8,0:0:0:0:
256,192,28826,1,8,0:0:0:0:
256,192,28941,1,8,0:0:0:0:
256,192,29171,1,8,0:0:0:0:
256,192,29228,1,0,0:0:0:0:
256,192,29286,1,0,0:0:0:0:
256,192,29401,1,0,0:0:0:0:
256,192,29631,1,0,0:0:0:0:
256,192,29861,1,8,0:0:0:0:
256,192,30091,1,0,0:0:0:0:
256,192,30320,1,12,0:0:0:0:
256,192,31240,5,0,0:0:0:0:
256,192,31355,1,8,0:0:0:0:
256,192,31470,1,0,0:0:0:0:
256,192,31585,1,0,0:0:0:0:
256,192,31700,1,0,0:0:0:0:
256,192,31815,1,8,0:0:0:0:
256,192,31930,1,8,0:0:0:0:
256,192,31987,1,8,0:0:0:0:
256,192,32045,1,8,0:0:0:0:
256,192,32102,1,8,0:0:0:0:
256,192,32159,1,0,0:0:0:0:
256,192,32274,1,8,0:0:0:0:
256,192,32389,1,0,0:0:0:0:
256,192,32504,1,0,0:0:0:0:
256,192,32562,1,0,0:0:0:0:
256,192,32619,1,8,0:0:0:0:
256,192,32734,1,8,0:0:0:0:
256,192,32849,1,8,0:0:0:0:
256,192,32964,1,0,0:0:0:0:
256,192,33079,1,0,0:0:0:0:
256,192,33136,1,0,0:0:0:0:
256,192,33194,1,0,0:0:0:0:
256,192,33251,1,0,0:0:0:0:
256,192,33309,1,8,0:0:0:0:
256,192,33424,1,8,0:0:0:0:
256,192,33539,1,0,0:0:0:0:
256,192,33596,1,0,0:0:0:0:
256,192,33654,1,8,0:0:0:0:
256,192,33711,1,8,0:0:0:0:
256,192,33769,1,0,0:0:0:0:
256,192,33884,1,8,0:0:0:0:
256,192,33999,1,0,0:0:0:0:
256,192,34075,1,8,0:0:0:0:
256,192,34152,1,8,0:0:0:0:
256,192,34228,1,0,0:0:0:0:
256,192,34343,1,0,0:0:0:0:
256,192,34458,1,0,0:0:0:0:
256,192,34573,1,8,0:0:0:0:
256,192,34688,1,8,0:0:0:0:
256,192,34746,1,8,0:0:0:0:
256,192,34803,1,8,0:0:0:0:
256,192,34918,1,0,0:0:0:0:
256,192,34995,1,0,0:0:0:0:
256,192,35071,1,8,0:0:0:0:
256,192,35148,1,8,0:0:0:0:
256,192,35225,1,0,0:0:0:0:
256,192,35301,1,0,0:0:0:0:
256,192,35378,1,8,0:0:0:0:
256,192,35493,1,0,0:0:0:0:
256,192,35608,1,8,0:0:0:0:
256,192,35665,1,8,0:0:0:0:
256,192,35723,1,8,0:0:0:0:
256,192,35780,1,8,0:0:0:0:
256,192,35838,1,0,0:0:0:0:
256,192,35953,1,8,0:0:0:0:
256,192,36010,1,0,0:0:0:0:
256,192,36068,1,8,0:0:0:0:
256,192,36182,1,0,0:0:0:0:
256,192,36297,1,8,0:0:0:0:
256,192,36412,1,8,0:0:0:0:
256,192,36527,1,0,0:0:0:0:
256,192,36585,1,0,0:0:0:0:
256,192,36642,1,8,0:0:0:0:
256,192,36757,1,0,0:0:0:0:
256,192,36872,1,0,0:0:0:0:
256,192,36987,1,0,0:0:0:0:
256,192,37102,1,8,0:0:0:0:
256,192,37159,1,8,0:0:0:0:
256,192,37217,1,8,0:0:0:0:
256,192,37447,1,8,0:0:0:0:
256,192,37562,1,8,0:0:0:0:
256,192,37619,1,8,0:0:0:0:
256,192,37677,1,0,0:0:0:0:
256,192,37792,1,8,0:0:0:0:
256,192,37907,1,8,0:0:0:0:
256,192,38022,1,0,0:0:0:0:
256,192,38136,1,0,0:0:0:0:
256,192,38251,1,8,0:0:0:0:
256,192,38309,1,0,0:0:0:0:
256,192,38366,1,8,0:0:0:0:
256,192,38481,1,8,0:0:0:0:
256,192,38539,1,8,0:0:0:0:
256,192,38596,1,0,0:0:0:0:
256,192,38654,1,0,0:0:0:0:
256,192,38711,1,0,0:0:0:0:
256,192,38769,1,0,0:0:0:0:
256,192,38826,1,8,0:0:0:0:
256,192,39056,1,8,0:0:0:0:
256,192,39171,1,0,0:0:0:0:
256,192,39286,1,8,0:0:0:0:
256,192,39401,1,8,0:0:0:0:
256,192,39516,1,0,0:0:0:0:
256,192,39631,1,8,0:0:0:0:
256,192,39746,1,0,0:0:0:0:
256,192,39861,1,8,0:0:0:0:
256,192,39976,1,0,0:0:0:0:
256,192,40091,1,8,0:0:0:0:
256,192,40148,1,8,0:0:0:0:
256,192,40205,1,0,0:0:0:0:
256,192,40320,1,8,0:0:0:0:
256,192,40435,1,0,0:0:0:0:
256,192,40550,1,0,0:0:0:0:
256,192,40665,1,0,0:0:0:0:
256,192,40723,1,0,0:0:0:0:
256,192,40780,1,8,0:0:0:0:
256,192,40895,1,8,0:0:0:0:
256,192,41010,1,0,0:0:0:0:
256,192,41068,1,0,0:0:0:0:
256,192,41125,1,8,0:0:0:0:
256,192,41240,1,0,0:0:0:0:
256,192,41355,1,8,0:0:0:0:
256,192,41585,1,0,0:0:0:0:
256,192,41661,1,0,0:0:0:0:
256,192,41738,1,0,0:0:0:0:
256,192,41815,1,0,0:0:0:0:
256,192,41930,1,8,0:0:0:0:
256,192,42045,1,8,0:0:0:0:
256,192,42159,1,8,0:0:0:0:
256,192,42274,1,0,0:0:0:0:
256,192,42332,1,0,0:0:0:0:
256,192,42389,1,0,0:0:0:0:
256,192,42447,1,0,0:0:0:0:
256,192,42504,1,8,0:0:0:0:
256,192,42619,1,8,0:0:0:0:
256,192,42734,1,8,0:0:0:0:
256,192,42849,1,0,0:0:0:0:
256,192,42964,1,8,0:0:0:0:
256,192,43022,1,8,0:0:0:0:
256,192,43079,1,0,0:0:0:0:
256,192,43194,1,8,0:0:0:0:
256,192,43309,1,0,0:0:0:0:
256,192,43424,1,8,0:0:0:0:
256,192,43539,1,8,0:0:0:0:
256,192,43654,1,0,0:0:0:0:
256,192,43769,1,8,0:0:0:0:
256,192,43884,1,8,0:0:0:0:
256,192,43941,1,8,0:0:0:0:
256,192,43999,1,8,0:0:0:0:
256,192,44056,1,8,0:0:0:0:
256,192,44114,1,0,0:0:0:0:
256,192,44190,1,0,0:0:0:0:
256,192,44267,1,0,0:0:0:0:
256,192,44343,1,8,0:0:0:0:
256,192,44458,1,8,0:0:0:0:
256,192,44573,1,8,0:0:0:0:
256,192,44650,1,0,0:0:0:0:
256,192,44727,1,0,0:0:0:0:
256,192,44803,1,8,0:0:0:0:
256,192,44918,1,8,0:0:0:0:
256,192,45033,1,0,0:0:0:0:
256,192,45148,1,0,0:0:0:0:
256,192,45205,1,0,0:0:0:0:
256,192,45263,1,8,0:0:0:0:
256,192,45493,1,8,0:0:0:0:
256,192,45723,1,8,0:0:0:0:
256,192,45953,5,4,0:0:0:0:
256,192,46412,1,8,0:0:0:0:
256,192,46872,1,8,0:0:0:0:
256,192,47102,1,0,0:0:0:0:
256,192,47562,1,8,0:0:0:0:
256,192,47792,1,0,0:0:0:0:
256,192,48251,1,8,0:0:0:0:
256,192,48711,1,8,0:0:0:0:
256,192,48941,1,0,0:0:0:0:
256,192,49401,1,0,0:0:0:0:
256,192,49631,1,12,0:0:0:0:
256,192,49976,1,0,0:0:0:0:
256,192,50320,1,8,0:0:0:0:
256,192,50550,1,8,0:0:0:0:
256,192,51010,1,0,0:0:0:0:
256,192,51125,1,0,0:0:0:0:
256,192,51240,1,0,0:0:0:0:
256,192,51355,1,0,0:0:0:0:
256,192,51470,1,12,0:0:0:0:
256,192,51776,1,0,0:0:0:0:
256,192,52083,1,0,0:0:0:0:
256,192,52389,1,8,0:0:0:0:
256,192,52696,1,0,0:0:0:0:
256,192,53002,1,0,0:0:0:0:
256,192,53309,1,4,0:0:0:0:
256,192,53769,1,8,0:0:0:0:
256,192,54228,1,8,0:0:0:0:
256,192,54458,1,0,0:0:0:0:
256,192,54918,1,8,0:0:0:0:
256,192,55148,1,0,0:0:0:0:
256,192,55608,1,8,0:0:0:0:
256,192,56068,1,8,0:0:0:0:
256,192,56297,1,0,0:0:0:0:
256,192,56757,1,0,0:0:0:0:
256,192,56987,1,12,0:0:0:0:
256,192,57294,1,8,0:0:0:0:
256,192,57447,1,0,0:0:0:0:
256,192,57753,1,8,0:0:0:0:
256,192,57907,1,0,0:0:0:0:
256,192,58213,1,8,0:0:0:0:
256,192,58366,1,0,0:0:0:0:
256,192,58673,1,8,0:0:0:0:
256,192,58826,1,12,0:0:0:0:
256,192,59133,1,8,0:0:0:0:
256,192,59286,1,0,0:0:0:0:
256,192,59592,1,8,0:0:0:0:
256,192,59746,1,0,0:0:0:0:
256,192,60052,1,8,0:0:0:0:
256,192,60205,1,8,0:0:0:0:
256,192,60359,1,0,0:0:0:0:
256,192,60512,1,8,0:0:0:0:
256,192,60665,1,4,0:0:0:0:
256,192,61125,1,8,0:0:0:0:
256,192,61585,1,8,0:0:0:0:
256,192,61815,1,0,0:0:0:0:
256,192,62274,1,8,0:0:0:0:
256,192,62504,1,0,0:0:0:0:
256,192,62964,1,8,0:0:0:0:
256,192,63424,1,8,0:0:0:0:
256,192,63654,1,0,0:0:0:0:
256,192,63884,1,8,0:0:0:0:
256,192,63999,1,8,0:0:0:0:
256,192,64114,1,0,0:0:0:0:
256,192,64343,1,12,0:0:0:0:
256,192,64803,1,0,0:0:0:0:
256,192,65033,1,0,0:0:0:0:
256,192,65148,1,8,0:0:0:0:
256,192,65263,1,0,0:0:0:0:
256,192,65493,1,8,0:0:0:0:
256,192,65723,1,0,0:0:0:0:
256,192,66182,1,12,0:0:0:0:
256,192,66527,1,8,0:0:0:0:
256,192,66757,1,0,0:0:0:0:
256,192,66872,1,8,0:0:0:0:
256,192,67102,1,8,0:0:0:0:
256,192,67447,1,8,0:0:0:0:
256,192,67677,1,0,0:0:0:0:
256,192,67792,1,8,0:0:0:0:
256,192,68022,1,4,0:0:0:0:
256,192,68481,1,8,0:0:0:0:
256,192,68941,1,8,0:0:0:0:
256,192,69171,1,0,0:0:0:0:
256,192,69631,1,8,0:0:0:0:
256,192,69861,1,0,0:0:0:0:
256,192,70320,1,8,0:0:0:0:
256,192,70780,1,8,0:0:0:0:
256,192,71010,1,0,0:0:0:0:
256,192,71470,1,8,0:0:0:0:
256,192,71700,1,12,0:0:0:0:
256,192,71815,12,0,72504,0:0:0:0:
256,192,72619,5,8,0:0:0:0:
256,192,73079,1,8,0:0:0:0:
256,192,73309,1,0,0:0:0:0:
256,192,73424,1,8,0:0:0:0:
256,192,73539,1,4,0:0:0:0:
