osu file format v14

[General]
AudioFilename: audio.mp3
AudioLeadIn: 0
PreviewTime: 16527
Countdown: 0
SampleSet: Normal
StackLeniency: 0.7
Mode: 1
LetterboxInBreaks: 0
WidescreenStoryboard: 0

[Editor]
DistanceSpacing: 1.5
BeatDivisor: 4
GridSize: 32
TimelineZoom: 2.999999

[Metadata]
Title:Igerrr
TitleUnicode:Igerrr
Artist:The Cloudfags Union
ArtistUnicode:The Cloudfags Union
Creator:Jaltzu
Version:Futsuu
Source:
Tags:electronic instrumental russian breakcore mashcore mashup hard rock black death heavy metal experimental ambient after burial π pi mercury god of infinity forging a future self corrosive recordings anaal nathrakh insipid flock codex necro mordgrimm igorrr phasme obèse obese acroplane moisissure Öxxö Xööx oxxo xoox mastication numérique numerique poisson soluble cicadidae hallelujah ad noiseam caros nostril infinite loop lullaby for fat jellyfish melting nails huile molle absolute psalm fekalia maid potata!
BeatmapID:2440066
BeatmapSetID:1169670

[Difficulty]
HPDrainRate:8
CircleSize:2
OverallDifficulty:4
ApproachRate:0
SliderMultiplier:1.4
SliderTickRate:1

[Events]
//Background and Video events
0,0,"25270.jpg",0,40
//Break Periods
//Storyboard Layer 0 (Background)
//Storyboard Layer 1 (Fail)
//Storyboard Layer 2 (Pass)
//Storyboard Layer 3 (Foreground)
//Storyboard Layer 4 (Overlay)
//Storyboard Sound Samples

[TimingPoints]
-1863,229.885057471264,4,1,0,40,1,0
895,-111.111111111111,4,1,0,40,0,0
15817,-111.111111111111,4,1,0,60,0,0
16240,-111.111111111111,4,1,0,40,0,0
16737,-111.111111111111,4,1,0,60,0,0
22159,-111.111111111111,4,1,0,57,0,0
22389,-111.111111111111,4,1,0,55,0,0
22677,-111.111111111111,4,1,0,52,0,0
22849,-111.111111111111,4,1,0,50,0,0
23079,-111.111111111111,4,1,0,47,0,0
23309,-111.111111111111,4,1,0,45,0,0
23769,-111.111111111111,4,1,0,40,0,0
24553,-111.111111111111,4,1,0,56,0,0
24783,-111.111111111111,4,1,0,60,0,0
31182,-111.111111111111,4,1,0,80,0,0
31240,-111.111111111111,4,1,0,80,0,1
45895,-111.111111111111,4,1,0,40,0,1
45953,-111.111111111111,4,1,0,40,0,0
50981,-111.111111111111,4,1,0,50,0,0
51441,-111.111111111111,4,1,0,60,0,0
53251,-111.111111111111,4,1,0,40,0,0
56929,-111.111111111111,4,1,0,50,0,0
60608,-111.111111111111,4,1,0,40,0,0
63855,-111.111111111111,4,1,0,36,0,0
64314,-111.111111111111,4,1,0,50,0,0
64573,-111.111111111111,4,1,0,40,0,0
67418,-111.111111111111,4,1,0,42,0,0
67753,-111.111111111111,4,1,0,47,0,0
67983,-111.111111111111,4,1,0,40,0,0

[HitObjects]
256,192,1815,5,0,0:0:0:0:
256,192,2274,1,8,0:0:0:0:
256,192,2504,1,0,0:0:0:0:
256,192,2734,1,8,0:0:0:0:
256,192,2964,1,0,0:0:0:0:
256,192,3194,1,8,0:0:0:0:
256,192,3309,1,8,0:0:0:0:
256,192,3424,1,8,0:0:0:0:
256,192,3654,1,0,0:0:0:0:
256,192,4114,1,8,0:0:0:0:
256,192,4343,1,0,0:0:0:0:
256,192,4573,1,0,0:0:0:0:
256,192,4803,1,0,0:0:0:0:
256,192,5033,1,8,0:0:0:0:
256,192,5263,1,8,0:0:0:0:
256,192,5378,1,8,0:0:0:0:
256,192,5493,1,0,0:0:0:0:
256,192,5953,1,8,0:0:0:0:
256,192,6182,1,0,0:0:0:0:
256,192,6412,1,8,0:0:0:0:
256,192,6642,1,8,0:0:0:0:
256,192,6872,1,8,0:0:0:0:
256,192,6987,1,8,0:0:0:0:
256,192,7102,1,8,0:0:0:0:
256,192,7332,1,0,0:0:0:0:
256,192,7792,1,8,0:0:0:0:
256,192,8022,1,0,0:0:0:0:
256,192,8251,1,0,0:0:0:0:
256,192,8366,1,8,0:0:0:0:
256,192,8481,1,8,0:0:0:0:
256,192,8711,1,8,0:0:0:0:
256,192,8941,1,8,0:0:0:0:
256,192,9171,1,0,0:0:0:0:
256,192,9631,1,8,0:0:0:0:
256,192,9746,1,8,0:0:0:0:
256,192,9861,1,8,0:0:0:0:
256,192,10091,1,0,0:0:0:0:
256,192,10320,1,0,0:0:0:0:
256,192,10550,1,8,0:0:0:0:
256,192,10780,1,8,0:0:0:0:
256,192,10895,1,8,0:0:0:0:
256,192,11010,1,0,0:0:0:0:
256,192,11470,1,8,0:0:0:0:
256,192,11700,1,8,0:0:0:0:
256,192,11930,1,8,0:0:0:0:
256,192,12389,1,0,0:0:0:0:
256,192,12504,1,0,0:0:0:0:
256,192,12619,1,8,0:0:0:0:
256,192,12849,1,0,0:0:0:0:
256,192,13309,1,8,0:0:0:0:
256,192,13424,1,0,0:0:0:0:
256,192,13654,1,0,0:0:0:0:
256,192,13769,1,8,0:0:0:0:
256,192,13999,1,8,0:0:0:0:
256,192,14114,1,8,0:0:0:0:
256,192,14228,1,8,0:0:0:0:
256,192,14458,1,8,0:0:0:0:
256,192,14688,1,0,0:0:0:0:
256,192,15148,1,8,0:0:0:0:
256,192,15378,1,0,0:0:0:0:
256,192,15608,1,0,0:0:0:0:
256,192,15723,1,8,0:0:0:0:
256,192,15838,1,8,0:0:0:0:
256,192,16068,1,8,0:0:0:0:
256,192,16297,1,8,0:0:0:0:
256,192,16757,5,0,0:0:0:0:
256,192,16987,1,0,0:0:0:0:
256,192,17217,1,0,0:0:0:0:
256,192,17447,1,8,0:0:0:0:
256,192,17907,1,8,0:0:0:0:
256,192,18136,1,8,0:0:0:0:
256,192,18366,1,0,0:0:0:0:
256,192,18596,1,0,0:0:0:0:
256,192,18826,1,8,0:0:0:0:
256,192,19286,1,0,0:0:0:0:
256,192,19401,1,0,0:0:0:0:
256,192,19516,1,0,0:0:0:0:
256,192,19746,1,8,0:0:0:0:
256,192,19861,1,8,0:0:0:0:
256,192,19976,1,8,0:0:0:0:
256,192,20205,1,0,0:0:0:0:
256,192,20665,1,0,0:0:0:0:
256,192,20895,1,8,0:0:0:0:
256,192,21125,1,0,0:0:0:0:
256,192,21240,1,8,0:0:0:0:
256,192,21355,1,0,0:0:0:0:
256,192,21585,1,8,0:0:0:0:
256,192,21815,1,8,0:0:0:0:
256,192,21930,1,8,0:0:0:0:
256,192,22045,1,0,0:0:0:0:
256,192,22274,1,0,0:0:0:0:
256,192,22504,1,0,0:0:0:0:
256,192,22734,1,0,0:0:0:0:
256,192,22964,1,0,0:0:0:0:
256,192,23194,1,0,0:0:0:0:
256,192,23424,1,0,0:0:0:0:
256,192,23884,1,0,0:0:0:0:
256,192,24573,1,0,0:0:0:0:
256,192,24803,1,0,0:0:0:0:
256,192,24918,1,8,0:0:0:0:
256,192,25033,1,0,0:0:0:0:
256,192,25148,1,8,0:0:0:0:
256,192,25378,1,8,0:0:0:0:
256,192,25493,1,0,0:0:0:0:
256,192,25723,1,8,0:0:0:0:
256,192,25953,1,0,0:0:0:0:
256,192,26182,1,8,0:0:0:0:
256,192,26642,1,8,0:0:0:0:
256,192,26872,1,8,0:0:0:0:
256,192,26987,1,8,0:0:0:0:
256,192,27102,1,8,0:0:0:0:
256,192,27332,1,8,0:0:0:0:
256,192,27562,1,0,0:0:0:0:
256,192,28022,1,0,0:0:0:0:
256,192,28251,1,8,0:0:0:0:
256,192,28366,1,8,0:0:0:0:
256,192,28481,1,0,0:0:0:0:
256,192,28711,1,8,0:0:0:0:
256,192,28941,1,8,0:0:0:0:
256,192,29171,1,0,0:0:0:0:
256,192,29286,1,0,0:0:0:0:
256,192,29401,1,0,0:0:0:0:
256,192,29631,1,0,0:0:0:0:
256,192,29861,1,8,0:0:0:0:
256,192,30091,1,0,0:0:0:0:
256,192,30320,1,12,0:0:0:0:
256,192,31240,5,0,0:0:0:0:
256,192,31470,1,0,0:0:0:0:
256,192,31585,1,0,0:0:0:0:
256,192,31700,1,8,0:0:0:0:
256,192,31930,1,8,0:0:0:0:
256,192,32045,1,8,0:0:0:0:
256,192,32159,1,0,0:0:0:0:
256,192,32389,1,0,0:0:0:0:
256,192,32619,1,8,0:0:0:0:
256,192,32734,1,8,0:0:0:0:
256,192,32849,1,8,0:0:0:0:
256,192,33079,1,0,0:0:0:0:
256,192,33194,1,0,0:0:0:0:
256,192,33309,1,8,0:0:0:0:
256,192,33424,1,8,0:0:0:0:
256,192,33539,1,0,0:0:0:0:
256,192,33769,1,8,0:0:0:0:
256,192,33999,1,0,0:0:0:0:
256,192,34458,1,8,0:0:0:0:
256,192,34688,1,8,0:0:0:0:
256,192,34803,1,8,0:0:0:0:
256,192,34918,1,0,0:0:0:0:
256,192,35148,1,0,0:0:0:0:
256,192,35378,1,0,0:0:0:0:
256,192,35493,1,0,0:0:0:0:
256,192,35608,1,8,0:0:0:0:
256,192,35838,1,8,0:0:0:0:
256,192,35953,1,8,0:0:0:0:
256,192,36068,1,8,0:0:0:0:
256,192,36297,1,8,0:0:0:0:
256,192,36527,1,0,0:0:0:0:
256,192,36642,1,0,0:0:0:0:
256,192,36757,1,0,0:0:0:0:
256,192,36987,1,0,0:0:0:0:
256,192,37217,1,8,0:0:0:0:
256,192,37677,1,0,0:0:0:0:
256,192,37792,1,8,0:0:0:0:
256,192,37907,1,8,0:0:0:0:
256,192,38136,1,8,0:0:0:0:
256,192,38366,1,8,0:0:0:0:
256,192,38481,1,8,0:0:0:0:
256,192,38596,1,0,0:0:0:0:
256,192,38711,1,0,0:0:0:0:
256,192,38826,1,8,0:0:0:0:
256,192,39056,1,8,0:0:0:0:
256,192,39171,1,8,0:0:0:0:
256,192,39286,1,8,0:0:0:0:
256,192,39516,1,0,0:0:0:0:
256,192,39746,1,0,0:0:0:0:
256,192,39976,1,0,0:0:0:0:
256,192,40205,1,8,0:0:0:0:
256,192,40320,1,8,0:0:0:0:
256,192,40435,1,0,0:0:0:0:
256,192,40665,1,0,0:0:0:0:
256,192,40780,1,8,0:0:0:0:
256,192,40895,1,8,0:0:0:0:
256,192,41125,1,8,0:0:0:0:
256,192,41240,1,0,0:0:0:0:
256,192,41355,1,8,0:0:0:0:
256,192,41815,1,0,0:0:0:0:
256,192,41930,1,0,0:0:0:0:
256,192,42045,1,8,0:0:0:0:
256,192,42274,1,0,0:0:0:0:
256,192,42504,1,8,0:0:0:0:
256,192,42619,1,8,0:0:0:0:
256,192,42734,1,8,0:0:0:0:
256,192,42964,1,0,0:0:0:0:
256,192,43194,1,8,0:0:0:0:
256,192,43424,1,0,0:0:0:0:
256,192,43654,1,8,0:0:0:0:
256,192,43769,1,8,0:0:0:0:
256,192,43884,1,8,0:0:0:0:
256,192,43999,1,8,0:0:0:0:
256,192,44114,1,0,0:0:0:0:
256,192,44343,1,0,0:0:0:0:
256,192,44573,1,8,0:0:0:0:
256,192,44803,1,8,0:0:0:0:
256,192,45033,1,0,0:0:0:0:
256,192,45263,1,8,0:0:0:0:
256,192,45493,1,8,0:0:0:0:
256,192,45953,5,4,0:0:0:0:
256,192,46412,1,8,0:0:0:0:
256,192,46872,1,8,0:0:0:0:
256,192,47792,1,0,0:0:0:0:
256,192,48251,1,8,0:0:0:0:
256,192,48711,1,8,0:0:0:0:
256,192,49631,1,12,0:0:0:0:
256,192,50550,1,8,0:0:0:0:
256,192,51010,1,0,0:0:0:0:
256,192,51240,1,0,0:0:0:0:
256,192,51470,1,12,0:0:0:0:
256,192,52389,1,8,0:0:0:0:
256,192,53309,1,4,0:0:0:0:
256,192,53769,1,8,0:0:0:0:
256,192,54228,1,8,0:0:0:0:
256,192,55148,1,0,0:0:0:0:
256,192,55608,1,8,0:0:0:0:
256,192,56068,1,8,0:0:0:0:
256,192,56987,1,12,0:0:0:0:
256,192,57907,1,0,0:0:0:0:
256,192,58366,1,0,0:0:0:0:
256,192,58826,1,12,0:0:0:0:
256,192,59746,1,0,0:0:0:0:
256,192,60205,1,8,0:0:0:0:
256,192,60665,1,4,0:0:0:0:
256,192,61125,1,8,0:0:0:0:
256,192,61585,1,8,0:0:0:0:
256,192,62504,1,0,0:0:0:0:
256,192,62964,1,8,0:0:0:0:
256,192,63424,1,8,0:0:0:0:
256,192,63884,1,0,0:0:0:0:
256,192,64343,1,12,0:0:0:0:
256,192,64803,1,0,0:0:0:0:
256,192,65263,1,0,0:0:0:0:
256,192,65723,1,0,0:0:0:0:
256,192,66182,1,12,0:0:0:0:
256,192,67102,1,8,0:0:0:0:
256,192,67447,1,0,0:0:0:0:
256,192,67792,1,8,0:0:0:0:
256,192,68022,1,4,0:0:0:0:
256,192,68481,1,8,0:0:0:0:
256,192,68941,1,8,0:0:0:0:
256,192,69861,1,0,0:0:0:0:
256,192,70320,1,8,0:0:0:0:
256,192,70780,1,8,0:0:0:0:
256,192,71700,1,12,0:0:0:0:
256,192,71815,12,8,72389,0:0:0:0:
256,192,72619,5,8,0:0:0:0:
256,192,73079,1,8,0:0:0:0:
256,192,73539,1,4,0:0:0:0:
