osu file format v14

[General]
AudioFilename: hivielikesmen.mp3
AudioLeadIn: 0
PreviewTime: 100
Countdown: 0
SampleSet: Normal
StackLeniency: 0.7
Mode: 1
LetterboxInBreaks: 0
WidescreenStoryboard: 1

[Editor]
DistanceSpacing: 1.6
BeatDivisor: 8
GridSize: 32
TimelineZoom: 1.55

[Metadata]
Title:BOOM (Theme of the True Mad Bomber)
TitleUnicode:BOOM (Theme of the True Mad Bomber)
Artist:The Chongo Show
ArtistUnicode:The Chongo Show
Creator:meiqth
Version:Muzukashii
Source:
Tags:Boom, Boom, Boom, Boom!! Boom Boom Pow Boom Clap WTF BOOM Anaconda black eyed peas nicki minaj Blow charli xcx vengaboys ke$ha kesha Jun Chikuma 竹間 淳 battle bomberman ボンバーマンジェネレーション generation english video game electronic novelty
BeatmapID:3591778
BeatmapSetID:1755155

[Difficulty]
HPDrainRate:7
CircleSize:7
OverallDifficulty:4.7
ApproachRate:10
SliderMultiplier:1.4
SliderTickRate:1

[Events]
//Background and Video events
0,0,"K5NVof.png",0,0
//Break Periods
//Storyboard Layer 0 (Background)
//Storyboard Layer 1 (Fail)
//Storyboard Layer 2 (Pass)
//Storyboard Layer 3 (Foreground)
//Storyboard Layer 4 (Overlay)
//Storyboard Sound Samples

[TimingPoints]
-383,375,4,1,0,55,1,8
55,-95.8333334131944,4,1,0,55,0,0
2334,357.142857142857,5,1,0,55,1,8
3405,-111.111111111111,5,1,0,55,0,0
4118,357.142857142857,4,1,0,74,1,1
26975,-100,4,1,0,74,0,0
27064,-105.263157894737,4,1,0,74,0,0
38401,-100,4,1,0,74,0,0
49832,-100,4,1,0,74,0,1
72689.5844985164,-100,4,1,0,74,0,0
72778,-105.263157894737,4,1,0,74,0,0
84117,-100,4,1,0,74,0,0
95635,-111.111111111111,4,1,0,74,0,0
101260,-105.263157894737,4,1,0,74,0,0
106975,-100,4,1,0,74,0,1
118398,356.421527860283,4,1,0,74,1,0
118581,-111.111111111111,4,1,0,74,0,0
136931,357.142857142857,4,1,0,74,1,0
136931,-111.111111111111,4,1,0,74,0,0
141055,-105.263157894737,4,1,0,74,0,0
152644,357.142857142857,5,1,0,74,1,8
152650,357.142857142857,4,1,0,74,1,1
175507,-100,4,1,0,74,0,0

[HitObjects]
256,512,85,5,8,0:0:0:0:
256,512,367,1,8,0:0:0:0:
256,512,554,1,0,0:0:0:0:
256,512,835,1,0,0:0:0:0:
256,512,1117,1,12,0:0:0:0:
256,512,1398,1,12,0:0:0:0:
256,512,1585,1,12,0:0:0:0:
256,512,1867,1,4,0:0:0:0:
256,192,3405,12,0,3941,0:0:0:0:
256,512,4118,5,12,0:0:0:0:
256,512,4475,1,8,0:0:0:0:
256,512,4653,1,8,0:0:0:0:
256,512,4832,1,0,0:0:0:0:
256,512,5189,1,0,0:0:0:0:
256,512,5367,1,8,0:0:0:0:
256,512,5457,1,8,0:0:0:0:
256,512,5546,1,8,0:0:0:0:
256,512,5725,1,0,0:0:0:0:
256,512,5903,1,0,0:0:0:0:
256,512,6260,1,0,0:0:0:0:
256,512,6617,1,0,0:0:0:0:
256,512,6796,1,8,0:0:0:0:
256,512,6975,1,0,0:0:0:0:
256,512,7332,1,8,0:0:0:0:
256,512,7510,1,0,0:0:0:0:
256,512,7689,1,8,0:0:0:0:
256,512,8046,1,0,0:0:0:0:
256,512,8225,1,8,0:0:0:0:
256,512,8314,1,8,0:0:0:0:
256,512,8403,1,8,0:0:0:0:
256,512,8582,1,8,0:0:0:0:
256,512,8760,1,0,0:0:0:0:
256,512,8850,1,0,0:0:0:0:
256,512,8939,1,0,0:0:0:0:
256,512,9117,1,8,0:0:0:0:
256,512,9832,5,12,0:0:0:0:
256,512,10189,1,8,0:0:0:0:
256,512,10367,1,0,0:0:0:0:
256,512,10546,1,8,0:0:0:0:
256,512,10903,1,8,0:0:0:0:
256,512,11082,1,0,0:0:0:0:
256,512,11171,1,0,0:0:0:0:
256,512,11260,1,0,0:0:0:0:
256,512,11439,1,8,0:0:0:0:
256,512,11617,1,0,0:0:0:0:
256,512,11975,1,8,0:0:0:0:
256,512,12332,1,0,0:0:0:0:
256,512,12510,1,8,0:0:0:0:
256,512,12600,1,8,0:0:0:0:
256,512,12689,1,8,0:0:0:0:
256,512,12867,1,0,0:0:0:0:
256,512,13046,1,0,0:0:0:0:
256,512,13225,1,8,0:0:0:0:
256,512,13582,1,8,0:0:0:0:
256,512,13760,1,0,0:0:0:0:
256,512,13939,1,8,0:0:0:0:
256,512,14028,1,8,0:0:0:0:
256,512,14117,1,8,0:0:0:0:
256,512,14296,1,8,0:0:0:0:
256,512,14475,1,0,0:0:0:0:
256,512,14832,1,0,0:0:0:0:
256,512,15189,1,0,0:0:0:0:
256,512,15546,5,12,0:0:0:0:
256,512,15903,1,8,0:0:0:0:
256,512,16082,1,8,0:0:0:0:
256,512,16260,1,0,0:0:0:0:
256,512,16617,1,0,0:0:0:0:
256,512,16796,1,8,0:0:0:0:
256,512,16885,1,8,0:0:0:0:
256,512,16975,1,8,0:0:0:0:
256,512,17153,1,0,0:0:0:0:
256,512,17332,1,0,0:0:0:0:
256,512,17689,1,0,0:0:0:0:
256,512,18046,1,0,0:0:0:0:
256,512,18225,1,8,0:0:0:0:
256,512,18403,1,0,0:0:0:0:
256,512,18760,1,8,0:0:0:0:
256,512,18939,1,0,0:0:0:0:
256,512,19117,1,8,0:0:0:0:
256,512,19475,1,0,0:0:0:0:
256,512,19653,1,8,0:0:0:0:
256,512,19742,1,8,0:0:0:0:
256,512,19832,1,8,0:0:0:0:
256,512,20010,1,8,0:0:0:0:
256,512,20189,1,0,0:0:0:0:
256,512,20278,1,0,0:0:0:0:
256,512,20367,1,0,0:0:0:0:
256,512,20546,1,8,0:0:0:0:
256,512,21260,5,12,0:0:0:0:
256,512,21617,1,8,0:0:0:0:
256,512,21796,1,0,0:0:0:0:
256,512,21975,1,8,0:0:0:0:
256,512,22332,1,8,0:0:0:0:
256,512,22510,1,0,0:0:0:0:
256,512,22600,1,0,0:0:0:0:
256,512,22689,1,0,0:0:0:0:
256,512,22867,1,8,0:0:0:0:
256,512,23046,1,0,0:0:0:0:
256,512,23403,1,8,0:0:0:0:
256,512,23760,1,0,0:0:0:0:
256,512,23939,1,8,0:0:0:0:
256,512,24028,1,8,0:0:0:0:
256,512,24117,1,8,0:0:0:0:
256,512,24296,1,0,0:0:0:0:
256,512,24475,1,0,0:0:0:0:
256,512,24653,1,8,0:0:0:0:
256,512,25010,1,8,0:0:0:0:
256,512,25189,1,0,0:0:0:0:
256,512,25367,1,8,0:0:0:0:
256,512,25457,1,8,0:0:0:0:
256,512,25546,1,8,0:0:0:0:
256,512,25725,1,8,0:0:0:0:
256,512,25903,1,0,0:0:0:0:
256,512,26260,1,0,0:0:0:0:
256,512,26617,1,0,0:0:0:0:
256,512,26975,5,12,0:0:0:0:
256,512,27332,1,0,0:0:0:0:
256,512,27689,1,8,0:0:0:0:
256,512,28046,1,0,0:0:0:0:
256,512,28403,1,8,0:0:0:0:
256,512,28582,1,8,0:0:0:0:
256,512,28760,1,0,0:0:0:0:
256,512,28939,1,8,0:0:0:0:
256,512,29475,1,8,0:0:0:0:
256,512,29832,1,8,0:0:0:0:
256,512,30010,1,0,0:0:0:0:
256,512,30189,1,0,0:0:0:0:
256,512,30367,1,8,0:0:0:0:
256,512,30903,1,0,0:0:0:0:
256,512,31082,1,8,0:0:0:0:
256,512,31260,1,0,0:0:0:0:
256,512,31439,1,8,0:0:0:0:
256,512,31617,1,8,0:0:0:0:
256,512,31796,1,0,0:0:0:0:
256,512,32153,1,0,0:0:0:0:
256,512,32332,1,8,0:0:0:0:
256,512,32689,5,8,0:0:0:0:
256,512,33046,1,0,0:0:0:0:
256,512,33403,1,8,0:0:0:0:
256,512,33760,1,0,0:0:0:0:
256,512,34117,1,8,0:0:0:0:
256,512,34296,1,0,0:0:0:0:
256,512,34475,1,8,0:0:0:0:
256,512,34653,1,8,0:0:0:0:
256,512,35189,1,8,0:0:0:0:
256,512,35546,1,0,0:0:0:0:
256,512,35725,1,8,0:0:0:0:
256,512,35903,1,8,0:0:0:0:
256,512,36082,1,0,0:0:0:0:
256,512,36617,1,8,0:0:0:0:
256,512,36796,1,0,0:0:0:0:
256,512,36975,1,8,0:0:0:0:
256,512,37153,1,8,0:0:0:0:
256,512,37332,1,8,0:0:0:0:
256,512,37510,1,0,0:0:0:0:
256,512,37867,1,0,0:0:0:0:
256,512,38046,1,8,0:0:0:0:
256,512,38403,5,12,0:0:0:0:
256,512,38760,1,0,0:0:0:0:
256,512,38939,1,8,0:0:0:0:
256,512,39117,1,0,0:0:0:0:
256,512,39475,1,0,0:0:0:0:
256,512,39653,1,8,0:0:0:0:
256,512,40010,1,8,0:0:0:0:
256,512,40189,1,0,0:0:0:0:
256,512,40367,1,8,0:0:0:0:
256,512,40725,1,8,0:0:0:0:
256,512,41082,1,0,0:0:0:0:
256,512,41617,1,8,0:0:0:0:
256,512,41796,1,0,0:0:0:0:
256,512,42153,1,8,0:0:0:0:
256,512,42332,1,0,0:0:0:0:
256,512,42510,1,8,0:0:0:0:
256,512,42689,1,8,0:0:0:0:
256,512,43046,1,8,0:0:0:0:
256,512,43403,1,0,0:0:0:0:
256,512,43760,1,0,0:0:0:0:
256,512,44117,5,8,0:0:0:0:
256,512,44475,1,0,0:0:0:0:
256,512,44653,1,8,0:0:0:0:
256,512,44832,1,0,0:0:0:0:
256,512,45189,1,0,0:0:0:0:
256,512,45367,1,8,0:0:0:0:
256,512,45725,1,8,0:0:0:0:
256,512,45903,1,0,0:0:0:0:
256,512,46082,1,8,0:0:0:0:
256,512,46439,1,8,0:0:0:0:
256,512,46796,1,0,0:0:0:0:
256,512,47332,1,8,0:0:0:0:
256,512,47510,1,0,0:0:0:0:
256,512,47867,1,0,0:0:0:0:
256,512,48046,1,8,0:0:0:0:
256,512,48225,1,8,0:0:0:0:
256,512,48403,1,4,0:0:0:0:
256,512,48760,1,0,0:0:0:0:
256,512,49117,1,0,0:0:0:0:
256,512,49475,1,0,0:0:0:0:
256,512,49832,5,12,0:0:0:0:
256,512,50189,1,8,0:0:0:0:
256,512,50367,1,0,0:0:0:0:
256,512,50546,1,8,0:0:0:0:
256,512,50725,1,8,0:0:0:0:
256,512,50903,1,0,0:0:0:0:
256,512,51082,1,8,0:0:0:0:
256,512,51171,1,8,0:0:0:0:
256,512,51260,1,8,0:0:0:0:
256,512,51439,1,0,0:0:0:0:
256,512,51617,1,0,0:0:0:0:
256,512,51975,1,0,0:0:0:0:
256,512,52332,1,0,0:0:0:0:
256,512,52510,1,8,0:0:0:0:
256,512,52689,1,0,0:0:0:0:
256,512,53046,1,8,0:0:0:0:
256,512,53225,1,0,0:0:0:0:
256,512,53403,1,8,0:0:0:0:
256,512,53582,1,8,0:0:0:0:
256,512,53760,1,0,0:0:0:0:
256,512,53939,1,8,0:0:0:0:
256,512,54028,1,8,0:0:0:0:
256,512,54117,1,8,0:0:0:0:
256,512,54296,1,8,0:0:0:0:
256,512,54475,1,0,0:0:0:0:
256,512,54564,1,0,0:0:0:0:
256,512,54653,1,0,0:0:0:0:
256,512,54832,1,8,0:0:0:0:
256,512,55546,5,12,0:0:0:0:
256,512,55903,1,8,0:0:0:0:
256,512,56082,1,0,0:0:0:0:
256,512,56260,1,8,0:0:0:0:
256,512,56439,1,0,0:0:0:0:
256,512,56617,1,8,0:0:0:0:
256,512,56796,1,0,0:0:0:0:
256,512,56885,1,0,0:0:0:0:
256,512,56975,1,0,0:0:0:0:
256,512,57153,1,8,0:0:0:0:
256,512,57332,1,0,0:0:0:0:
256,512,57689,1,8,0:0:0:0:
256,512,58046,1,0,0:0:0:0:
256,512,58225,1,8,0:0:0:0:
256,512,58314,1,8,0:0:0:0:
256,512,58403,1,8,0:0:0:0:
256,512,58582,1,0,0:0:0:0:
256,512,58760,1,0,0:0:0:0:
256,512,58939,1,8,0:0:0:0:
256,512,59296,1,8,0:0:0:0:
256,512,59475,1,0,0:0:0:0:
256,512,59653,1,8,0:0:0:0:
256,512,59742,1,8,0:0:0:0:
256,512,59832,1,8,0:0:0:0:
256,512,60010,1,8,0:0:0:0:
256,512,60189,1,0,0:0:0:0:
256,512,60546,1,0,0:0:0:0:
256,512,60903,1,0,0:0:0:0:
256,512,61260,5,12,0:0:0:0:
256,512,61617,1,8,0:0:0:0:
256,512,61796,1,0,0:0:0:0:
256,512,61975,1,8,0:0:0:0:
256,512,62153,1,8,0:0:0:0:
256,512,62332,1,0,0:0:0:0:
256,512,62510,1,8,0:0:0:0:
256,512,62600,1,8,0:0:0:0:
256,512,62689,1,8,0:0:0:0:
256,512,62867,1,0,0:0:0:0:
256,512,63046,1,0,0:0:0:0:
256,512,63403,1,0,0:0:0:0:
256,512,63760,1,0,0:0:0:0:
256,512,63939,1,8,0:0:0:0:
256,512,64117,1,0,0:0:0:0:
256,512,64475,1,8,0:0:0:0:
256,512,64653,1,0,0:0:0:0:
256,512,64832,1,8,0:0:0:0:
256,512,65010,1,8,0:0:0:0:
256,512,65189,1,0,0:0:0:0:
256,512,65367,1,8,0:0:0:0:
256,512,65457,1,8,0:0:0:0:
256,512,65546,1,8,0:0:0:0:
256,512,65725,1,8,0:0:0:0:
256,512,65903,1,0,0:0:0:0:
256,512,65992,1,0,0:0:0:0:
256,512,66082,1,0,0:0:0:0:
256,512,66260,1,8,0:0:0:0:
256,512,66975,5,12,0:0:0:0:
256,512,67332,1,8,0:0:0:0:
256,512,67510,1,0,0:0:0:0:
256,512,67689,1,8,0:0:0:0:
256,512,67867,1,0,0:0:0:0:
256,512,68046,1,8,0:0:0:0:
256,512,68225,1,0,0:0:0:0:
256,512,68314,1,0,0:0:0:0:
256,512,68403,1,0,0:0:0:0:
256,512,68582,1,8,0:0:0:0:
256,512,68760,1,0,0:0:0:0:
256,512,69117,1,8,0:0:0:0:
256,512,69475,1,0,0:0:0:0:
256,512,69653,1,8,0:0:0:0:
256,512,69742,1,8,0:0:0:0:
256,512,69832,1,8,0:0:0:0:
256,512,70010,1,0,0:0:0:0:
256,512,70189,1,0,0:0:0:0:
256,512,70367,1,8,0:0:0:0:
256,512,70725,1,8,0:0:0:0:
256,512,70903,1,0,0:0:0:0:
256,512,71082,1,8,0:0:0:0:
256,512,71171,1,8,0:0:0:0:
256,512,71260,1,8,0:0:0:0:
256,512,71439,1,8,0:0:0:0:
256,512,71617,1,0,0:0:0:0:
256,512,71975,1,0,0:0:0:0:
256,512,72332,1,0,0:0:0:0:
256,512,72689,5,12,0:0:0:0:
256,512,73046,1,0,0:0:0:0:
256,512,73760,1,0,0:0:0:0:
256,512,73939,1,0,0:0:0:0:
256,512,74117,1,8,0:0:0:0:
256,512,74296,1,8,0:0:0:0:
256,512,74475,1,0,0:0:0:0:
256,512,74653,1,8,0:0:0:0:
256,512,75189,1,0,0:0:0:0:
256,512,75367,1,0,0:0:0:0:
256,512,75546,1,8,0:0:0:0:
256,512,75725,1,8,0:0:0:0:
256,512,75903,1,0,0:0:0:0:
256,512,76082,1,8,0:0:0:0:
256,512,76617,1,0,0:0:0:0:
256,512,76796,1,8,0:0:0:0:
256,512,76975,1,0,0:0:0:0:
256,512,77153,1,0,0:0:0:0:
256,512,77332,1,8,0:0:0:0:
256,512,77510,1,0,0:0:0:0:
256,512,77867,1,0,0:0:0:0:
256,512,78046,1,8,0:0:0:0:
256,512,78403,5,12,0:0:0:0:
256,512,78760,1,0,0:0:0:0:
256,512,79117,1,8,0:0:0:0:
256,512,79296,1,0,0:0:0:0:
256,512,79475,1,8,0:0:0:0:
256,512,79832,1,8,0:0:0:0:
256,512,80010,1,8,0:0:0:0:
256,512,80189,1,0,0:0:0:0:
256,512,80367,1,8,0:0:0:0:
256,512,80903,1,0,0:0:0:0:
256,512,81082,1,8,0:0:0:0:
256,512,81260,1,0,0:0:0:0:
256,512,81439,1,8,0:0:0:0:
256,512,81617,1,0,0:0:0:0:
256,512,81796,1,0,0:0:0:0:
256,512,82332,1,8,0:0:0:0:
256,512,82510,1,0,0:0:0:0:
256,512,82689,1,8,0:0:0:0:
256,512,82867,1,8,0:0:0:0:
256,512,83046,1,8,0:0:0:0:
256,512,83225,1,0,0:0:0:0:
256,512,83582,1,8,0:0:0:0:
256,512,83760,1,0,0:0:0:0:
256,512,84117,5,12,0:0:0:0:
256,512,84475,1,0,0:0:0:0:
256,512,84653,1,8,0:0:0:0:
256,512,84832,1,0,0:0:0:0:
256,512,85189,1,0,0:0:0:0:
256,512,85367,1,8,0:0:0:0:
256,512,85725,1,8,0:0:0:0:
256,512,85903,1,0,0:0:0:0:
256,512,86082,1,8,0:0:0:0:
256,512,86439,1,8,0:0:0:0:
256,512,86796,1,0,0:0:0:0:
256,512,87332,1,8,0:0:0:0:
256,512,87510,1,0,0:0:0:0:
256,512,87867,1,8,0:0:0:0:
256,512,88046,1,0,0:0:0:0:
256,512,88225,1,8,0:0:0:0:
256,512,88403,1,8,0:0:0:0:
256,512,88760,1,8,0:0:0:0:
256,512,89117,1,0,0:0:0:0:
256,512,89475,1,0,0:0:0:0:
256,512,89832,5,8,0:0:0:0:
256,512,90189,1,0,0:0:0:0:
256,512,90367,1,8,0:0:0:0:
256,512,90546,1,0,0:0:0:0:
256,512,90903,1,0,0:0:0:0:
256,512,91082,1,8,0:0:0:0:
256,512,91439,1,8,0:0:0:0:
256,512,91617,1,0,0:0:0:0:
256,512,91796,1,8,0:0:0:0:
256,512,92153,1,8,0:0:0:0:
256,512,92510,1,0,0:0:0:0:
256,512,93046,1,8,0:0:0:0:
256,512,93225,1,0,0:0:0:0:
256,512,93582,1,0,0:0:0:0:
256,512,93760,1,8,0:0:0:0:
256,512,93939,1,8,0:0:0:0:
256,512,94117,1,4,0:0:0:0:
256,512,94653,5,0,0:0:0:0:
256,512,95010,1,0,0:0:0:0:
256,512,95189,1,0,0:0:0:0:
256,512,95546,5,12,0:0:0:0:
256,512,95814,1,0,0:0:0:0:
256,512,96082,1,0,0:0:0:0:
256,512,96439,1,8,0:0:0:0:
256,512,96617,1,8,0:0:0:0:
256,512,96796,1,8,0:0:0:0:
256,512,96975,1,0,0:0:0:0:
256,512,97242,1,0,0:0:0:0:
256,512,97510,1,0,0:0:0:0:
256,512,97867,1,8,0:0:0:0:
256,512,98046,1,8,0:0:0:0:
256,512,98225,1,8,0:0:0:0:
256,512,98403,5,0,0:0:0:0:
256,512,98671,1,0,0:0:0:0:
256,512,98939,1,0,0:0:0:0:
256,512,99296,1,8,0:0:0:0:
256,512,99475,1,8,0:0:0:0:
256,512,99653,1,8,0:0:0:0:
256,512,99832,1,0,0:0:0:0:
256,512,100100,1,0,0:0:0:0:
256,512,100367,1,0,0:0:0:0:
256,512,101260,1,12,0:0:0:0:
256,512,101528,1,0,0:0:0:0:
256,512,101796,1,8,0:0:0:0:
256,512,102153,1,8,0:0:0:0:
256,512,102242,1,8,0:0:0:0:
256,512,102332,1,8,0:0:0:0:
256,512,102510,1,8,0:0:0:0:
256,512,102689,1,0,0:0:0:0:
256,512,102957,1,8,0:0:0:0:
256,512,103225,1,0,0:0:0:0:
256,512,103582,1,8,0:0:0:0:
256,512,103760,1,8,0:0:0:0:
256,512,103939,1,8,0:0:0:0:
256,512,104117,5,0,0:0:0:0:
256,512,104385,1,0,0:0:0:0:
256,512,104653,1,8,0:0:0:0:
256,512,105010,1,8,0:0:0:0:
256,512,105100,1,8,0:0:0:0:
256,512,105189,1,8,0:0:0:0:
256,512,105367,1,8,0:0:0:0:
256,512,105546,1,0,0:0:0:0:
256,512,105814,1,0,0:0:0:0:
256,512,106082,1,0,0:0:0:0:
256,512,106260,1,8,0:0:0:0:
256,512,106439,1,8,0:0:0:0:
256,512,106617,1,0,0:0:0:0:
256,512,106975,5,12,0:0:0:0:
256,512,107332,1,8,0:0:0:0:
256,512,107510,1,0,0:0:0:0:
256,512,107689,1,8,0:0:0:0:
256,512,107867,1,8,0:0:0:0:
256,512,108046,1,0,0:0:0:0:
256,512,108225,1,8,0:0:0:0:
256,512,108314,1,8,0:0:0:0:
256,512,108403,1,8,0:0:0:0:
256,512,108582,1,0,0:0:0:0:
256,512,108760,1,0,0:0:0:0:
256,512,109117,1,0,0:0:0:0:
256,512,109475,1,0,0:0:0:0:
256,512,109653,1,8,0:0:0:0:
256,512,109832,1,0,0:0:0:0:
256,512,110189,1,8,0:0:0:0:
256,512,110367,1,0,0:0:0:0:
256,512,110546,1,8,0:0:0:0:
256,512,110725,1,8,0:0:0:0:
256,512,110903,1,0,0:0:0:0:
256,512,111082,1,8,0:0:0:0:
256,512,111171,1,8,0:0:0:0:
256,512,111260,1,8,0:0:0:0:
256,512,111439,1,8,0:0:0:0:
256,512,111617,1,0,0:0:0:0:
256,512,111707,1,0,0:0:0:0:
256,512,111796,1,0,0:0:0:0:
256,512,111975,1,8,0:0:0:0:
256,512,112689,5,12,0:0:0:0:
256,512,113046,1,8,0:0:0:0:
256,512,113225,1,0,0:0:0:0:
256,512,113403,1,8,0:0:0:0:
256,512,113582,1,0,0:0:0:0:
256,512,113760,1,8,0:0:0:0:
256,512,113939,1,0,0:0:0:0:
256,512,114028,1,0,0:0:0:0:
256,512,114117,1,0,0:0:0:0:
256,512,114296,1,8,0:0:0:0:
256,512,114475,1,0,0:0:0:0:
256,512,114832,1,8,0:0:0:0:
256,512,115189,1,0,0:0:0:0:
256,512,115367,1,8,0:0:0:0:
256,512,115457,1,8,0:0:0:0:
256,512,115546,1,8,0:0:0:0:
256,512,115725,1,0,0:0:0:0:
256,512,115903,1,0,0:0:0:0:
256,512,116082,1,8,0:0:0:0:
256,512,116439,1,8,0:0:0:0:
256,512,116617,1,0,0:0:0:0:
256,512,116796,1,8,0:0:0:0:
256,512,116885,1,8,0:0:0:0:
256,512,116975,1,8,0:0:0:0:
256,512,117153,1,8,0:0:0:0:
256,512,117332,1,0,0:0:0:0:
256,512,117689,1,0,0:0:0:0:
256,512,118046,1,0,0:0:0:0:
256,512,118398,5,12,0:0:0:0:
256,512,118754,1,0,0:0:0:0:
256,512,119110,1,8,0:0:0:0:
256,512,119467,1,0,0:0:0:0:
256,512,119645,1,0,0:0:0:0:
256,512,119823,1,8,0:0:0:0:
256,512,120180,1,0,0:0:0:0:
256,512,120358,1,8,0:0:0:0:
256,512,120714,1,8,0:0:0:0:
256,512,120892,1,0,0:0:0:0:
256,512,121249,1,8,0:0:0:0:
256,512,121605,1,8,0:0:0:0:
256,512,121784,1,0,0:0:0:0:
256,512,121962,1,8,0:0:0:0:
256,512,122140,1,8,0:0:0:0:
256,512,122318,1,0,0:0:0:0:
256,512,122675,1,0,0:0:0:0:
256,512,122853,1,0,0:0:0:0:
256,512,123031,1,8,0:0:0:0:
256,512,123209,1,0,0:0:0:0:
256,512,123744,1,8,0:0:0:0:
256,512,124100,5,0,0:0:0:0:
256,512,124278,1,8,0:0:0:0:
256,512,124457,1,0,0:0:0:0:
256,512,124813,1,8,0:0:0:0:
256,512,124991,1,0,0:0:0:0:
256,512,125170,1,8,0:0:0:0:
256,512,125348,1,8,0:0:0:0:
256,512,125526,1,0,0:0:0:0:
256,512,125882,1,8,0:0:0:0:
256,512,126061,1,0,0:0:0:0:
256,512,126417,1,0,0:0:0:0:
256,512,126595,1,8,0:0:0:0:
256,512,126952,1,0,0:0:0:0:
256,512,127130,1,0,0:0:0:0:
256,512,127308,1,8,0:0:0:0:
256,512,127486,1,8,0:0:0:0:
256,512,127664,1,0,0:0:0:0:
256,512,128021,1,0,0:0:0:0:
256,512,128377,1,0,0:0:0:0:
256,512,128556,1,0,0:0:0:0:
256,512,128734,1,8,0:0:0:0:
256,512,128912,1,0,0:0:0:0:
256,512,129268,1,8,0:0:0:0:
256,512,129447,1,0,0:0:0:0:
256,512,129803,5,8,0:0:0:0:
256,512,130159,1,8,0:0:0:0:
256,512,130516,1,8,0:0:0:0:
256,512,130872,1,0,0:0:0:0:
256,512,131050,1,8,0:0:0:0:
256,512,131407,1,8,0:0:0:0:
256,512,131585,1,0,0:0:0:0:
256,512,131763,1,0,0:0:0:0:
256,512,131942,1,8,0:0:0:0:
256,512,132298,1,8,0:0:0:0:
256,512,132476,1,8,0:0:0:0:
256,512,132654,1,0,0:0:0:0:
256,512,133011,1,8,0:0:0:0:
256,512,133189,1,0,0:0:0:0:
256,512,133367,1,8,0:0:0:0:
256,512,133724,1,0,0:0:0:0:
256,512,134080,1,0,0:0:0:0:
256,512,134258,1,0,0:0:0:0:
256,512,134436,1,8,0:0:0:0:
256,512,134615,1,8,0:0:0:0:
256,512,134793,1,0,0:0:0:0:
256,512,135149,1,0,0:0:0:0:
256,512,135328,1,0,0:0:0:0:
256,512,135506,5,8,0:0:0:0:
256,512,135862,1,8,0:0:0:0:
256,512,136219,1,8,0:0:0:0:
256,512,136575,1,0,0:0:0:0:
256,512,136931,1,0,0:0:0:0:
256,512,137020,1,0,0:0:0:0:
256,512,137109,1,0,0:0:0:0:
256,512,137288,1,8,0:0:0:0:
256,512,137645,1,8,0:0:0:0:
256,512,137823,1,8,0:0:0:0:
256,512,138002,1,0,0:0:0:0:
256,512,138359,1,8,0:0:0:0:
256,512,138538,1,0,0:0:0:0:
256,512,138716,1,8,0:0:0:0:
256,512,139073,1,0,0:0:0:0:
256,512,139431,1,0,0:0:0:0:
256,512,139609,1,8,0:0:0:0:
256,512,139966,1,8,0:0:0:0:
256,512,140145,1,0,0:0:0:0:
256,512,140323,1,0,0:0:0:0:
256,512,140502,1,8,0:0:0:0:
256,512,140859,1,8,0:0:0:0:
256,512,141216,5,12,0:0:0:0:
256,512,141395,1,0,0:0:0:0:
256,512,141573,1,8,0:0:0:0:
256,512,141931,1,0,0:0:0:0:
256,512,142109,1,8,0:0:0:0:
256,512,142288,1,8,0:0:0:0:
256,512,142645,1,8,0:0:0:0:
256,512,142823,1,0,0:0:0:0:
256,512,142913,1,0,0:0:0:0:
256,512,143002,1,0,0:0:0:0:
256,512,143181,1,8,0:0:0:0:
256,512,143359,1,0,0:0:0:0:
256,512,143538,1,0,0:0:0:0:
256,512,143716,1,8,0:0:0:0:
256,512,144073,1,8,0:0:0:0:
256,512,144252,1,0,0:0:0:0:
256,512,144431,1,8,0:0:0:0:
256,512,144520,1,8,0:0:0:0:
256,512,144609,1,8,0:0:0:0:
256,512,144788,1,0,0:0:0:0:
256,512,145145,1,8,0:0:0:0:
256,512,145323,1,0,0:0:0:0:
256,512,145413,1,0,0:0:0:0:
256,512,145502,1,0,0:0:0:0:
256,512,145681,1,8,0:0:0:0:
256,512,145859,1,0,0:0:0:0:
256,512,146038,1,8,0:0:0:0:
256,512,146216,1,0,0:0:0:0:
256,512,146931,5,8,0:0:0:0:
256,512,147109,1,0,0:0:0:0:
256,512,147288,1,8,0:0:0:0:
256,512,147466,1,0,0:0:0:0:
256,512,147645,1,8,0:0:0:0:
256,512,147734,1,8,0:0:0:0:
256,512,147823,1,8,0:0:0:0:
256,512,148002,1,8,0:0:0:0:
256,512,148359,1,0,0:0:0:0:
256,512,148538,1,8,0:0:0:0:
256,512,148716,1,0,0:0:0:0:
256,512,148895,1,8,0:0:0:0:
256,512,149073,1,0,0:0:0:0:
256,512,149163,1,0,0:0:0:0:
256,512,149252,1,0,0:0:0:0:
256,512,149431,1,8,0:0:0:0:
256,512,149788,1,8,0:0:0:0:
256,512,149966,1,0,0:0:0:0:
256,512,150056,1,0,0:0:0:0:
256,512,150145,1,0,0:0:0:0:
256,512,150323,1,8,0:0:0:0:
256,512,150502,1,0,0:0:0:0:
256,512,150681,1,8,0:0:0:0:
256,512,150770,1,8,0:0:0:0:
256,512,150859,1,8,0:0:0:0:
256,512,151216,1,8,0:0:0:0:
256,512,151395,1,8,0:0:0:0:
256,512,151573,1,0,0:0:0:0:
256,512,151931,1,0,0:0:0:0:
256,512,152288,1,0,0:0:0:0:
256,512,152650,5,12,0:0:0:0:
256,512,153007,1,8,0:0:0:0:
256,512,153185,1,0,0:0:0:0:
256,512,153364,1,8,0:0:0:0:
256,512,153542,1,8,0:0:0:0:
256,512,153721,1,0,0:0:0:0:
256,512,153900,1,8,0:0:0:0:
256,512,153989,1,8,0:0:0:0:
256,512,154078,1,8,0:0:0:0:
256,512,154257,1,0,0:0:0:0:
256,512,154435,1,0,0:0:0:0:
256,512,154792,1,0,0:0:0:0:
256,512,155150,1,0,0:0:0:0:
256,512,155328,1,8,0:0:0:0:
256,512,155507,1,0,0:0:0:0:
256,512,155864,1,8,0:0:0:0:
256,512,156042,1,0,0:0:0:0:
256,512,156221,1,8,0:0:0:0:
256,512,156400,1,8,0:0:0:0:
256,512,156578,1,0,0:0:0:0:
256,512,156757,1,8,0:0:0:0:
256,512,156846,1,8,0:0:0:0:
256,512,156935,1,8,0:0:0:0:
256,512,157114,1,8,0:0:0:0:
256,512,157292,1,0,0:0:0:0:
256,512,157382,1,0,0:0:0:0:
256,512,157471,1,0,0:0:0:0:
256,512,157650,1,8,0:0:0:0:
256,512,158364,5,12,0:0:0:0:
256,512,158721,1,8,0:0:0:0:
256,512,158900,1,0,0:0:0:0:
256,512,159078,1,8,0:0:0:0:
256,512,159257,1,0,0:0:0:0:
256,512,159435,1,8,0:0:0:0:
256,512,159614,1,0,0:0:0:0:
256,512,159703,1,0,0:0:0:0:
256,512,159792,1,0,0:0:0:0:
256,512,159971,1,8,0:0:0:0:
256,512,160150,1,0,0:0:0:0:
256,512,160507,1,8,0:0:0:0:
256,512,160864,1,0,0:0:0:0:
256,512,161042,1,8,0:0:0:0:
256,512,161132,1,8,0:0:0:0:
256,512,161221,1,8,0:0:0:0:
256,512,161400,1,0,0:0:0:0:
256,512,161578,1,0,0:0:0:0:
256,512,161757,1,8,0:0:0:0:
256,512,162114,1,8,0:0:0:0:
256,512,162292,1,0,0:0:0:0:
256,512,162471,1,8,0:0:0:0:
256,512,162560,1,8,0:0:0:0:
256,512,162650,1,8,0:0:0:0:
256,512,162828,1,8,0:0:0:0:
256,512,163007,1,0,0:0:0:0:
256,512,163364,1,0,0:0:0:0:
256,512,163721,1,0,0:0:0:0:
256,512,164078,5,12,0:0:0:0:
256,512,164435,1,8,0:0:0:0:
256,512,164614,1,0,0:0:0:0:
256,512,164792,1,8,0:0:0:0:
256,512,164971,1,8,0:0:0:0:
256,512,165150,1,0,0:0:0:0:
256,512,165328,1,8,0:0:0:0:
256,512,165417,1,8,0:0:0:0:
256,512,165507,1,8,0:0:0:0:
256,512,165685,1,0,0:0:0:0:
256,512,165864,1,0,0:0:0:0:
256,512,166221,1,0,0:0:0:0:
256,512,166578,1,0,0:0:0:0:
256,512,166757,1,8,0:0:0:0:
256,512,166935,1,0,0:0:0:0:
256,512,167292,1,8,0:0:0:0:
256,512,167471,1,0,0:0:0:0:
256,512,167650,1,8,0:0:0:0:
256,512,167828,1,8,0:0:0:0:
256,512,168007,1,0,0:0:0:0:
256,512,168185,1,8,0:0:0:0:
256,512,168275,1,8,0:0:0:0:
256,512,168364,1,8,0:0:0:0:
256,512,168542,1,8,0:0:0:0:
256,512,168721,1,0,0:0:0:0:
256,512,168810,1,0,0:0:0:0:
256,512,168900,1,0,0:0:0:0:
256,512,169078,1,8,0:0:0:0:
256,512,169792,5,12,0:0:0:0:
256,512,170150,1,8,0:0:0:0:
256,512,170328,1,0,0:0:0:0:
256,512,170507,1,8,0:0:0:0:
256,512,170685,1,0,0:0:0:0:
256,512,170864,1,8,0:0:0:0:
256,512,171042,1,0,0:0:0:0:
256,512,171132,1,0,0:0:0:0:
256,512,171221,1,0,0:0:0:0:
256,512,171400,1,8,0:0:0:0:
256,512,171578,1,0,0:0:0:0:
256,512,171935,1,8,0:0:0:0:
256,512,172292,1,0,0:0:0:0:
256,512,172471,1,8,0:0:0:0:
256,512,172560,1,8,0:0:0:0:
256,512,172650,1,8,0:0:0:0:
256,512,172828,1,0,0:0:0:0:
256,512,173007,1,0,0:0:0:0:
256,512,173185,1,8,0:0:0:0:
256,512,173542,1,8,0:0:0:0:
256,512,173721,1,0,0:0:0:0:
256,512,173900,1,8,0:0:0:0:
256,512,173989,1,8,0:0:0:0:
256,512,174078,1,8,0:0:0:0:
256,512,174257,1,8,0:0:0:0:
256,512,174435,1,0,0:0:0:0:
256,512,174792,1,0,0:0:0:0:
256,512,175150,1,0,0:0:0:0:
256,512,175507,5,12,0:0:0:0:
256,192,175685,12,0,181221,0:0:0:0:
