osu file format v14

[General]
AudioFilename: audio.ogg
AudioLeadIn: 0
PreviewTime: 115954
Countdown: 0
SampleSet: Soft
StackLeniency: 0.7
Mode: 0
LetterboxInBreaks: 0
WidescreenStoryboard: 1

[Editor]
Bookmarks: 81045
DistanceSpacing: 1.6
BeatDivisor: 4
GridSize: 16
TimelineZoom: 1.7

[Metadata]
Title:Fuego
TitleUnicode:Fuego
Artist:The Cheetah Girls
ArtistUnicode:The Cheetah Girls
Creator:AJT
Version:Hard
Source:
Tags:english latin pop tcg
BeatmapID:4465878
BeatmapSetID:1866978

[Difficulty]
HPDrainRate:4
CircleSize:3.5
OverallDifficulty:6
ApproachRate:7.5
SliderMultiplier:2
SliderTickRate:1

[Events]
//Background and Video events
0,0,"cheetah-girls-1585753394.jpg",0,0
Video,0,"contactstoofforfreesupporter.avi"
//Break Periods
2,2550,6088
2,81295,82452
2,83477,84634
2,85659,86815
2,151113,152270
2,153295,154452
2,168568,176270
//Storyboard Layer 0 (Background)
//Storyboard Layer 1 (Fail)
//Storyboard Layer 2 (Pass)
//Storyboard Layer 3 (Foreground)
//Storyboard Layer 4 (Overlay)
//Storyboard Sound Samples

[TimingPoints]
369,545.454545454546,4,2,0,40,1,0
2550,545.454545454546,4,2,0,65,1,0
28731,-100,4,2,0,65,0,0
46186,-90.9090909090909,4,2,0,80,0,1
63640,-100,4,2,0,65,0,0
64050,-111.111111111111,4,2,0,55,0,0
68004,-111.111111111111,4,2,0,55,0,0
72368,-111.111111111111,4,2,0,55,0,0
72640,-111.111111111111,4,2,0,60,0,0
72777,-111.111111111111,4,2,0,60,0,0
81095,-100,4,2,0,50,0,0
82868,-100,4,2,0,50,0,0
83276,-100,4,2,0,50,0,0
85050,-100,4,2,0,50,0,0
85459,-100,4,2,0,50,0,0
87231,-100,4,2,0,50,0,0
87640,-100,4,2,0,65,0,0
98550,-100,4,2,0,65,0,0
116004,-90.9090909090909,4,2,0,80,0,1
133459,-111.111111111111,4,2,0,65,0,0
137822,-111.111111111111,4,2,0,65,0,0
142595,-111.111111111111,4,2,0,65,0,0
159640,-111.111111111111,4,2,0,65,0,0
168368,-111.111111111111,4,2,0,65,0,0
176550,-111.111111111111,4,2,0,65,0,0
177095,-90.9090909090909,4,2,0,80,0,1
185822,-111.111111111111,4,2,0,65,0,0
190186,-111.111111111111,4,2,0,65,0,0
194550,-111.111111111111,4,2,0,65,0,0

[Colours]
Combo1 : 167,79,255
Combo2 : 227,227,0
Combo3 : 72,154,255
Combo4 : 255,55,55

[HitObjects]
109,103,641,5,8,0:0:0:0:
111,145,777,1,8,0:0:0:0:
117,230,1050,1,8,0:0:0:0:
202,231,1323,1,8,0:0:0:0:
205,273,1459,1,8,0:0:0:0:
212,358,1733,1,8,0:0:0:0:
296,349,2005,1,8,0:0:0:0:
256,192,6913,12,0,11277,1:0:0:0:
128,208,11550,6,0,P|85:202|20:181,2,100,2|2|8,0:0|0:3|0:0,0:0:0:0:
199,169,12231,1,2,0:0:0:0:
199,169,12368,2,0,P|214:103|220:54,1,100,0|2,1:0|0:0,0:0:0:0:
152,24,12777,1,0,1:0:0:0:
314,9,13050,1,2,0:0:0:0:
314,9,13186,2,0,P|326:40|329:63,1,50,8|0,0:0|0:0,0:0:0:0:
401,89,13459,6,0,P|413:120|416:143,1,50,0|0,1:0|0:0,0:0:0:0:
481,182,13731,2,0,P|475:221|456:280,2,100,2|2|8,0:0|0:3|0:0,0:0:0:0:
343,337,14550,2,0,P|277:322|228:316,1,100,0|2,1:0|0:0,0:0:0:0:
198,384,14959,1,0,1:0:0:0:
183,222,15231,1,2,0:0:0:0:
183,222,15368,2,0,P|214:210|237:207,1,50,8|0,0:0|0:0,0:0:0:0:
314,190,15640,5,0,1:0:0:0:
314,190,15777,1,2,0:0:0:0:
314,190,15913,2,0,P|325:153|333:91,1,100,2|2,0:3|0:0,0:0:0:0:
179,96,16459,1,8,0:0:0:0:
179,96,16596,1,2,0:0:0:0:
179,96,16732,2,0,P|168:59|160:-3,1,100,0|2,1:0|0:3,0:0:0:0:
1,21,17277,2,0,P|12:58|20:120,1,100,2|8,0:3|0:0,0:0:0:0:
96,142,17686,1,2,0:0:0:0:
84,224,17822,5,0,1:0:0:0:
84,224,17959,2,0,P|113:229|220:235,1,100,2|2,0:0|0:0,0:0:0:0:
245,184,18368,2,0,P|274:189|381:195,1,100,2|8,0:3|0:0,0:0:0:0:
362,273,18777,1,2,0:0:0:0:
374,355,18913,5,0,1:0:0:0:
374,355,19050,2,0,P|345:360|238:366,1,100,2|0,0:0|3:0,0:0:0:0:
213,315,19459,2,2,P|184:320|77:326,1,100,2|2,0:3|0:3,0:3:0:0:
0,384,20004,1,0,1:0:0:0:
69,239,20277,6,0,P|66:192|49:138,1,100,2|2,0:0|0:3,0:0:0:0:
7,80,20686,1,2,0:0:0:0:
7,80,20822,2,0,P|14:53|27:22,1,50,8|2,0:0|0:3,0:0:0:0:
100,13,21095,2,0,P|159:17|207:27,1,100,0|0,1:0|0:0,0:0:0:0:
246,89,21504,2,0,P|305:84|353:74,1,100,0|0,1:0|0:0,0:0:0:0:
403,22,21913,1,8,0:0:0:0:
498,150,22186,5,0,1:0:0:0:
480,308,22458,1,2,0:0:0:0:
335,239,22731,1,2,0:3:0:0:
242,372,23004,1,8,0:0:0:0:
242,372,23140,1,2,0:0:0:0:
242,372,23277,2,0,P|227:306|218:258,1,100,0|2,1:0|0:0,2:0:0:0:
198,197,23686,1,0,1:0:0:0:
83,308,23959,1,2,0:0:0:0:
83,308,24095,1,8,0:0:0:0:
13,163,24368,6,0,P|1:122|-4:93,1,50,0|0,1:0|0:0,0:0:0:0:
41,48,24640,1,2,0:3:0:0:
41,48,24777,1,2,0:0:0:0:
41,48,24913,1,2,0:3:0:0:
121,186,25186,6,0,P|109:145|104:116,1,50,8|2,0:0|0:0,0:0:0:0:
149,71,25458,1,0,1:0:0:0:
149,71,25595,1,2,0:3:0:0:
149,71,25731,2,0,P|178:63|259:49,1,100,2|2,0:0|0:0,0:0:0:0:
249,211,26277,6,0,P|256:252|265:281,1,50,8|2,0:0|0:0,0:0:0:0:
326,300,26550,1,0,1:0:0:0:
326,300,26686,2,0,P|355:293|433:269,1,100,2|2,0:0|0:3,0:0:0:0:
404,196,27095,2,0,P|433:189|511:165,1,100,2|0,0:3|0:0,0:0:0:0:
400,44,27641,5,0,1:0:0:0:
256,96,27913,1,0,1:0:0:0:
112,44,28186,1,0,1:0:0:0:
256,96,28459,1,0,1:0:0:0:
128,192,28731,6,0,P|128:245|149:292,1,100,4|8,1:2|0:0,0:0:0:0:
384,192,29277,2,0,P|384:245|363:292,1,100,2|8,3:3|0:0,0:0:0:0:
365,287,29686,1,8,0:0:0:0:
365,287,29822,2,0,P|356:317|338:338,1,50,8|2,0:0|0:0,0:0:0:0:
256,384,30095,1,8,0:0:0:0:
146,287,30368,2,0,P|127:241|128:192,1,100,8|8,0:0|0:0,0:0:0:0:
256,192,30913,5,0,1:0:0:0:
128,112,31186,1,8,0:0:0:0:
128,112,31322,2,0,B|88:104|81:143|33:139,1,100,0|8,1:0|0:0,0:0:0:0:
64,224,31731,2,0,P|90:232|121:237,1,50,8|2,0:0|0:0,0:0:0:0:
208,192,32004,1,0,1:0:0:0:
346,263,32277,1,2,3:3:0:0:
384,112,32550,2,0,B|423:104|430:143|478:139,2,100,8|8|0,0:0|0:0|1:0,0:0:0:0:
177,95,33368,6,0,P|158:49|160:0,2,100,8|2|8,0:0|0:3|0:0,0:0:0:0:
334,95,34186,1,0,1:0:0:0:
334,95,34322,1,8,0:0:0:0:
334,95,34459,2,0,P|353:49|352:0,2,100,8|8|8,0:0|0:0|0:0,0:0:0:0:
256,224,35277,2,0,L|256:384,2,150,0|0|8,1:0|1:0|0:0,0:0:0:0:
256,224,36231,1,8,0:0:0:0:
256,224,36368,1,0,1:0:0:0:
304,128,36640,6,0,P|332:135|360:138,1,50,2|0,0:3|1:0,0:0:0:0:
208,128,36913,2,2,P|180:135|152:138,1,50,2|2,3:3|0:3,0:3:0:0:
256,112,37186,2,2,L|256:0,1,100,2|0,3:3|1:0,0:3:0:0:
96,176,37731,6,0,P|124:183|152:186,1,50,8|0,0:0|1:0,0:0:0:0:
176,224,38004,2,0,P|204:217|232:214,1,50,2|8,0:3|0:0,0:0:0:0:
287,214,38277,2,0,P|311:217|336:224,1,50,8|8,0:0|0:0,0:0:0:0:
367,185,38550,2,0,P|391:182|416:176,1,50,8|0,0:0|0:0,0:0:0:0:
505,210,38822,1,8,0:0:0:0:
505,210,38959,1,0,1:0:0:0:
505,210,39095,2,0,B|510:264|510:264|484:305,1,100,8|8,0:0|0:0,0:0:0:0:
384,384,39640,5,0,1:0:0:0:
256,384,39913,1,8,0:0:0:0:
256,384,40050,1,0,1:0:0:0:
128,384,40322,1,8,0:0:0:0:
128,384,40459,2,0,P|116:348|99:327,1,50,8|8,0:0|0:0,0:0:0:0:
26,302,40732,2,0,B|2:264|2:264|7:210,1,100,0|2,1:0|0:3,0:0:0:0:
80,112,41278,1,8,0:0:0:0:
176,192,41550,1,8,0:0:0:0:
256,80,41823,5,0,1:0:0:0:
256,80,42096,2,0,P|303:71|361:68,1,100,8|2,0:0|0:3,0:0:0:0:
492,149,42640,2,0,P|484:181|470:205,1,50,8|8,0:0|0:0,0:0:0:0:
403,230,42913,1,0,1:0:0:0:
256,192,43186,1,8,0:0:0:0:
109,230,43459,1,8,0:0:0:0:
256,288,43732,1,8,0:0:0:0:
121,358,44004,6,0,P|75:354|21:316,1,100,0|8,1:0|0:0,0:0:0:0:
29,326,44413,1,0,1:0:0:0:
109,230,44686,1,2,0:0:0:0:
109,230,44822,2,0,L|102:163,1,50,8|8,0:0|0:0,0:0:0:0:
165,103,45095,5,0,1:0:0:0:
256,192,45368,1,0,1:0:0:0:
256,192,45504,1,2,0:0:0:0:
256,192,45640,1,0,1:0:0:0:
347,103,45914,1,0,1:0:0:0:
156,0,46186,6,0,P|174:58|180:121,1,110.000003356934,4|2,1:2|0:3,0:0:0:0:
356,0,46731,2,0,P|338:58|332:121,1,110.000003356934,2|8,0:3|0:0,0:0:0:0:
160,240,47277,1,0,1:0:0:0:
169,293,47413,1,2,0:3:0:0:
352,240,47686,1,0,1:0:0:0:
342,293,47822,1,2,0:3:0:0:
256,384,48095,1,8,0:0:0:0:
170,293,48368,5,0,1:0:0:0:
160,240,48504,1,2,0:0:0:0:
343,293,48777,1,0,1:0:0:0:
352,240,48913,1,2,0:0:0:0:
224,192,49186,2,0,P|217:164|214:134,1,55.0000016784668,8|2,0:0|0:0,0:0:0:0:
297,138,49459,2,0,P|294:165|288:192,1,55.0000016784668,0|2,1:0|0:0,0:0:0:0:
256,384,49868,1,2,0:0:0:0:
256,384,50004,2,0,L|256:256,1,110.000003356934,2|8,0:3|0:0,0:0:0:0:
64,255,50550,6,0,P|122:237|185:231,1,110.000003356934,0|2,1:0|0:3,0:0:0:0:
448,256,51095,2,0,P|390:238|327:232,1,110.000003356934,2|8,0:3|0:0,0:0:0:0:
144,192,51640,1,0,1:0:0:0:
197,180,51776,1,2,0:3:0:0:
368,192,52050,1,0,1:0:0:0:
314,180,52186,1,2,0:3:0:0:
358,95,52459,1,8,0:0:0:0:
358,95,52595,1,2,0:0:0:0:
358,95,52731,6,0,P|361:64|369:20,1,55.0000016784668,0|2,1:0|0:0,0:0:0:0:
147,40,53140,2,0,P|151:67|154:95,1,55.0000016784668,0|2,1:0|0:3,0:0:0:0:
256,192,53550,1,8,0:0:0:0:
358,95,53822,6,0,P|361:64|369:20,1,55.0000016784668,0|2,1:0|0:0,0:0:0:0:
147,40,54231,2,0,P|151:67|154:95,1,55.0000016784668,0|2,1:0|0:3,0:0:0:0:
256,192,54640,1,2,0:3:0:0:
156,384,54913,6,0,P|174:326|180:263,1,110.000003356934,4|2,1:2|0:3,0:0:0:0:
356,384,55458,2,0,P|338:326|332:263,1,110.000003356934,2|8,0:3|0:0,0:0:0:0:
160,144,56004,1,0,1:0:0:0:
169,91,56140,1,2,0:3:0:0:
352,144,56413,1,0,1:0:0:0:
342,91,56549,1,2,0:3:0:0:
256,0,56822,1,8,0:0:0:0:
170,91,57095,5,0,1:0:0:0:
160,144,57231,1,2,0:0:0:0:
343,91,57504,1,0,1:0:0:0:
352,144,57640,1,2,0:0:0:0:
224,192,57913,2,0,P|217:220|214:250,1,55.0000016784668,8|2,0:0|0:0,0:0:0:0:
297,246,58186,2,0,P|294:219|288:192,1,55.0000016784668,0|2,1:0|0:0,0:0:0:0:
256,0,58595,1,2,0:0:0:0:
256,0,58731,2,0,L|256:128,1,110.000003356934,2|8,0:3|0:0,0:0:0:0:
64,129,59277,6,0,P|122:147|185:153,1,110.000003356934,0|2,1:0|0:3,0:0:0:0:
448,128,59822,2,0,P|390:146|327:152,1,110.000003356934,2|8,0:3|0:0,0:0:0:0:
144,192,60367,1,0,1:0:0:0:
197,204,60503,1,2,0:3:0:0:
368,192,60777,1,0,1:0:0:0:
314,204,60913,1,2,0:3:0:0:
358,289,61186,1,8,0:0:0:0:
358,289,61322,1,2,0:0:0:0:
358,289,61458,6,0,P|361:320|369:364,1,55.0000016784668,0|2,1:0|0:0,0:0:0:0:
147,344,61867,2,0,P|151:317|154:289,1,55.0000016784668,0|2,1:0|0:3,0:0:0:0:
256,192,62277,1,8,0:0:0:0:
128,256,62549,5,8,1:0:0:0:
384,256,62822,1,8,1:0:0:0:
176,368,63095,1,8,1:0:0:0:
336,368,63368,1,8,1:0:0:0:
256,192,63640,1,0,1:0:0:0:
384,256,64050,6,0,P|400:195|407:120,1,134.999995880127,0|8,1:0|0:0,0:0:0:0:
352,64,64731,1,0,1:0:0:0:
128,256,65140,2,0,P|112:195|105:120,1,134.999995880127,0|8,1:0|0:0,0:0:0:0:
160,64,65821,1,0,1:0:0:0:
384,256,66231,2,0,P|400:195|407:120,1,134.999995880127,0|8,1:0|0:0,0:0:0:0:
352,64,66912,1,0,1:0:0:0:
128,256,67322,2,0,P|112:195|105:120,1,134.999995880127,0|8,1:0|0:0,0:0:0:0:
160,64,68003,1,0,1:0:0:0:
256,192,68277,12,0,71822,0:0:0:0:
256,0,72368,5,0,1:0:0:0:
128,128,72777,2,0,P|112:189|105:264,1,134.999995880127,0|8,1:0|0:0,0:0:0:0:
160,320,73458,1,0,1:0:0:0:
384,128,73867,2,0,P|400:189|407:264,1,134.999995880127,0|8,1:0|0:0,0:0:0:0:
352,320,74550,1,0,1:0:0:0:
128,128,74958,2,0,P|112:189|105:264,1,134.999995880127,0|8,1:0|0:0,0:0:0:0:
160,320,75639,1,0,1:0:0:0:
384,128,76049,2,0,P|400:189|407:264,1,134.999995880127,0|2,1:0|0:3,0:0:0:0:
352,320,76731,6,0,P|333:281|301:248,1,89.9999972534181,0|2,1:0|0:3,0:0:0:0:
256,208,77140,1,0,1:0:0:0:
211,247,77277,2,0,P|179:279|160:320,1,89.9999972534181,2|8,0:3|0:0,0:0:0:0:
32,304,77822,6,0,P|51:343|83:376,1,89.9999972534181,0|2,1:0|0:3,0:0:0:0:
204,344,78368,1,2,0:3:0:0:
308,344,78640,1,8,0:0:0:0:
428,376,78913,2,0,P|460:344|480:304,1,89.9999972534181,0|0,1:0|0:0,0:0:0:0:
464,267,79322,1,0,1:0:0:0:
432,240,79459,2,0,P|463:208|483:167,1,89.9999972534181,2|8,0:3|0:0,0:0:0:0:
256,0,80004,2,0,P|287:31|307:72,1,89.9999972534181,0|2,1:0|0:3,0:0:0:0:
279,125,80413,1,0,1:0:0:0:
310,175,80550,2,0,P|305:223|293:274,1,89.9999972534181,2|8,0:3|0:0,0:0:0:0:
256,384,81095,5,2,0:0:0:0:
256,384,83277,5,2,0:0:0:0:
256,384,85459,5,2,0:0:0:0:
256,384,87640,5,0,1:0:0:0:
256,384,87777,2,0,P|261:355|267:248,1,100,2|2,0:0|0:0,0:0:0:0:
216,223,88186,2,0,P|221:194|227:87,1,100,2|8,0:3|0:0,0:0:0:0:
138,29,88731,5,0,1:0:0:0:
138,29,88868,2,0,P|167:24|274:18,1,100,2|0,0:0|3:0,0:0:0:0:
299,69,89277,2,2,P|328:64|435:58,1,100,2|2,0:3|0:3,0:3:0:0:
512,0,89822,1,0,1:0:0:0:
442,165,90095,5,2,0:0:0:0:
505,304,90367,1,2,0:3:0:0:
505,304,90504,1,2,0:0:0:0:
505,304,90640,2,0,P|498:331|485:362,1,50,8|2,0:0|0:3,0:0:0:0:
412,371,90913,2,0,P|353:367|305:357,1,100,0|0,1:0|0:0,0:0:0:0:
266,295,91322,2,0,P|207:300|159:310,1,100,0|0,1:0|0:0,0:0:0:0:
109,362,91731,1,8,0:0:0:0:
5,238,92004,6,0,L|16:162,1,50,0|0,1:0|0:0,0:0:0:0:
22,109,92276,1,2,0:0:0:0:
177,145,92549,1,2,0:3:0:0:
270,12,92822,1,8,0:0:0:0:
270,12,92958,1,2,0:0:0:0:
270,12,93095,2,0,P|285:78|294:126,1,100,0|2,1:0|0:0,2:0:0:0:
314,187,93504,1,0,1:0:0:0:
429,76,93777,1,2,0:0:0:0:
429,76,93913,1,8,0:0:0:0:
499,221,94186,6,0,P|511:262|516:291,1,50,0|0,1:0|0:0,0:0:0:0:
471,336,94458,1,2,0:3:0:0:
471,336,94595,1,2,0:3:0:0:
471,336,94731,1,2,0:3:0:0:
391,198,95004,6,0,P|403:239|408:268,1,50,8|0,0:0|0:0,0:0:0:0:
363,313,95276,1,0,1:0:0:0:
214,374,95549,1,2,0:3:0:0:
117,246,95821,1,2,0:0:0:0:
263,173,96095,6,0,P|256:132|247:103,1,50,8|2,0:0|0:0,0:0:0:0:
186,84,96368,1,0,1:0:0:0:
186,84,96504,1,2,0:0:0:0:
59,179,96776,1,2,0:3:0:0:
59,179,96913,1,2,0:3:0:0:
112,340,97186,1,2,0:0:0:0:
112,340,97322,1,2,0:0:0:0:
112,340,97459,5,0,1:0:0:0:
256,384,97731,1,0,1:0:0:0:
400,340,98004,1,0,1:0:0:0:
256,288,98277,1,0,1:0:0:0:
403,159,98549,6,0,P|403:106|382:59,1,100,4|8,1:2|0:0,0:0:0:0:
109,159,99095,2,0,P|109:110|128:64,1,100,2|8,3:3|0:0,0:0:0:0:
128,63,99504,1,8,0:0:0:0:
176,64,99640,1,8,0:0:0:0:
224,48,99776,1,2,0:0:0:0:
256,0,99913,1,8,0:0:0:0:
384,63,100186,2,0,P|403:109|402:158,1,100,8|8,0:0|0:0,0:0:0:0:
256,192,100731,5,0,1:0:0:0:
384,288,101004,1,8,0:0:0:0:
384,288,101140,2,0,B|424:296|431:257|479:261,1,100,0|8,1:0|0:0,0:0:0:0:
450,170,101549,1,8,0:0:0:0:
374,157,101685,1,2,0:0:0:0:
304,192,101822,1,0,1:0:0:0:
153,124,102095,1,2,3:3:0:0:
128,288,102368,2,0,B|89:296|82:257|34:261,2,100,8|8|0,0:0|0:0|1:0,0:0:0:0:
335,289,103186,6,0,P|354:335|352:384,2,100,8|2|8,0:0|0:3|0:0,0:0:0:0:
178,289,104004,1,0,1:0:0:0:
178,289,104140,1,8,0:0:0:0:
178,289,104277,2,0,P|159:335|160:384,2,100,8|8|8,0:0|0:0|0:0,0:0:0:0:
256,160,105095,2,0,L|256:0,2,150,0|0|8,1:0|1:0|0:0,0:0:0:0:
256,160,106049,1,8,0:0:0:0:
256,160,106186,1,0,1:0:0:0:
208,256,106458,6,0,P|180:249|152:246,1,50,2|0,0:3|1:0,0:0:0:0:
304,256,106731,2,2,P|332:249|360:246,1,50,2|2,3:3|0:3,0:3:0:0:
256,272,107004,2,2,L|256:384,1,100,2|0,3:3|1:0,0:3:0:0:
416,208,107549,6,0,P|388:201|360:198,1,50,8|0,0:0|1:0,0:0:0:0:
336,160,107822,2,0,P|308:167|280:170,1,50,2|8,0:3|0:0,0:0:0:0:
225,170,108095,2,0,P|201:167|176:160,1,50,8|8,0:0|0:0,0:0:0:0:
145,199,108368,2,0,P|121:202|96:208,1,50,8|0,0:0|0:0,0:0:0:0:
7,174,108640,1,8,0:0:0:0:
7,174,108777,1,0,1:0:0:0:
7,174,108913,2,0,B|2:120|2:120|28:79,1,100,8|8,0:0|0:0,0:0:0:0:
128,0,109458,5,0,1:0:0:0:
256,96,109731,1,8,0:0:0:0:
256,96,109868,1,0,1:0:0:0:
384,0,110140,1,8,0:0:0:0:
384,0,110277,2,0,P|396:36|413:57,1,50,8|8,0:0|0:0,0:0:0:0:
486,82,110550,1,0,1:0:0:0:
512,192,110822,1,2,0:3:0:0:
432,272,111096,1,8,0:0:0:0:
336,192,111368,1,8,0:0:0:0:
256,304,111641,5,0,1:0:0:0:
256,304,111914,2,0,P|209:313|151:316,1,100,8|2,0:0|0:3,0:0:0:0:
20,235,112458,2,0,P|28:203|42:179,1,50,8|8,0:0|0:0,0:0:0:0:
109,154,112731,1,0,1:0:0:0:
256,192,113004,1,8,0:0:0:0:
403,154,113277,1,8,0:0:0:0:
256,96,113550,1,8,0:0:0:0:
109,154,113822,5,0,1:0:0:0:
256,304,114231,5,0,1:0:0:0:
403,154,114640,5,2,0:0:0:0:
347,281,114913,5,0,1:0:0:0:
256,192,115186,1,0,1:0:0:0:
256,192,115322,1,2,0:0:0:0:
256,192,115458,1,0,1:0:0:0:
165,281,115732,1,0,1:0:0:0:
356,384,116004,6,0,P|338:326|332:263,1,110.000003356934,4|2,1:2|0:3,0:0:0:0:
156,384,116549,2,0,P|174:326|180:263,1,110.000003356934,2|8,0:3|0:0,0:0:0:0:
352,144,117095,1,0,1:0:0:0:
343,91,117231,1,2,0:3:0:0:
160,144,117504,1,0,1:0:0:0:
170,91,117640,1,2,0:3:0:0:
256,0,117913,1,8,0:0:0:0:
342,91,118186,5,0,1:0:0:0:
352,144,118322,1,2,0:0:0:0:
169,91,118595,1,0,1:0:0:0:
160,144,118731,1,2,0:0:0:0:
288,192,119004,2,0,P|295:220|298:250,1,55.0000016784668,8|2,0:0|0:0,0:0:0:0:
224,191,119277,2,0,P|218:218|215:246,1,55.0000016784668,0|2,1:0|0:0,0:0:0:0:
256,0,119686,1,2,0:0:0:0:
256,0,119822,1,2,0:3:0:0:
256,160,120094,1,8,0:0:0:0:
448,129,120368,6,0,P|390:147|327:153,1,110.000003356934,0|2,1:0|0:3,0:0:0:0:
64,128,120913,2,0,P|122:146|185:152,1,110.000003356934,2|8,0:3|0:0,0:0:0:0:
368,192,121458,1,0,1:0:0:0:
315,204,121594,1,2,0:3:0:0:
144,192,121868,1,0,1:0:0:0:
198,204,122004,1,2,0:3:0:0:
154,289,122277,1,8,0:0:0:0:
154,289,122413,1,2,0:0:0:0:
154,289,122549,6,0,P|151:320|143:364,1,55.0000016784668,0|2,1:0|0:0,0:0:0:0:
358,289,122958,2,0,P|360:316|365:344,1,55.0000016784668,0|2,1:0|0:3,0:0:0:0:
256,192,123368,1,8,0:0:0:0:
154,289,123640,6,0,P|151:320|143:364,1,55.0000016784668,0|2,1:0|0:0,0:0:0:0:
358,289,124050,2,0,P|360:316|365:344,1,55.0000016784668,0|2,1:0|0:3,0:0:0:0:
256,192,124458,1,2,0:3:0:0:
356,0,124731,6,0,P|338:58|332:121,1,110.000003356934,4|2,1:2|0:3,0:0:0:0:
156,0,125276,2,0,P|174:58|180:121,1,110.000003356934,2|8,0:3|0:0,0:0:0:0:
352,240,125822,1,0,1:0:0:0:
343,293,125958,1,2,0:3:0:0:
160,240,126231,1,0,1:0:0:0:
170,293,126367,1,2,0:3:0:0:
256,384,126640,1,8,0:0:0:0:
342,293,126913,5,0,1:0:0:0:
352,240,127049,1,2,0:0:0:0:
169,293,127322,1,0,1:0:0:0:
160,240,127458,1,2,0:0:0:0:
288,192,127731,2,0,P|295:164|298:134,1,55.0000016784668,8|2,0:0|0:0,0:0:0:0:
224,192,128004,2,0,P|218:165|215:138,1,55.0000016784668,0|2,1:0|0:0,0:0:0:0:
256,384,128413,1,2,0:0:0:0:
256,384,128549,1,2,0:3:0:0:
448,255,128821,1,8,0:0:0:0:
448,255,128959,1,2,0:0:0:0:
448,255,129095,6,0,P|390:237|327:231,1,110.000003356934,0|2,1:0|0:3,0:0:0:0:
64,256,129640,2,0,P|122:238|185:232,1,110.000003356934,2|8,0:3|0:0,0:0:0:0:
368,192,130185,1,0,1:0:0:0:
315,180,130321,1,2,0:3:0:0:
144,192,130595,1,0,1:0:0:0:
198,180,130731,1,2,0:3:0:0:
154,95,131004,1,8,0:0:0:0:
154,95,131140,1,2,0:0:0:0:
154,95,131276,6,0,P|151:64|143:20,1,55.0000016784668,0|2,1:0|0:0,0:0:0:0:
358,94,131685,2,0,P|360:67|365:40,1,55.0000016784668,0|2,1:0|0:3,0:0:0:0:
256,192,132095,1,8,0:0:0:0:
192,128,132368,6,0,P|189:97|181:53,1,55.0000016784668,2|2,0:0|0:0,0:0:0:0:
320,128,132777,2,0,P|322:100|326:73,1,55.0000016784668,2|2,0:0|0:3,0:0:0:0:
256,0,133186,1,8,0:3:0:0:
256,192,133458,1,0,1:0:0:0:
80,160,133868,6,0,P|85:222|104:295,1,134.999995880127,0|8,1:0|0:0,0:0:0:0:
175,329,134549,1,0,1:0:0:0:
432,160,134959,2,0,P|426:222|407:295,1,134.999995880127,0|8,1:0|0:0,0:0:0:0:
337,329,135640,1,0,1:0:0:0:
80,160,136050,2,0,P|85:222|104:295,1,134.999995880127,0|8,1:0|0:0,0:0:0:0:
175,329,136731,1,0,1:0:0:0:
432,160,137141,2,0,P|426:222|407:295,1,134.999995880127,0|8,1:0|0:0,0:0:0:0:
337,329,137822,1,0,1:0:0:0:
256,192,138095,12,0,141640,0:0:0:0:
256,384,142186,5,0,1:0:0:0:
432,224,142595,6,0,P|426:161|407:88,1,134.999995880127,0|8,1:0|0:0,0:0:0:0:
337,55,143276,1,0,1:0:0:0:
80,224,143686,2,0,P|85:161|104:88,1,134.999995880127,0|8,1:0|0:0,0:0:0:0:
175,55,144367,1,0,1:0:0:0:
432,224,144777,2,0,P|426:161|407:88,1,134.999995880127,0|8,1:0|0:0,0:0:0:0:
337,55,145458,1,0,1:0:0:0:
80,224,145868,2,0,P|85:161|104:88,1,134.999995880127,0|2,1:0|0:3,0:0:0:0:
160,64,146550,5,0,1:0:0:0:
210,136,146822,1,2,0:3:0:0:
256,176,146958,1,0,1:0:0:0:
301,137,147095,1,2,0:3:0:0:
351,64,147367,1,8,0:0:0:0:
480,80,147640,6,0,P|461:41|429:8,1,89.9999972534181,0|2,1:0|0:3,0:0:0:0:
337,110,148186,1,2,0:3:0:0:
175,110,148458,1,8,0:0:0:0:
84,8,148731,2,0,P|52:40|32:80,1,89.9999972534181,0|0,1:0|0:0,0:0:0:0:
56,112,149140,1,0,1:0:0:0:
80,144,149277,2,0,P|49:176|29:217,1,89.9999972534181,2|8,0:3|0:0,0:0:0:0:
256,192,149822,2,0,P|298:202|336:227,1,89.9999972534181,0|0,1:0|0:0,0:0:0:0:
307,272,150231,1,0,1:0:0:0:
256,288,150368,2,0,P|219:312|175:324,1,89.9999972534181,2|8,0:3|0:0,0:0:0:0:
0,384,150913,5,2,0:0:0:0:
0,384,153095,5,2,0:0:0:0:
0,384,155277,5,2,0:0:0:0:
0,384,157459,5,2,0:0:0:0:
256,192,157731,12,2,159095,0:3:0:0:
0,160,159640,6,0,B|18:159|27:150|27:150|90:167,1,89.9999972534181,0|0,1:0|0:0,0:0:0:0:
132,240,160050,1,0,1:0:0:0:
132,240,160186,2,0,B|150:241|159:250|159:250|222:233,1,89.9999972534181,2|8,0:3|0:0,0:0:0:0:
278,384,160731,1,0,1:0:0:0:
278,384,160868,1,2,0:3:0:0:
278,384,161004,2,0,L|308:199,1,179.999994506836,2|8,0:3|3:2,0:0:0:0:
512,182,161822,6,0,B|494:183|485:192|485:192|422:175,1,89.9999972534181,0|2,1:0|0:3,0:0:0:0:
380,102,162232,1,0,1:0:0:0:
380,102,162368,2,0,B|362:101|353:92|353:92|290:109,1,89.9999972534181,2|8,0:3|0:0,0:0:0:0:
234,0,162913,1,0,1:0:0:0:
234,0,163050,1,2,0:3:0:0:
234,0,163186,2,0,L|225:51,1,44.999998626709,2|0,0:3|1:0,0:0:0:0:
210,143,163459,2,0,L|193:234,1,89.9999972534181,2|8,0:3|0:0,0:0:0:0:
256,384,164004,5,0,1:0:0:0:
160,288,164277,1,2,0:3:0:0:
160,288,164413,1,0,1:0:0:0:
160,288,164550,1,2,0:3:0:0:
256,384,164822,1,8,0:0:0:0:
256,384,164959,1,2,0:3:0:0:
256,384,165095,1,0,1:0:0:0:
352,288,165368,1,2,0:3:0:0:
256,192,165640,1,2,0:3:0:0:
160,288,165913,1,8,0:0:0:0:
256,384,166186,5,2,0:0:0:0:
256,192,166459,12,4,168368,1:2:0:0:
470,262,177095,6,0,P|405:242|335:235,1,110.000003356934,4|2,1:2|0:3,0:0:0:0:
41,263,177640,2,0,P|106:243|176:236,1,110.000003356934,2|8,0:3|0:0,0:0:0:0:
381,192,178185,1,0,1:0:0:0:
322,178,178321,1,2,0:3:0:0:
130,192,178595,1,0,1:0:0:0:
191,178,178731,1,2,0:3:0:0:
256,0,179004,1,8,0:0:0:0:
358,80,179277,5,0,1:0:0:0:
370,144,179413,1,2,0:0:0:0:
151,80,179686,1,0,1:0:0:0:
141,144,179822,1,2,0:0:0:0:
304,254,180095,2,0,P|300:227|293:200,1,55.0000016784668,8|2,0:0|0:0,0:0:0:0:
207,255,180368,2,0,P|211:227|217:200,1,55.0000016784668,0|2,1:0|0:0,0:0:0:0:
256,0,180777,1,2,0:0:0:0:
256,0,180913,1,2,0:3:0:0:
470,122,181185,1,8,0:0:0:0:
470,122,181323,1,2,0:0:0:0:
470,122,181459,6,0,P|405:142|335:149,1,110.000003356934,0|2,1:0|0:3,0:0:0:0:
41,121,182004,2,0,P|106:141|176:148,1,110.000003356934,2|8,0:3|0:0,0:0:0:0:
381,192,182549,1,0,1:0:0:0:
322,206,182685,1,2,0:3:0:0:
130,192,182959,1,0,1:0:0:0:
191,206,183095,1,2,0:3:0:0:
150,318,183368,1,8,0:0:0:0:
150,318,183504,1,2,0:0:0:0:
150,318,183640,5,0,1:0:0:0:
143,372,183776,1,2,0:0:0:0:
362,318,184050,1,0,1:0:0:0:
368,372,184186,1,2,0:3:0:0:
256,192,184459,1,8,0:0:0:0:
256,192,184595,1,8,0:0:0:0:
227,233,184731,6,0,P|224:264|216:308,1,55.0000016784668,8|2,1:0|0:0,0:0:0:0:
285,233,185004,2,0,P|288:264|296:308,1,55.0000016784668,8|2,1:0|0:0,0:0:0:0:
192,256,185278,2,0,P|189:287|181:331,1,55.0000016784668,8|2,1:0|0:0,0:0:0:0:
320,256,185550,2,0,P|322:284|326:311,1,55.0000016784668,8|0,1:0|0:0,0:0:0:0:
256,384,185822,1,0,1:0:0:0:
80,224,186232,6,0,P|85:162|104:89,1,134.999995880127,0|8,1:0|0:0,0:0:0:0:
175,55,186913,1,0,1:0:0:0:
432,160,187323,2,0,P|426:222|407:295,1,134.999995880127,0|8,1:0|0:0,0:0:0:0:
337,329,188004,1,0,1:0:0:0:
224,16,188413,2,0,P|286:21|359:40,1,134.999995880127,0|8,1:0|0:0,0:0:0:0:
393,111,189094,1,0,1:0:0:0:
288,368,189504,2,0,P|226:362|153:343,1,134.999995880127,0|8,1:0|0:0,0:0:0:0:
119,273,190185,1,0,1:0:0:0:
256,192,190459,12,2,194004,0:3:0:0:
256,0,194550,5,2,1:1:0:0:
432,224,194959,6,0,P|426:156|408:91,1,134.999995880127,2|8,1:0|0:0,0:0:0:0:
337,55,195640,1,2,1:0:0:0:
80,159,196050,2,0,P|86:227|104:292,1,134.999995880127,2|8,1:0|0:0,0:0:0:0:
175,329,196731,1,2,1:0:0:0:
288,16,197140,2,0,P|220:21|155:39,1,134.999995880127,2|8,1:0|0:0,0:0:0:0:
119,111,197821,1,2,1:0:0:0:
223,368,198231,2,0,P|291:361|356:343,1,134.999995880127,2|2,1:0|0:3,0:0:0:0:
393,273,198914,5,2,1:0:0:0:
304,224,199186,1,2,0:3:0:0:
256,192,199322,1,2,1:0:0:0:
208,224,199459,1,2,0:3:0:0:
119,273,199731,1,8,0:0:0:0:
68,258,199868,1,2,0:3:0:0:
26,225,200004,5,2,1:0:0:0:
175,142,200276,1,2,0:3:0:0:
336,142,200549,1,2,0:3:0:0:
485,225,200821,1,8,0:0:0:0:
256,288,201095,5,4,1:0:0:0:
