osu file format v14

[General]
AudioFilename: audio.mp3
AudioLeadIn: 0
PreviewTime: 51096
Countdown: 0
SampleSet: Normal
StackLeniency: 0.7
Mode: 1
LetterboxInBreaks: 0
WidescreenStoryboard: 1

[Editor]
Bookmarks: 78150
DistanceSpacing: 0.1
BeatDivisor: 4
GridSize: 32
TimelineZoom: 1.5

[Metadata]
Title:DOOM CROSSING: Eternal Horizons (feat. Natalia Natchan)
TitleUnicode:DOOM CROSSING: Eternal Horizons (feat. Natalia Natchan)
Artist:The Chalkeaters
ArtistUnicode:The Chalkeaters
Creator:K a t a g i r i
Version:Ph0eNiiXZ's Muzukashii
Source:
Tags:english rock doom eternal animal crossing: new horizons あつまれ どうぶつの森 Atsumare Doubutsu no Mori isabelle blackbq blackbn Ph0eNiiXZ randelman4ik k_a_t_a_g_i_r_i katagiri
BeatmapID:2681241
BeatmapSetID:1280798

[Difficulty]
HPDrainRate:7
CircleSize:2
OverallDifficulty:5
ApproachRate:10
SliderMultiplier:1.4
SliderTickRate:1

[Events]
//Background and Video events
0,0,"bg.jpg",0,0
//Break Periods
//Storyboard Layer 0 (Background)
//Storyboard Layer 1 (Fail)
//Storyboard Layer 2 (Pass)
//Storyboard Layer 3 (Foreground)
//Storyboard Layer 4 (Overlay)
//Storyboard Sound Samples

[TimingPoints]
115,375,4,1,0,60,1,8
115,-166.666666666667,4,1,0,60,0,0
3102,375,4,1,0,60,1,0
3102,-166.666666666667,4,1,0,60,0,0
4586,375,4,1,0,60,1,0
4586,-166.666666666667,4,1,0,60,0,0
6086,375,4,1,0,60,1,8
6086,-166.666666666667,4,1,0,60,0,0
6115,375,4,1,0,60,1,0
6115,-133.333333333333,4,1,0,60,0,0
6707,375,4,1,0,60,1,8
6707,-133.333333333333,4,1,0,60,0,0
7634,375,4,1,0,60,1,0
7634,-133.333333333333,4,1,0,60,0,0
7990,375,4,1,0,60,1,8
7990,-133.333333333333,4,1,0,60,0,0
8542,375,4,1,0,60,1,8
8542,-133.333333333333,4,1,0,60,0,0
9104,375,4,1,0,60,1,0
9104,-133.333333333333,4,1,0,60,0,0
9489,375,4,1,0,60,1,8
9489,-133.333333333333,4,1,0,60,0,0
10031,375,4,1,0,60,1,8
10031,-133.333333333333,4,1,0,60,0,0
10621,375,4,1,0,60,1,0
10621,-133.333333333333,4,1,0,60,0,0
10979,375,4,1,0,60,1,8
10979,-133.333333333333,4,1,0,60,0,0
11166,375,4,1,0,60,1,8
11166,-133.333333333333,4,1,0,60,0,0
12021,-100,4,1,0,70,0,0
12113,375,4,1,0,100,1,0
13519,-111.111111111111,4,1,0,70,0,0
25519,-86.9565217391304,4,1,0,100,0,0
25613,-86.9565217391304,4,1,0,100,0,1
37613,-86.9565217391304,4,1,0,100,0,0
39113,-90.9090909090909,4,1,0,100,0,1
45113,-90.9090909090909,4,1,0,100,0,0
51113,-90.9090909090909,4,1,0,100,0,1
57113,-90.9090909090909,4,1,0,100,0,0
63113,-86.9565217391304,4,1,0,100,0,1
66020,-86.9565217391304,4,1,0,80,0,1
66113,-86.9565217391304,4,1,0,80,0,0
69113,-86.9565217391304,4,1,0,100,0,1
72019,-86.9565217391304,4,1,0,80,0,1
72113,377.358490566038,4,1,0,100,1,0
72113,-86.9565217391304,4,1,0,80,0,0
75320,-86.9565217391304,4,1,0,50,0,0

[HitObjects]
256,192,1615,5,0,0:0:0:0:
256,192,3102,1,8,0:0:0:0:
256,192,4586,1,8,0:0:0:0:
256,192,6115,1,0,0:0:0:0:
256,192,6302,1,0,0:0:0:0:
256,192,6490,1,8,0:0:0:0:
256,192,6707,1,8,0:0:0:0:
256,192,7082,1,8,0:0:0:0:
256,192,7269,1,8,0:0:0:0:
256,192,7634,1,0,0:0:0:0:
256,192,7990,1,0,0:0:0:0:
256,192,8177,1,0,0:0:0:0:
256,192,8542,1,0,0:0:0:0:
256,192,8729,1,0,0:0:0:0:
256,192,9104,1,8,0:0:0:0:
256,192,9489,1,0,0:0:0:0:
256,192,9676,1,8,0:0:0:0:
256,192,10031,1,0,0:0:0:0:
256,192,10218,1,8,0:0:0:0:
256,192,10621,1,8,0:0:0:0:
256,192,10979,1,8,0:0:0:0:
256,192,11166,1,8,0:0:0:0:
256,192,11541,1,8,0:0:0:0:
256,192,11728,1,8,0:0:0:0:
256,192,12113,1,4,0:0:0:0:
256,192,13613,1,0,0:0:0:0:
256,192,13988,1,8,0:0:0:0:
256,192,14175,1,0,0:0:0:0:
256,192,14363,1,0,0:0:0:0:
256,192,14550,1,8,0:0:0:0:
256,192,14925,1,0,0:0:0:0:
256,192,15113,1,8,0:0:0:0:
256,192,15488,1,0,0:0:0:0:
256,192,15675,1,8,0:0:0:0:
256,192,15863,1,0,0:0:0:0:
256,192,16238,1,8,0:0:0:0:
256,192,16613,1,0,0:0:0:0:
256,192,16800,1,8,0:0:0:0:
256,192,16988,1,8,0:0:0:0:
256,192,17175,1,0,0:0:0:0:
256,192,17550,1,8,0:0:0:0:
256,192,18113,1,8,0:0:0:0:
256,192,18300,1,0,0:0:0:0:
256,192,18488,1,0,0:0:0:0:
256,192,18675,1,8,0:0:0:0:
256,192,19050,1,0,0:0:0:0:
256,192,19613,1,4,0:0:0:0:
256,192,19988,1,8,0:0:0:0:
256,192,20175,1,0,0:0:0:0:
256,192,20363,1,0,0:0:0:0:
256,192,20550,1,8,0:0:0:0:
256,192,20925,1,0,0:0:0:0:
256,192,21113,1,8,0:0:0:0:
256,192,21488,1,0,0:0:0:0:
256,192,21675,1,8,0:0:0:0:
256,192,21863,1,0,0:0:0:0:
256,192,22238,1,8,0:0:0:0:
256,192,22425,1,0,0:0:0:0:
256,192,22613,1,8,0:0:0:0:
256,192,22988,1,0,0:0:0:0:
256,192,23363,1,8,0:0:0:0:
256,192,23550,1,8,0:0:0:0:
256,192,23738,1,0,0:0:0:0:
256,192,24113,1,0,0:0:0:0:
256,192,24300,1,0,0:0:0:0:
256,192,24488,1,8,0:0:0:0:
256,192,24675,1,8,0:0:0:0:
256,192,24863,1,0,0:0:0:0:
256,192,25613,1,4,0:0:0:0:
256,192,25988,1,0,0:0:0:0:
256,192,26238,1,8,0:0:0:0:
256,192,26363,1,8,0:0:0:0:
256,192,26738,1,8,0:0:0:0:
256,192,26988,1,0,0:0:0:0:
256,192,27113,1,0,0:0:0:0:
256,192,27488,1,0,0:0:0:0:
256,192,27738,1,8,0:0:0:0:
256,192,27863,1,8,0:0:0:0:
256,192,28113,1,0,0:0:0:0:
256,192,28363,1,8,0:0:0:0:
256,192,28613,1,4,0:0:0:0:
256,192,28988,1,0,0:0:0:0:
256,192,29238,1,0,0:0:0:0:
256,192,29363,1,8,0:0:0:0:
256,192,29738,1,8,0:0:0:0:
256,192,29988,1,8,0:0:0:0:
256,192,30113,1,0,0:0:0:0:
256,192,30488,1,0,0:0:0:0:
256,192,30738,1,0,0:0:0:0:
256,192,30863,1,8,0:0:0:0:
256,192,31613,1,4,0:0:0:0:
256,192,31988,1,8,0:0:0:0:
256,192,32238,1,0,0:0:0:0:
256,192,32363,1,8,0:0:0:0:
256,192,32738,1,0,0:0:0:0:
256,192,32988,1,8,0:0:0:0:
256,192,33113,1,0,0:0:0:0:
256,192,33488,1,8,0:0:0:0:
256,192,33738,1,0,0:0:0:0:
256,192,33863,1,8,0:0:0:0:
256,192,34113,1,0,0:0:0:0:
256,192,34363,1,8,0:0:0:0:
256,192,34613,1,4,0:0:0:0:
256,192,34988,1,8,0:0:0:0:
256,192,35175,1,4,0:0:0:0:
256,192,35550,1,8,0:0:0:0:
256,192,35738,1,4,0:0:0:0:
256,192,36113,1,8,0:0:0:0:
256,192,36300,1,4,0:0:0:0:
256,192,36675,1,0,0:0:0:0:
256,192,36863,1,12,0:0:0:0:
256,192,37113,1,4,0:0:0:0:
256,192,37363,1,12,0:0:0:0:
256,192,37613,1,4,0:0:0:0:
256,192,39113,1,4,0:0:0:0:
256,192,39488,1,0,0:0:0:0:
256,192,39675,1,8,0:0:0:0:
256,192,39863,1,0,0:0:0:0:
256,192,40238,1,0,0:0:0:0:
256,192,40331,1,0,0:0:0:0:
256,192,40425,1,0,0:0:0:0:
256,192,40613,1,8,0:0:0:0:
256,192,40988,1,8,0:0:0:0:
256,192,41081,1,8,0:0:0:0:
256,192,41175,1,8,0:0:0:0:
256,192,41363,1,0,0:0:0:0:
256,192,41550,1,0,0:0:0:0:
256,192,41738,1,8,0:0:0:0:
256,192,42113,1,4,0:0:0:0:
256,192,42488,1,0,0:0:0:0:
256,192,42675,1,8,0:0:0:0:
256,192,42863,1,8,0:0:0:0:
256,192,43050,1,0,0:0:0:0:
256,192,43425,1,0,0:0:0:0:
256,192,43613,1,8,0:0:0:0:
256,192,43800,1,8,0:0:0:0:
256,192,43988,1,0,0:0:0:0:
256,192,44175,1,0,0:0:0:0:
256,192,44363,1,8,0:0:0:0:
256,192,44550,1,8,0:0:0:0:
256,192,44925,1,8,0:0:0:0:
256,192,45019,1,8,0:0:0:0:
256,192,45113,1,8,0:0:0:0:
256,192,45300,1,0,0:0:0:0:
256,192,45675,1,0,0:0:0:0:
256,192,45863,1,8,0:0:0:0:
256,192,46425,1,8,0:0:0:0:
256,192,46613,1,0,0:0:0:0:
256,192,46800,1,0,0:0:0:0:
256,192,47175,1,0,0:0:0:0:
256,192,47363,1,8,0:0:0:0:
256,192,47550,1,0,0:0:0:0:
256,192,47644,1,0,0:0:0:0:
256,192,47738,1,0,0:0:0:0:
256,192,47925,1,8,0:0:0:0:
256,192,48113,1,8,0:0:0:0:
256,192,48488,1,0,0:0:0:0:
256,192,48863,1,8,0:0:0:0:
256,192,49050,1,8,0:0:0:0:
256,192,49238,1,0,0:0:0:0:
256,192,49425,1,0,0:0:0:0:
256,192,49613,1,8,0:0:0:0:
256,192,49988,1,8,0:0:0:0:
256,192,50363,1,8,0:0:0:0:
256,192,50550,1,0,0:0:0:0:
256,192,50644,1,0,0:0:0:0:
256,192,50738,1,0,0:0:0:0:
256,192,50925,1,8,0:0:0:0:
256,192,51113,1,4,0:0:0:0:
256,192,51488,1,8,0:0:0:0:
256,192,51675,1,8,0:0:0:0:
256,192,51863,1,0,0:0:0:0:
256,192,52238,1,0,0:0:0:0:
256,192,52331,1,0,0:0:0:0:
256,192,52425,1,0,0:0:0:0:
256,192,52613,1,8,0:0:0:0:
256,192,52800,1,8,0:0:0:0:
256,192,52988,1,0,0:0:0:0:
256,192,53175,1,8,0:0:0:0:
256,192,53363,1,0,0:0:0:0:
256,192,53550,1,0,0:0:0:0:
256,192,54113,1,4,0:0:0:0:
256,192,54488,1,0,0:0:0:0:
256,192,54675,1,0,0:0:0:0:
256,192,54863,1,8,0:0:0:0:
256,192,55050,1,8,0:0:0:0:
256,192,55425,1,0,0:0:0:0:
256,192,55613,1,8,0:0:0:0:
256,192,55800,1,8,0:0:0:0:
256,192,55894,1,8,0:0:0:0:
256,192,55988,1,8,0:0:0:0:
256,192,56175,1,0,0:0:0:0:
256,192,56363,1,8,0:0:0:0:
256,192,56550,1,0,0:0:0:0:
256,192,56925,1,8,0:0:0:0:
256,192,57019,1,8,0:0:0:0:
256,192,57113,1,8,0:0:0:0:
256,192,57300,1,0,0:0:0:0:
256,192,57675,1,0,0:0:0:0:
256,192,57863,1,8,0:0:0:0:
256,192,58425,1,0,0:0:0:0:
256,192,58519,1,0,0:0:0:0:
256,192,58613,1,0,0:0:0:0:
256,192,58800,1,8,0:0:0:0:
256,192,59175,1,0,0:0:0:0:
256,192,59363,1,8,0:0:0:0:
256,192,59550,1,0,0:0:0:0:
256,192,59644,1,0,0:0:0:0:
256,192,59738,1,0,0:0:0:0:
256,192,59925,1,8,0:0:0:0:
256,192,60113,1,8,0:0:0:0:
256,192,60488,1,0,0:0:0:0:
256,192,60863,1,8,0:0:0:0:
256,192,61050,1,0,0:0:0:0:
256,192,61425,1,8,0:0:0:0:
256,192,61519,1,8,0:0:0:0:
256,192,61613,1,8,0:0:0:0:
256,192,63113,1,0,0:0:0:0:
256,192,63300,1,0,0:0:0:0:
256,192,63488,1,8,0:0:0:0:
256,192,63675,1,0,0:0:0:0:
256,192,63863,1,12,0:0:0:0:
256,192,64238,1,8,0:0:0:0:
256,192,64425,1,0,0:0:0:0:
256,192,64519,1,0,0:0:0:0:
256,192,64613,1,0,0:0:0:0:
256,192,64800,1,0,0:0:0:0:
256,192,64988,1,8,0:0:0:0:
256,192,65175,1,0,0:0:0:0:
256,192,65363,1,12,0:0:0:0:
256,192,65738,1,8,0:0:0:0:
256,192,65925,1,0,0:0:0:0:
256,192,66019,1,0,0:0:0:0:
256,192,66113,1,0,0:0:0:0:
256,192,66488,1,8,0:0:0:0:
256,192,67050,1,0,0:0:0:0:
256,192,67238,1,8,0:0:0:0:
256,192,67425,1,0,0:0:0:0:
256,192,67613,1,0,0:0:0:0:
256,192,67988,1,8,0:0:0:0:
256,192,68175,1,0,0:0:0:0:
256,192,68363,1,8,0:0:0:0:
256,192,68550,1,0,0:0:0:0:
256,192,68644,1,0,0:0:0:0:
256,192,68738,1,0,0:0:0:0:
256,192,68925,1,0,0:0:0:0:
256,192,69113,1,12,0:0:0:0:
256,192,69488,1,8,0:0:0:0:
256,192,69863,1,8,0:0:0:0:
261,197,70050,1,8,0:0:0:0:
261,197,70238,1,0,0:0:0:0:
256,192,70425,1,8,0:0:0:0:
260,197,70519,1,8,0:0:0:0:
256,192,70613,1,8,0:0:0:0:
256,192,70800,1,0,0:0:0:0:
256,192,70988,1,0,0:0:0:0:
256,192,71175,1,8,0:0:0:0:
256,192,71550,1,8,0:0:0:0:
256,192,71644,1,8,0:0:0:0:
256,192,71738,1,8,0:0:0:0:
256,192,71925,1,8,0:0:0:0:
256,192,72113,1,4,0:0:0:0:
256,192,73622,1,12,0:0:0:0:
256,192,75131,1,4,0:0:0:0:
256,192,75320,12,0,78150,0:0:0:0:
