osu file format v14

[General]
AudioFilename: audio.mp3
AudioLeadIn: 0
PreviewTime: 86947
Countdown: 0
SampleSet: Soft
StackLeniency: 0.7
Mode: 0
LetterboxInBreaks: 0
WidescreenStoryboard: 1

[Editor]
DistanceSpacing: 1
BeatDivisor: 4
GridSize: 4
TimelineZoom: 1

[Metadata]
Title:Roses (feat. ROZES)
TitleUnicode:Roses (feat. ROZES)
Artist:The Chainsmokers
ArtistUnicode:The Chainsmokers
Creator:cleangamer220
Version:Violets (feat. VIOLETZ)
Source:
Tags:bouquet 2015 disruptor columbia sony electronic
BeatmapID:1049202
BeatmapSetID:492503

[Difficulty]
HPDrainRate:5
CircleSize:4
OverallDifficulty:6
ApproachRate:7.5
SliderMultiplier:2.8
SliderTickRate:1

[Events]
//Background and Video events
0,0,"pkroses4.png",0,0
//Break Periods
//Storyboard Layer 0 (Background)
//Storyboard Layer 1 (Fail)
//Storyboard Layer 2 (Pass)
//Storyboard Layer 3 (Foreground)
//Storyboard Sound Samples

[TimingPoints]
550,600.000054016205,4,2,1,40,1,0
10150,-100,4,2,1,60,0,0
29350,-100,4,2,1,65,0,0
48550,-200,4,2,1,45,0,0
48700,-200,4,2,1,55,0,0
67750,-166.666666666667,4,2,1,65,0,0
77350,-142.857142857143,4,2,1,75,0,0
82150,-125,4,2,1,85,0,0
83350,-125,4,2,1,95,0,0
84400,-125,4,2,1,45,0,0
84550,-111.111111111111,4,2,1,55,0,0
86350,-100,4,2,1,55,0,0
86950,-80,4,2,1,75,0,1
96550,-200,4,2,1,75,0,1
97000,-80,4,2,1,75,0,1
106150,-100,4,2,1,65,0,0
115750,-100,4,2,1,70,0,0
125350,-66.6666666666667,4,2,1,75,0,1
125800,-80,4,2,1,75,0,1
142150,-100,4,2,1,65,0,0

[Colours]
Combo1 : 220,180,58
Combo2 : 255,128,128
Combo3 : 163,145,210
Combo4 : 116,140,43
SliderTrackOverride : 255,245,236

[HitObjects]
84,120,550,6,0,B|140:88|220:104|256:192|256:192|292:280|372:296|424:264,2,420,0|2|2,0:0|0:0|0:0,0:0:0:0:
256,60,2650,1,0,0:0:0:0:
428,120,2950,2,0,B|372:88|292:104|256:192|256:192|220:280|140:296|88:264,2,420,0|2|2,0:0|0:0|0:0,0:0:0:0:
360,288,5050,1,0,0:0:0:0:
360,288,5350,6,0,L|152:96,1,280
152,288,6250,2,0,L|360:96,1,280,2|0,0:0|0:0,0:0:0:0:
448,256,7150,1,2,0:0:0:0:
448,256,7450,1,0,0:0:0:0:
296,356,7750,6,0,B|296:216|296:216|296:112|352:96,1,280
162,96,8650,2,0,B|216:112|216:216|216:216|216:356,1,280,2|0,0:0|0:0,0:0:0:0:
216,354,9550,1,2,0:0:0:0:
216,354,9850,1,0,0:0:0:0:
132,328,10150,22,0,P|56:216|124:100,1,280,4|8,0:3|0:0,0:0:0:0:
256,60,11050,1,4,0:3:0:0:
392,96,11350,2,0,P|455:212|384:316,1,210
416,300,11950,1,8,0:0:0:0:
280,268,12250,1,0,0:0:0:0:
156,208,12550,2,0,P|220:133|322:144,1,210,4|4,0:3|0:3,0:0:0:0:
380,184,13150,6,0,B|453:185|453:185|509:149,1,140,8|4,0:0|0:3,0:0:0:0:
436,28,13750,2,0,B|363:27|363:27|307:63,1,140,4|0,0:3|0:0,0:0:0:0:
180,120,14350,2,0,P|264:188|420:136,2,280,8|4|8,0:0|0:3|0:0,0:0:0:0:
92,232,15850,6,0,P|140:288|152:352,1,140,4|0,0:3|0:0,0:0:0:0:
256,260,16450,1,0,0:0:0:0:
359,351,16750,2,0,P|372:288|420:232,1,140,8|0,0:0|0:0,0:0:0:0:
444,52,17350,2,0,B|352:92|352:92|240:80,1,210,4|4,0:3|0:3,0:0:0:0:
216,76,17950,1,8,0:0:0:0:
96,148,18250,1,4,0:3:0:0:
132,284,18550,2,0,B|208:272|256:332|256:332|304:272|380:284,2,280,4|8|4,0:3|0:0|0:3,0:0:0:0:
20,200,20350,22,0,L|67:68,1,140,8|4,0:0|0:3,0:0:0:0:
203,36,20950,2,0,L|159:169,1,140,0|0,0:3|0:0,0:0:0:0:
116,304,21550,1,8,0:0:0:0:
255,276,21850,2,0,L|294:141,2,140,0|4|0,0:3|0:3|0:0,0:0:0:0:
292,336,22600,2,0,P|328:328|360:340,1,70,4|8,0:3|0:0,0:0:0:0:
496,312,23050,1,4,0:3:0:0:
496,172,23350,2,0,P|372:244|328:152,1,280,4|8,0:3|0:0,0:0:0:0:
256,32,24250,1,0,0:0:0:0:
184,152,24550,2,0,P|110:253|32:220,1,210,4|0,0:3|0:0,0:0:0:0:
28,212,25150,1,8,0:0:0:0:
200,28,25450,5,4,0:3:0:0:
400,120,25750,2,0,B|332:92|332:92|312:28,1,140
200,28,26350,2,0,B|180:92|180:92|112:120,1,140,8|0,0:0|0:0,0:0:0:0:
165,327,26950,2,0,P|136:248|32:276,1,210,4|4,0:3|0:3,0:0:0:0:
96,308,27550,2,0,L|152:176,1,140,8|4,0:0|0:3,0:0:0:0:
220,56,28150,2,0,B|226:134|288:173|288:173|360:157|393:86,2,280,4|8|4,0:3|0:0|0:3,0:0:0:0:
92,108,29650,1,4,0:3:0:0:
92,108,29800,1,4,0:3:0:0:
92,108,29950,2,0,L|76:252,1,140,10|4,0:0|0:3,0:0:0:0:
200,312,30550,6,0,P|172:260|172:180,1,140
308,220,31150,1,10,0:0:0:0:
442,262,31450,2,0,P|447:193|416:132,1,140,0|4,0:0|0:3,0:0:0:0:
296,60,32050,1,4,0:3:0:0:
296,60,32200,1,4,0:3:0:0:
296,60,32350,2,0,L|312:200,1,140,10|4,0:0|0:3,0:0:0:0:
136,316,32950,21,4,0:3:0:0:
48,204,33250,2,0,B|96:172|96:172|128:96,1,140,0|10,0:0|0:0,0:0:0:0:
256,36,33850,1,0,0:0:0:0:
383,95,34150,2,0,B|415:171|415:171|463:203,1,140,4|4,0:3|0:3,0:0:0:0:
463,203,34600,1,4,0:3:0:0:
463,203,34750,1,10,0:0:0:0:
335,255,35050,2,0,P|236:336|127:255,1,280,4|0,0:3|0:0,0:3:0:0:
20,168,35950,2,0,P|119:87|228:168,1,280,10|4,0:0|0:3,0:3:0:0:
364,140,36850,5,4,0:3:0:0:
364,140,37000,1,4,0:3:0:0:
364,140,37150,2,0,P|440:156|492:124,1,140,10|4,0:0|0:3,0:0:0:0:
388,28,37750,1,4,0:3:0:0:
248,8,38050,1,0,0:0:0:0:
128,80,38350,2,0,B|177:110|148:174|148:174|119:238|169:269,1,210,10|0,0:0|0:0,0:0:0:0:
212,212,38950,2,0,P|232:127|220:72,1,140,4|4,0:3|0:3,0:0:0:0:
195,46,39400,1,4,0:3:0:0:
156,41,39550,2,0,P|93:71|49:124,1,140,8|4,0:0|0:3,0:0:0:0:
64,264,40150,5,0,0:0:0:0:
176,348,40450,1,0,0:0:0:0:
304,296,40750,1,10,0:0:0:0:
312,156,41050,2,0,B|288:220|288:220|216:240,1,140,0|4,0:0|0:3,0:0:0:0:
84,284,41650,1,4,0:3:0:0:
84,284,41800,1,4,0:3:0:0:
84,284,41950,2,0,P|152:308|180:368,1,140,10|4,0:0|0:3,0:0:0:0:
300,292,42550,21,4,0:3:0:0:
397,192,42850,1,0,0:0:0:0:
331,67,43150,1,10,0:0:0:0:
193,92,43450,2,0,P|168:144|184:224,1,140,0|4,0:0|0:3,0:0:0:0:
48,188,44050,1,4,0:3:0:0:
48,188,44200,1,4,0:3:0:0:
48,188,44350,1,10,0:0:0:0:
20,52,44650,2,0,B|120:152|120:152|260:164,1,280,4|0,0:3|0:0,0:0:0:0:
396,184,45550,2,0,P|380:96|344:68,1,140,10|0,0:0|0:0,0:0:0:0:
216,40,46150,5,4,0:3:0:0:
216,40,46450,1,0,0:0:0:0:
104,232,46750,1,10,0:0:0:0:
104,232,47050,1,0,0:0:0:0:
296,344,47350,1,0,0:0:0:0:
296,344,47650,1,0,0:0:0:0:
408,152,47950,2,0,P|283:150|223:94,1,210,10|0,0:0|0:0,0:0:0:0:
204,68,48550,6,0,P|101:192|204:316,1,350,4|0,0:0|0:0,0:0:0:0:
256,268,50350,1,2,0:0:0:0:
308,316,50650,1,0,0:0:0:0:
312,320,50950,2,0,P|332:244|296:200,1,140,0|2,0:0|0:0,0:0:0:0:
228,192,51850,1,0,0:0:0:0:
160,184,52150,2,0,P|122:128|144:64,1,140,0|2,0:0|0:0,0:0:0:0:
212,56,53050,1,0,0:0:0:0:
388,40,53350,22,0,L|404:108,1,70,0|2,0:0|0:0,0:0:0:0:
384,176,53800,1,0,0:0:0:0:
364,244,53950,2,0,L|380:312,2,70,0|2|0,0:0|0:0|0:0,0:0:0:0:
316,192,54700,1,0,0:0:0:0:
276,132,54850,2,0,L|260:64,2,70,0|2|0,0:0|0:0|0:0,0:0:0:0:
244,196,55600,1,0,0:0:0:0:
204,140,55750,6,0,L|188:72,1,70,0|2,0:0|0:0,0:0:0:0:
140,20,56200,1,0,0:0:0:0:
116,88,56350,2,0,L|132:156,2,70,0|2|0,0:0|0:0|0:0,0:0:0:0:
68,36,57100,1,0,0:0:0:0:
44,104,57250,2,0,L|60:172,2,70,0|2|0,0:0|0:0|0:0,0:0:0:0:
28,36,58000,1,0,0:0:0:0:
116,36,58150,6,0,B|212:0|256:104|256:104|300:0|396:36,1,350
428,96,59950,1,0,0:0:0:0:
408,164,60250,1,0,0:0:0:0:
408,164,60550,2,0,P|344:196|308:252,1,140
256,300,61450,1,0,0:0:0:0:
204,252,61750,2,0,P|166:194|104:164,1,140
40,132,62650,1,0,0:0:0:0:
332,268,62950,21,0,0:0:0:0:
208,236,63250,1,2,0:0:0:0:
180,228,63400,1,0,0:0:0:0:
152,220,63550,1,0,0:0:0:0:
152,220,63850,1,2,0:0:0:0:
241,128,64150,5,0,0:0:0:0:
262,108,64300,1,0,0:0:0:0:
283,87,64450,1,0,0:0:0:0:
283,87,64750,1,2,0:0:0:0:
318,211,65050,1,0,0:0:0:0:
325,239,65200,1,0,0:0:0:0:
332,268,65350,6,0,L|396:240,1,70
332,116,65950,2,0,L|304:52,1,70,2|0,0:0|0:0,0:0:0:0:
180,116,66550,2,0,L|116:144,1,70
180,268,67150,2,0,B|208:332|208:332|240:344,1,105,2|0,0:0|0:0,0:0:0:0:
324,360,67750,21,0,3:0:0:0:
328,352,68350,1,0,3:0:0:0:
424,124,68950,1,0,3:0:0:0:
416,120,69550,1,0,3:0:0:0:
188,24,70150,1,0,3:0:0:0:
184,32,70750,1,0,3:0:0:0:
88,260,71350,1,0,3:0:0:0:
96,264,71950,1,0,3:0:0:0:
324,256,72550,6,0,B|412:288|412:288|452:352,1,167.999994873047,0|0,3:0|3:0,0:0:0:0:
188,128,73750,2,0,B|100:96|100:96|60:32,1,167.999994873047,0|0,3:0|3:0,0:0:0:0:
290,296,74950,5,0,3:0:0:0:
255,143,75250,1,0,0:0:0:0:
220,296,75550,1,0,3:0:0:0:
319,174,75850,1,0,0:0:0:0:
177,240,76150,1,0,3:0:0:0:
335,242,76450,1,0,0:0:0:0:
193,172,76750,2,0,P|140:180|108:248,1,125.999996154785,0|0,3:0|0:0,0:0:0:0:
132,308,77350,21,0,3:0:0:0:
260,236,77650,2,0,P|284:180|280:144,1,97.9999970092774,0|0,3:0|3:0,0:0:0:0:
396,88,78250,2,0,P|372:144|376:180,1,97.9999970092774,0|0,3:0|3:0,0:0:0:0:
432,304,78850,1,0,3:0:0:0:
292,352,79150,1,0,3:0:0:0:
92,268,79450,1,0,3:0:0:0:
92,268,79600,1,0,0:0:0:0:
92,268,79750,6,0,P|100:224|80:172,1,97.9999970092774,0|0,3:0|3:0,0:0:0:0:
100,128,80200,1,0,0:0:0:0:
148,140,80350,2,0,P|192:148|244:128,1,97.9999970092774,0|0,3:0|3:0,0:0:0:0:
376,72,80950,1,0,3:0:0:0:
392,108,81100,1,0,0:0:0:0:
372,144,81250,1,0,3:0:0:0:
256,56,81550,1,0,3:0:0:0:
140,144,81850,1,0,3:0:0:0:
120,108,82000,1,0,0:0:0:0:
136,72,82150,6,0,L|192:68,1,56,0|0,3:0|3:0,0:0:0:0:
392,156,82450,2,0,L|336:152,1,56,0|0,3:0|3:0,0:0:0:0:
140,244,82750,2,0,L|196:240,1,56,0|0,3:0|3:0,0:0:0:0:
400,324,83050,2,0,L|344:320,1,56,0|0,3:0|3:0,0:0:0:0:
272,316,83350,1,0,3:0:0:0:
240,292,83500,1,0,3:0:0:0:
220,260,83650,1,0,3:0:0:0:
228,220,83800,1,0,3:0:0:0:
256,192,83950,1,0,3:0:0:0:
284,164,84100,1,0,3:0:0:0:
292,124,84250,21,0,3:0:0:0:
272,92,84400,1,0,0:0:0:0:
240,68,84550,1,0,0:0:0:0:
120,340,84850,1,0,0:0:0:0:
120,340,85000,1,0,0:0:0:0:
120,340,85150,2,0,P|76:264|88:232,1,125.999996154785
172,140,85750,1,0,0:0:0:0:
172,140,85900,1,0,0:0:0:0:
172,140,86050,1,0,0:0:0:0:
312,132,86350,6,0,P|320:240|376:324,1,210,12|0,0:0|0:0,0:0:0:0:
460,304,86950,22,0,P|488:196|380:84,1,262.5,4|0,0:3|0:0,0:0:0:0:
308,100,87550,2,0,B|256:28|256:28|204:100,1,175,10|4,0:0|0:3,0:0:0:0:
128,256,88150,2,0,B|216:256|256:360|256:360|296:256|384:256,1,350,0|10,0:0|0:0,0:0:0:0:
484,116,89050,1,0,0:0:0:0:
340,20,89350,2,0,B|316:96|344:188|344:188|296:196|256:228,1,262.5,4|4,0:3|0:3,0:0:0:0:
184,272,89950,2,0,P|108:300|16:296,2,175,10|4|4,0:0|0:3|0:3,0:0:0:0:
344,200,90850,1,0,0:0:0:0:
168,200,91150,1,10,0:0:0:0:
256,352,91450,1,0,0:0:0:0:
344,200,91750,6,0,P|256:119|168:200,1,262.5,4|0,0:3|0:0,0:0:0:0:
144,284,92350,1,10,0:0:0:0:
8,176,92650,1,4,0:3:0:0:
100,28,92950,2,0,B|196:4|256:80|256:80|316:4|412:28,1,350,0|10,0:0|0:0,0:0:0:0:
492,184,93850,2,0,B|437:152|391:186|391:186|362:124,2,175,0|4|0,0:0|0:3|0:0,0:0:0:0:
444,260,94600,1,4,0:3:0:0:
444,260,94750,1,10,0:0:0:0:
259,292,95050,2,0,B|269:229|325:216|325:216|296:155,2,175,4|4|0,0:3|0:3|0:0,0:0:0:0:
88,344,95950,1,10,0:0:0:0:
4,192,96250,1,0,0:0:0:0:
88,40,96550,6,0,P|112:64|180:76,1,105,4|0,0:3|0:0,0:0:0:0:
352,108,97150,6,0,B|396:106|417:156|417:156|469:140|497:175,1,175,10|4,0:0|0:3,0:0:0:0:
494,351,97750,2,0,B|388:359|371:254|371:254|279:308|219:224,1,350,0|10,0:0|0:0,0:0:0:0:
256,52,98650,2,0,P|328:108|300:184,1,175,0|4,0:0|0:3,0:0:0:0:
152,264,99250,1,0,0:0:0:0:
64,252,99400,1,4,0:3:0:0:
116,180,99550,1,10,0:0:0:0:
256,76,99850,2,0,B|188:128|188:128|216:168|200:212,2,175,4|4|0,0:3|0:3|0:0,0:0:0:0:
424,32,100750,1,10,0:0:0:0:
500,192,101050,1,0,0:0:0:0:
424,352,101350,6,0,B|436:296|496:288|496:288|404:220|404:220|444:148|392:104,1,262.5,4|0,0:3|0:0,0:0:0:0:
392,100,101950,1,10,0:0:0:0:
256,208,102250,1,4,0:3:0:0:
120,100,102550,2,0,B|68:148|108:220|108:220|16:288|16:288|76:296|88:352,1,350,0|10,0:0|0:0,0:0:0:0:
256,300,103450,1,0,0:0:0:0:
424,248,103750,5,0,0:0:0:0:
372,80,104050,1,0,0:0:0:0:
204,132,104350,1,10,0:0:0:0:
36,184,104650,1,0,0:0:0:0:
87,351,104950,1,0,0:0:0:0:
256,300,105250,1,0,0:0:0:0:
424,248,105550,2,0,P|256:300|172:176,1,350,10|4,0:0|0:3,0:0:0:0:
172,178,106750,5,10,0:0:0:0:
256,80,107050,1,4,0:3:0:0:
348,184,107350,2,0,B|368:256|304:312|304:312|440:344,1,280,0|8,0:0|0:0,0:0:0:0:
500,220,108250,1,0,0:0:0:0:
448,92,108550,2,0,P|360:44|244:92,1,210,4|4,0:3|0:3,0:0:0:0:
204,120,109150,2,0,B|148:164|148:164|80:152,2,140,8|4|4,0:0|0:3|0:3,0:0:0:0:
140,244,110050,1,0,0:0:0:0:
248,328,110350,2,0,B|267:271|332:280|332:280|397:288|415:232,1,210,4|0,0:0|0:0,0:0:0:0:
348,206,110950,6,0,P|343:83|464:103,1,280,4|8,0:3|0:0,0:0:0:0:
256,316,111850,1,4,0:3:0:0:
167,205,112150,2,0,P|169:83|48:104,1,280,0|8,0:0|0:0,0:0:0:0:
24,248,113050,2,0,L|120:140,1,140,0|4,0:0|0:3,0:0:0:0:
256,124,113650,1,0,0:0:0:0:
380,192,113950,1,8,0:0:0:0:
256,124,114250,1,0,0:0:0:0:
256,264,114550,1,0,0:0:0:0:
256,124,114850,1,0,0:0:0:0:
132,192,115150,2,0,P|256:264|248:308,1,210,8|0,0:0|0:0,0:0:0:0:
204,360,115750,22,0,L|344:332,1,140,4|8,0:3|0:0,0:0:0:0:
396,204,116350,1,12,0:0:0:0:
292,108,116650,2,0,L|155:135,1,140,4|8,0:3|0:0,0:0:0:0:
120,272,117250,2,0,L|258:244,1,140,8|12,0:0|0:0,0:0:0:0:
384,188,117850,2,0,L|336:200,2,35,8|0|8,0:0|0:0|0:0,0:0:0:0:
424,128,118150,2,0,P|388:64|320:56,1,140,4|8,0:3|0:0,0:0:0:0:
256,68,118600,1,4,0:3:0:0:
186,53,118750,2,0,P|119:67|88:128,1,140,12|4,0:0|0:3,0:0:0:0:
196,220,119350,2,0,B|256:184|256:184|316:220,1,140,4|8,0:3|0:0,0:0:0:0:
416,124,119950,2,0,B|356:160|356:160|296:124,1,140,12|8,0:0|0:0,0:0:0:0:
172,60,120550,6,0,P|128:124|72:152,1,140,4|8,0:3|0:0,0:0:0:0:
80,292,121150,2,0,P|124:228|180:200,1,140,12|4,0:0|0:3,0:0:0:0:
256,84,121750,1,8,0:0:0:0:
334,200,122050,2,0,P|395:233|432:292,1,140,8|12,0:0|0:0,0:0:0:0:
304,348,122650,2,0,L|332:372,2,35,8|0|8,0:0|0:0|0:0,0:0:0:0:
232,340,122950,5,0,0:0:0:0:
196,280,123250,1,8,0:0:0:0:
228,216,123550,1,4,0:0:0:0:
284,168,123850,1,8,0:0:0:0:
316,104,124150,1,0,0:0:0:0:
280,44,124450,1,8,0:0:0:0:
248,32,124600,1,8,0:0:0:0:
212,24,124750,2,0,B|104:20|140:168|40:132,1,210,12|0,0:0|0:0,0:0:0:0:
32,240,125350,6,0,B|172:256|220:120|220:120|272:168,1,315.000012016297,4|0,0:1|0:0,0:0:0:0:
336,228,125950,1,10,0:0:0:0:
336,228,126250,6,0,P|356:132|304:80,1,175,4|0,0:3|0:0,0:0:0:0:
308,81,127150,1,10,0:0:0:0:
136,120,127450,1,0,0:0:0:0:
76,284,127750,2,0,P|136:120|96:56,1,262.5,4|4,0:3|0:3,0:0:0:0:
8,44,128350,2,0,B|96:56|96:56|180:40,1,175,10|4,0:0|0:3,0:0:0:0:
320,148,128950,2,0,B|232:136|232:136|148:152,2,175,4|0|10,0:3|0:0|0:0,0:0:0:0:
456,260,129850,2,0,B|368:272|368:272|284:256,1,175,0|4,0:0|0:3,0:0:0:0:
284,255,130750,5,10,0:0:0:0:
112,276,131050,1,4,0:3:0:0:
52,112,131350,2,0,B|132:136|152:192|112:276|112:276|204:264|216:344,1,350,0|10,0:0|0:0,0:0:0:0:
256,172,132250,1,0,0:0:0:0:
296,344,132550,2,0,B|308:264|400:276|400:276|364:204|392:160,1,262.5,4|4,0:3|0:3,0:0:0:0:
460,112,133150,1,10,0:0:0:0:
308,28,133450,2,0,L|296:208,2,175,4|4|0,0:3|0:3|0:0,0:0:0:0:
160,120,134350,2,0,L|149:294,1,175,10|0,0:0|0:0,0:0:0:0:
476,168,134950,6,0,P|380:148|321:99,1,175,4|8,0:3|0:0,0:0:0:0:
163,28,135550,1,14,0:0:0:0:
246,182,135850,2,0,P|302:242|324:332,2,175,4|8|8,0:3|0:0|0:0,0:0:0:0:
84,112,136750,1,14,0:0:0:0:
84,112,137050,2,0,L|44:96,2,43.75,8|0|8,0:0|0:0|0:0,0:0:0:0:
164,144,137350,2,0,B|238:174|238:174|294:250,1,175,4|8,0:3|0:0,0:0:0:0:
382,262,137800,1,4,0:3:0:0:
350,182,137950,2,0,B|294:106|294:106|220:76,1,175,14|4,0:0|0:3,0:0:0:0:
46,46,138550,2,0,B|102:122|102:122|176:152,2,175,4|8|14,0:3|0:0|0:0,0:0:0:0:
46,46,139450,1,0,0:0:0:0:
46,46,139750,6,0,P|118:66|206:26,1,175,4|8,0:3|0:0,0:0:0:0:
380,40,140350,1,14,0:0:0:0:
444,204,140650,2,0,P|424:276|464:364,2,175,4|8|8,0:3|0:0|0:0,0:0:0:0:
392,36,141550,1,14,0:0:0:0:
392,36,141850,2,0,L|432:16,2,43.75,8|0|8,0:0|0:0|0:0,0:0:0:0:
356,96,142150,6,0,B|380:176|380:176|204:148|144:228|128:332|256:464|384:332|368:228|308:148|132:176|132:176|156:96,1,840,0|8,0:0|0:0,0:0:0:0:
256,0,144250,1,0,0:0:0:0:
