osu file format v14

[General]
AudioFilename: audio.mp3
AudioLeadIn: 0
PreviewTime: 86947
Countdown: 0
SampleSet: None
StackLeniency: 0.7
Mode: 0
LetterboxInBreaks: 0
WidescreenStoryboard: 0

[Editor]
DistanceSpacing: 1
BeatDivisor: 4
GridSize: 4
TimelineZoom: 1

[Metadata]
Title:Roses (feat. ROZES)
TitleUnicode:Roses (feat. ROZES)
Artist:The Chainsmokers
ArtistUnicode:The Chainsmokers
Creator:cleangamer220
Version:Normal
Source:
Tags:bouquet 2015 disruptor columbia sony electronic
BeatmapID:2042152
BeatmapSetID:492503

[Difficulty]
HPDrainRate:3
CircleSize:3
OverallDifficulty:4
ApproachRate:5
SliderMultiplier:1.8
SliderTickRate:2

[Events]
//Background and Video events
0,0,"pkroses4.png",0,0
//Break Periods
2,67747,80950
2,106350,114550
//Storyboard Layer 0 (Background)
//Storyboard Layer 1 (Fail)
//Storyboard Layer 2 (Pass)
//Storyboard Layer 3 (Foreground)
//Storyboard Sound Samples

[TimingPoints]
550,600.000054016205,4,2,1,60,1,0
29350,-100,4,2,1,65,0,0
48550,-100,4,2,1,45,0,0
48700,-100,4,2,1,55,0,0
82150,-100,4,2,1,85,0,0
84550,-100,4,2,1,45,0,0
86350,-100,4,2,1,55,0,0
86950,-100,4,2,1,75,0,1
106150,-100,4,2,1,65,0,0
115750,-100,4,2,1,70,0,0
125350,-100,4,2,1,75,0,1
142150,-100,4,2,1,65,0,0

[Colours]
Combo1 : 116,140,43
Combo2 : 255,128,128
Combo3 : 163,145,210
SliderTrackOverride : 255,245,236

[HitObjects]
212,320,10150,6,0,P|176:236|204:156,1,180,4|8,0:3|0:0,0:0:0:0:
256,84,11050,1,4,0:3:0:0:
308,156,11350,2,0,P|335:239|300:320,1,180,0|8,0:0|0:0,0:0:0:0:
392,320,12250,1,0,0:0:0:0:
420,236,12550,6,0,B|404:148|404:148|428:60,1,180,4|8,0:3|0:0,0:0:0:0:
352,12,13450,1,4,0:3:0:0:
264,12,13750,2,0,B|237:99|237:99|177:165,1,180,4|8,0:3|0:0,0:0:0:0:
40,280,14950,6,0,B|17:186|121:215|98:121,1,180,4|8,0:3|0:0,0:0:0:0:
12,140,15850,2,0,B|26:232|111:167|125:262,1,180,4|0,0:3|0:0,0:0:0:0:
212,288,16750,2,0,B|256:280|256:280|300:288,1,90,8|0,0:0|0:3,0:0:0:0:
386,262,17350,6,0,B|400:167|485:232|500:140,1,180,4|8,0:3|0:0,0:0:0:0:
472,56,18250,1,4,0:3:0:0:
412,124,18550,2,0,B|390:215|494:186|472:280,2,180,4|8|4,0:3|0:0|0:3,0:0:0:0:
236,92,20350,5,8,0:0:0:0:
208,176,20650,2,0,B|124:144|124:144|40:176,1,180,4|0,0:3|0:0,0:0:0:0:
80,256,21550,2,0,B|124:264|124:264|168:256,1,90,8|0,0:0|0:0,0:0:0:0:
256,244,22150,1,4,0:3:0:0:
344,256,22450,6,0,B|388:264|388:264|432:256,2,90,0|8|4,0:0|0:0|0:3,0:0:0:0:
304,176,23350,2,0,B|388:144|388:144|472:176,2,180,4|8|4,0:3|0:0|0:3,0:0:0:0:
408,324,25150,6,0,B|316:312,1,90,8|4,0:0|0:3,0:0:0:0:
256,248,25750,1,0,0:0:0:0:
193,312,26050,2,0,B|104:324,2,90,0|8|0,0:0|0:0|0:0,0:0:0:0:
184,224,26950,6,0,B|256:170|256:170|328:224,1,180,4|8,0:3|0:0,0:0:0:0:
412,260,27850,1,4,0:3:0:0:
336,312,28150,2,0,B|292:312|256:276|256:276|220:312|176:312,2,180,4|8|4,0:3|0:0|0:3,0:0:0:0:
408,148,29950,6,0,L|471:213,1,90,10|4,0:0|0:3,0:0:0:0:
382,239,30550,2,0,L|318:173,1,90
256,112,31150,1,10,0:0:0:0:
192,174,31450,2,0,L|130:239,1,90,0|4,0:0|0:3,0:0:0:0:
180,316,32050,6,0,P|256:275|332:316,1,180,0|4,0:0|0:3,0:0:0:0:
420,324,32950,2,0,L|460:148,1,180,4|10,0:3|0:0,0:3:0:0:
472,60,33850,1,0,0:0:0:0:
388,92,34150,1,4,0:3:0:0:
372,180,34450,6,0,P|304:124|316:40,2,180,0|4|0,0:0|0:3|0:0,0:0:0:0:
460,196,35950,2,0,P|408:260|312:244,1,180,10|4,0:0|0:3,0:0:0:0:
256,316,36850,1,0,0:0:0:0:
193,249,37150,6,0,P|108:261|52:196,1,180,10|4,0:0|0:3,0:0:0:0:
48,104,38050,1,0,0:0:0:0:
132,72,38350,2,0,B|199:47|234:128|302:104,2,180,10|4|10,0:0|0:3|0:0,0:0:0:0:
48,104,39850,5,4,0:3:0:0:
108,172,40150,2,0,L|192:212,1,90
252,276,40750,1,10,0:0:0:0:
322,210,41050,2,0,L|404:172,1,90,0|4,0:0|0:3,0:0:0:0:
400,264,41650,2,0,L|481:225,2,90,0|10|4,0:0|0:0|0:3,0:0:0:0:
340,332,42550,5,4,0:3:0:0:
256,304,42850,1,0,0:0:0:0:
172,336,43150,1,10,0:0:0:0:
96,288,43450,2,0,P|128:256|173:246,1,90,0|4,0:0|0:3,0:0:0:0:
168,156,44050,2,0,P|84:172|16:244,2,180,0|4|0,0:0|0:3|0:0,0:0:0:0:
256,132,45550,1,10,0:0:0:0:
380,260,46150,6,0,B|308:244|308:244|176:292|184:376|256:432|328:376|336:292|204:244|204:244|132:260,1,540,4|10,0:3|0:0,0:0:0:0:
88,84,48550,6,0,B|148:104|204:76|204:76|256:168|256:168|308:76|308:76|364:104|424:84,1,450,4|0,0:0|0:0,0:0:0:0:
488,148,50350,1,2,0:0:0:0:
464,236,50650,1,0,0:0:0:0:
464,236,50950,6,0,B|432:304|432:304|380:284|336:324,1,180,0|2,0:0|0:0,0:0:0:0:
256,280,51850,1,0,0:0:0:0:
176,324,52150,2,0,B|132:284|80:304|80:304|48:236,1,180,0|2,0:0|0:0,0:0:0:0:
32,148,53050,1,0,0:0:0:0:
104,92,53350,6,0,B|148:76|148:76|192:88,1,90,0|2,0:0|0:0,0:0:0:0:
272,124,53950,2,0,B|316:140|316:140|360:128,1,90,0|2,0:0|0:0,0:0:0:0:
440,92,54550,2,0,P|444:160|344:216,1,180,0|2,0:0|0:0,0:0:0:0:
272,236,55450,1,0,0:0:0:0:
196,188,55750,6,0,P|136:188|108:212,2,90,0|2|0,0:0|0:0|0:0,0:0:0:0:
272,236,56650,1,2,0:0:0:0:
348,284,56950,2,0,B|432:256|432:256|468:172,1,180,0|2,0:0|0:0,0:0:0:0:
464,80,57850,1,0,0:0:0:0:
380,44,58150,6,0,B|376:176|256:212|256:212|136:176|132:44,1,450
60,100,59950,1,2,0:0:0:0:
64,188,60250,1,0,0:0:0:0:
64,188,60550,6,0,B|124:208|148:268|148:268|172:324,1,180,0|2,0:0|0:0,0:0:0:0:
256,344,61450,1,0,0:0:0:0:
340,324,61750,2,0,B|364:268|364:268|388:208|448:188,1,180,0|2,0:0|0:0,0:0:0:0:
472,100,62650,1,0,0:0:0:0:
392,60,62950,6,0,L|300:48,1,90,0|2,0:0|0:0,0:0:0:0:
209,48,63550,2,0,L|120:60,1,90,0|2,0:0|0:0,0:0:0:0:
168,136,64150,2,0,B|256:124|256:124|348:136,1,180,0|2,0:0|0:0,0:0:0:0:
416,192,65050,1,0,0:0:0:0:
488,248,65350,6,0,B|404:332|332:216|256:348|256:348|180:216|108:332|24:248,1,540,0|2,0:0|0:0,0:0:0:0:
256,192,82150,12,0,84550,0:0:0:0:
256,60,86350,5,12,0:0:0:0:
372,196,86950,6,0,P|396:236|336:340,1,180,4|10,0:3|0:0,0:0:0:0:
256,296,87850,1,4,0:3:0:0:
175,339,88150,2,0,P|115:278|140:196,1,180,0|10,0:0|0:0,0:0:0:0:
192,120,89050,6,0,L|324:244,1,180
388,180,89950,1,10,0:0:0:0:
320,120,90250,2,0,L|188:243,2,180
384,56,91750,6,0,P|400:152|344:208,1,180,4|10,0:3|0:0,0:0:0:0:
256,200,92650,1,4,0:3:0:0:
164,177,92950,2,0,P|108:243|128:328,1,180,0|10,0:3|0:0,0:0:0:0:
216,320,93850,6,0,L|388:260,1,180
320,196,94750,1,10,0:0:0:0:
320,196,95050,2,0,B|359:111|288:116|300:24,1,180,4|0,0:3|0:0,0:0:0:0:
212,24,95950,2,0,B|224:116|153:111|192:196,1,180,4|0,0:3|0:0,0:0:0:0:
364,272,97150,6,0,P|408:267|448:247,1,90,10|4,0:0|0:3,0:0:0:0:
448,156,97750,2,0,B|361:130|361:130|301:197,1,180,0|10,0:0|0:0,0:0:0:0:
211,182,98650,6,0,B|151:249|151:249|64:223,1,180
73,135,99550,2,0,P|113:115|157:110,1,90,10|4,0:0|0:3,0:0:0:0:
244,88,100150,1,4,0:3:0:0:
332,68,100450,2,0,P|412:108|484:56,1,180
404,16,101350,6,0,L|420:196,1,180,4|10,0:3|0:0,0:0:0:0:
360,264,102250,1,4,0:3:0:0:
292,204,102550,2,0,B|312:184|340:176|340:176|328:40,2,180,0|10|0,0:0|0:0|0:0,0:0:0:0:
216,256,104050,6,0,P|160:264|128:256,1,90,0|10,0:0|0:0,0:0:0:0:
64,192,104650,1,0,0:0:0:0:
128,128,104950,2,0,P|184:120|216:128,1,90
300,160,105550,2,0,P|400:184|488:152,1,180,10|4,0:0|0:3,0:0:0:0:
396,304,115750,6,0,P|452:259|480:156,1,180,4|8,0:3|0:0,0:0:0:0:
460,72,116650,1,4,0:3:0:0:
376,100,116950,2,0,P|315:164|305:252,1,180,0|8,0:0|0:0,0:0:0:0:
256,328,117850,1,0,0:0:0:0:
206,252,118150,6,0,P|196:164|136:100,1,180,4|8,0:3|0:0,0:0:0:0:
52,72,119050,1,4,0:3:0:0:
31,158,119350,2,0,P|49:245|116:304,1,180,4|8,0:3|0:0,0:0:0:0:
200,272,120250,1,0,0:0:0:0:
168,188,120550,6,0,B|168:140|122:116|122:116|168:92|168:44,1,180,4|8,0:3|0:0,0:0:0:0:
256,20,121450,1,4,0:3:0:0:
344,44,121750,2,0,B|344:92|390:116|390:116|344:140|344:188,1,180,0|8,0:0|0:0,0:0:0:0:
256,212,122650,1,0,0:0:0:0:
168,236,122950,5,0,0:0:0:0:
92,288,123250,2,0,P|128:324|168:328,1,90,0|8,0:0|0:0,0:0:0:0:
256,316,123850,1,0,0:0:0:0:
346,328,124150,2,0,P|390:320|420:288,1,90
452,204,124750,1,8,0:0:0:0:
336,68,125350,6,0,B|296:88|296:88|256:64|256:64|216:88|216:88|176:68,1,180,4|10,0:1|0:0,0:0:0:0:
88,80,126250,1,4,0:3:0:0:
128,160,126550,2,0,B|156:200|156:200|208:200|208:200|196:288,1,180,0|10,0:0|0:0,0:0:0:0:
256,348,127450,1,0,0:0:0:0:
314,278,127750,6,0,B|304:200|304:200|356:200|356:200|384:160,2,180,4|10|4,0:3|0:0|0:3,0:0:0:0:
388,332,129250,1,0,0:0:0:0:
468,288,129550,1,8,0:0:0:0:
484,200,129850,6,0,B|436:160|436:160|384:160|384:160|332:116,1,180
256,76,130750,1,10,0:0:0:0:
256,168,131050,1,0,0:0:0:0:
179,117,131350,2,0,B|128:159|128:159|76:159|76:159|28:199,1,180,0|10,0:0|0:0,0:0:0:0:
108,240,132250,1,0,0:0:0:0:
192,276,132550,6,0,B|256:340|256:340|320:276,1,180,4|10,0:3|0:0,0:0:0:0:
320,188,133450,1,4,0:3:0:0:
256,124,133750,1,4,0:3:0:0:
192,187,134050,1,0,0:0:0:0:
128,124,134350,2,0,B|192:61|192:61|256:124,1,180,10|4,0:0|0:3,0:0:0:0:
320,188,135250,5,0,0:0:0:0:
384,124,135550,2,0,P|408:184|408:208,1,90,10|0,0:0|0:0,0:0:0:0:
340,268,136150,2,0,B|296:288|256:256|256:256|216:288|172:268,1,180,0|10,0:0|0:0,0:0:0:0:
120,192,137050,1,0,0:0:0:0:
172,116,137350,6,0,B|216:96|256:128|256:128|296:96|340:116,2,180,4|10|4,0:3|0:0|0:3,0:0:0:0:
84,124,138850,1,0,0:0:0:0:
100,212,139150,1,10,0:0:0:0:
48,284,139450,6,0,P|136:292|184:224,1,180
236,152,140350,1,10,0:0:0:0:
276,232,140650,1,4,0:3:0:0:
324,156,140950,2,0,P|374:86|460:95,1,180,0|10,0:0|0:0,0:0:0:0:
412,172,141850,1,0,0:0:0:0:
352,236,142150,6,0,P|268:216|243:134,1,180,4|8,0:3|0:0,0:0:0:0:
304,68,143050,1,4,0:3:0:0:
392,92,143350,1,4,0:3:0:0:
328,152,143650,2,0,P|264:216|180:192,1,180
