osu file format v14

[General]
AudioFilename: audio.mp3
AudioLeadIn: 0
PreviewTime: 86947
Countdown: 0
SampleSet: Soft
StackLeniency: 0.7
Mode: 0
LetterboxInBreaks: 0
WidescreenStoryboard: 1

[Editor]
DistanceSpacing: 1
BeatDivisor: 4
GridSize: 4
TimelineZoom: 1

[Metadata]
Title:Roses (feat. ROZES)
TitleUnicode:Roses (feat. ROZES)
Artist:The Chainsmokers
ArtistUnicode:The Chainsmokers
Creator:cleangamer220
Version:Advanced
Source:
Tags:bouquet 2015 disruptor columbia sony electronic
BeatmapID:1396734
BeatmapSetID:492503

[Difficulty]
HPDrainRate:4
CircleSize:3.5
OverallDifficulty:5
ApproachRate:6
SliderMultiplier:2.3
SliderTickRate:2

[Events]
//Background and Video events
0,0,"pkroses4.png",0,0
//Break Periods
2,67950,76300
2,106350,114700
//Storyboard Layer 0 (Background)
//Storyboard Layer 1 (Fail)
//Storyboard Layer 2 (Pass)
//Storyboard Layer 3 (Foreground)
//Storyboard Sound Samples

[TimingPoints]
550,600.000054016205,4,2,1,60,1,0
29350,-100,4,2,1,65,0,0
48550,-100,4,2,1,45,0,0
48700,-100,4,2,1,55,0,0
67750,-100,4,2,1,65,0,0
82150,-100,4,2,1,85,0,0
84550,-100,4,2,1,45,0,0
86350,-100,4,2,1,55,0,0
86950,-100,4,2,1,75,0,1
106150,-100,4,2,1,65,0,0
115750,-100,4,2,1,70,0,0
125350,-100,4,2,1,75,0,1
142150,-100,4,2,1,65,0,0

[Colours]
Combo1 : 116,140,43
Combo2 : 255,128,128
Combo3 : 163,145,210
SliderTrackOverride : 255,245,236

[HitObjects]
188,64,10150,6,0,P|200:188|160:284,1,230,4|8,0:3|0:0,0:0:0:0:
256,348,11050,1,4,0:3:0:0:
351,283,11350,2,0,P|310:177|324:64,1,230,0|8,0:0|0:0,0:0:0:0:
440,48,12250,1,0,0:0:0:0:
484,156,12550,2,0,B|520:200|520:200|504:256,2,115,4|0|8,0:3|0:0|0:0,0:0:0:0:
376,120,13450,1,4,0:3:0:0:
284,188,13750,2,0,B|268:244|268:244|304:288,1,115,4|0,0:3|0:0,0:0:0:0:
412,324,14350,2,0,P|304:288|200:328,1,230,8|4,0:0|0:3,0:0:0:0:
20,184,15550,5,8,0:0:0:0:
120,132,15850,2,0,B|72:28,1,115,4|0,0:3|0:0,0:0:0:0:
188,36,16450,2,0,B|236:140,1,115,0|8,0:0|0:0,0:0:0:0:
288,244,17050,1,0,0:0:0:0:
352,148,17350,2,0,B|304:44|304:44|376:72|412:32,1,230,4|8,0:3|0:0,0:0:0:0:
488,116,18250,1,4,0:3:0:0:
460,228,18550,2,0,P|360:192|264:256,2,230,4|8|4,0:3|0:0|0:3,0:0:0:0:
252,128,20350,5,8,0:0:0:0:
160,196,20650,1,4,0:3:0:0:
60,256,20950,2,0,P|48:164|56:144,1,115
155,85,21550,2,0,P|167:177|159:197,1,115,8|0,0:0|0:0,0:0:0:0:
256,260,22150,1,4,0:3:0:0:
352,195,22450,6,0,P|340:139|357:85,1,115,0|8,0:0|0:0,0:0:0:0:
460,32,23050,1,4,0:3:0:0:
456,145,23350,2,0,P|468:201|352:308,1,230,4|8,0:3|0:0,0:0:0:0:
256,248,24250,1,0,0:0:0:0:
157,308,24550,2,0,P|60:255|55:145,1,230,4|8,0:3|0:0,0:0:0:0:
132,60,25450,5,4,0:3:0:0:
240,96,25750,2,0,B|360:84,2,115,0|0|8,0:0|0:0|0:0,0:0:0:0:
164,180,26650,1,0,0:0:0:0:
276,200,26950,2,0,B|396:188|396:188|400:256|460:272,1,230,4|8,0:3|0:0,0:0:0:0:
360,336,27850,1,4,0:3:0:0:
248,316,28150,2,0,P|172:244|180:124,2,230,4|8|4,0:3|0:0|0:3,0:0:0:0:
360,336,29650,2,0,L|420:340,2,57.5,4|4|10,0:3|0:3|0:0,0:0:0:0:
248,316,30250,5,4,0:3:0:0:
140,276,30550,2,0,P|136:212|112:168,1,115
148,60,31150,1,10,0:0:0:0:
264,48,31450,2,0,L|384:40,1,115,0|4,0:0|0:3,0:0:0:0:
444,136,32050,2,0,L|504:132,2,57.5,4|4|10,0:3|0:3|0:0,0:0:0:0:
328,148,32650,1,4,0:3:0:0:
216,164,32950,6,0,P|196:216|148:252,1,115,4|0,0:3|0:0,0:0:0:0:
256,292,33550,1,10,0:0:0:0:
362,251,33850,2,0,P|316:216|296:164,1,115,0|4,0:0|0:3,0:0:0:0:
220,76,34450,2,0,L|160:80,2,57.5,4|4|10,0:3|0:3|0:0,0:0:0:0:
336,64,35050,2,0,B|400:116|400:116|344:184|372:256,1,230,4|0,0:3|0:0,0:0:0:0:
392,368,35950,2,0,P|281:329|258:225,1,230,10|4,0:0|0:3,0:0:0:0:
312,128,36850,6,0,L|368:152,2,57.5,4|4|10,0:3|0:3|0:0,0:0:0:0:
236,40,37450,2,0,B|180:64|180:64|128:52,1,115,4|4,0:3|0:3,0:0:0:0:
52,140,38050,1,0,0:0:0:0:
92,248,38350,2,0,B|136:224|156:200|164:152|164:152|268:176,1,230,10|4,0:0|0:3,0:0:0:0:
328,272,39250,2,0,L|396:256,2,57.5,4|4|10,0:3|0:3|0:0,0:0:0:0:
240,348,39850,5,4,0:3:0:0:
148,280,40150,2,0,P|116:228|72:200,1,115
112,92,40750,2,0,P|144:144|188:172,1,115,10|0,0:0|0:0,0:0:0:0:
304,188,41350,1,4,0:3:0:0:
412,232,41650,2,0,L|456:196,2,57.5,4|4|10,0:3|0:3|0:0,0:0:0:0:
480,324,42250,6,0,P|420:344|356:328,1,115,4|4,0:3|0:3,0:0:0:0:
256,320,42850,1,0,0:0:0:0:
141,335,43150,2,0,P|85:343|32:324,1,115,10|0,0:0|0:0,0:0:0:0:
80,220,43750,1,4,0:3:0:0:
192,240,44050,2,0,L|176:184,2,57.5,4|4|10,0:3|0:3|0:0,0:0:0:0:
296,288,44650,2,0,B|364:216|316:124|316:124|312:72,1,230,4|0,0:3|0:0,0:0:0:0:
200,72,45550,2,0,B|196:124|196:124|148:216|216:288,1,230,10|4,0:0|0:3,0:0:0:0:
324,244,46450,6,0,P|368:200|376:144,1,115,0|10,0:0|0:0,0:0:0:0:
267,107,47050,2,0,P|206:91|154:112,1,115
176,224,47650,2,0,P|193:284|237:319,1,115,0|10,0:0|0:0,0:0:0:0:
408,168,48550,6,0,B|176:200|196:60|256:60|256:60|316:60|336:200|104:168,1,575,4|0,0:0|0:0,0:0:0:0:
16,240,50350,1,2,0:0:0:0:
96,324,50650,1,0,0:0:0:0:
96,324,50950,2,0,P|196:336|188:236,1,230,0|2,0:0|0:0,0:0:0:0:
256,140,51850,1,0,0:0:0:0:
324,235,52150,2,0,P|316:336|416:324,1,230,0|2,0:0|0:0,0:0:0:0:
496,240,53050,1,0,0:0:0:0:
392,192,53350,5,0,0:0:0:0:
312,108,53650,2,0,L|308:48,2,57.5,2|0|0,0:0|0:0|0:0,0:0:0:0:
256,208,54250,1,2,0:0:0:0:
200,108,54550,2,0,L|204:48,2,57.5
120,192,55150,1,2,0:0:0:0:
200,276,55450,2,0,L|204:336,2,57.5
312,276,56050,6,0,L|308:333,2,57.5,2|0|0,0:0|0:0|0:0,0:0:0:0:
392,192,56650,1,2,0:0:0:0:
312,108,56950,2,0,L|308:48,2,57.5
256,208,57550,1,2,0:0:0:0:
200,108,57850,1,0,0:0:0:0:
120,192,58150,6,0,B|32:236|124:332|176:256|176:256|220:320|256:292|292:320|336:256|336:256|388:332|480:236|392:192,1,575
500,152,59950,1,2,0:0:0:0:
436,56,60250,1,0,0:0:0:0:
436,56,60550,2,0,P|336:56|308:168,1,230,0|2,0:0|0:0,0:0:0:0:
256,268,61450,1,0,0:0:0:0:
205,165,61750,2,0,P|182:61|76:56,1,230,0|2,0:0|0:0,0:0:0:0:
12,152,62650,1,0,0:0:0:0:
48,260,62950,5,0,0:0:0:0:
156,300,63250,2,0,L|108:332,2,57.5,2|0|0,0:0|0:0|0:0,0:0:0:0:
256,240,63850,1,2,0:0:0:0:
356,300,64150,2,0,L|408:332,2,57.5
256,240,64750,1,2,0:0:0:0:
188,148,65050,1,0,0:0:0:0:
224,40,65350,6,0,B|264:80|264:80|324:84,1,115
408,160,65950,2,0,B|368:200|368:200|364:260,1,115
288,344,66550,2,0,B|248:304|248:304|188:300,1,115
104,224,67150,2,0,B|144:184|144:184|148:124,1,115
224,40,67750,5,0,3:0:0:0:
156,56,77350,6,0,L|108:160,1,115,0|0,3:0|3:0,0:0:0:0:
176,252,77950,2,0,L|224:148,1,115,0|0,3:0|3:0,0:0:0:0:
340,136,78550,2,0,L|292:240,1,115,0|0,3:0|3:0,0:0:0:0:
360,332,79150,2,0,L|408:228,1,115,0|0,3:0|3:0,0:0:0:0:
468,128,79750,5,0,3:0:0:0:
380,56,80050,2,0,L|404:4,2,57.5,0|0|0,3:0|0:0|3:0,0:0:0:0:
284,116,80650,1,0,3:0:0:0:
180,168,80950,2,0,L|156:220,2,57.5,0|0|0,3:0|0:0|3:0,0:0:0:0:
220,60,81550,2,0,P|168:52|96:88,1,115,0|0,3:0|3:0,0:0:0:0:
256,192,82150,12,0,84550,0:0:0:0:
208,128,85150,6,0,B|256:96|256:96|304:128,1,115
384,212,85750,2,0,L|436:188,2,57.5
320,308,86350,1,12,0:0:0:0:
320,308,86950,6,0,P|264:336|152:240,1,230,4|10,0:3|0:0,0:0:0:0:
256,192,87850,1,4,0:3:0:0:
359,143,88150,2,0,P|298:54|192:76,1,230,0|10,0:0|0:0,0:0:0:0:
124,168,89050,1,0,0:0:0:0:
144,280,89350,2,0,B|232:268|232:268|280:296|280:296|364:284,2,230,4|10|4,0:3|0:0|0:3,0:0:0:0:
34,244,90850,1,0,0:0:0:0:
34,129,91150,1,10,0:0:0:0:
144,93,91450,1,0,0:0:0:0:
211,186,91750,6,0,B|268:132|252:64|252:64|336:108,1,230,4|10,0:3|0:0,0:0:0:0:
416,192,92650,1,4,0:3:0:0:
301,198,92950,2,0,B|244:252|260:320|260:320|176:276,1,230,0|10,0:3|0:0,0:0:0:0:
80,192,93850,1,0,0:0:0:0:
56,80,94150,2,0,P|128:12|240:68,1,230,4|10,0:3|0:0,0:0:0:0:
276,168,95050,1,4,0:3:0:0:
312,276,95350,2,0,P|368:316|412:316,1,115,4|0,0:3|0:0,0:0:0:0:
392,204,95950,2,0,P|459:192|490:161,2,115,10|0|4,0:0|0:0|0:3,0:0:0:0:
392,204,97150,6,0,P|324:215|293:246,1,115,10|4,0:0|0:3,0:0:0:0:
232,344,97750,2,0,B|176:284|176:284|116:280|116:280|56:216,1,230,0|10,0:0|0:0,0:0:0:0:
152,148,98650,2,0,P|136:92|160:40,2,115,0|4|0,0:0|0:3|0:0,0:0:0:0:
256,192,99550,1,10,0:0:0:0:
360,148,99850,2,0,P|376:92|352:40,2,115,4|4|0,0:3|0:3|0:0,0:0:0:0:
256,192,100750,1,10,0:0:0:0:
200,292,101050,1,0,0:0:0:0:
312,292,101350,6,0,B|368:264|368:200|368:200|360:80,1,230,4|8,0:3|0:0,0:0:0:0:
256,32,102250,1,4,0:3:0:0:
151,84,102550,2,0,B|144:200|144:200|144:264|200:292,1,230,0|10,0:0|0:0,0:0:0:0:
256,192,103450,1,0,0:0:0:0:
316,92,103750,2,0,P|372:92|388:144,1,115
356,252,104350,2,0,P|356:308|304:324,1,115,10|0,0:0|0:0,0:0:0:0:
196,292,104950,2,0,P|140:292|124:240,1,115
156,132,105550,2,0,P|156:76|244:136,1,230,10|4,0:0|0:3,0:0:0:0:
144,88,115750,6,0,B|144:120|144:120|144:164|180:196,1,115,4|8,0:3|0:0,0:0:0:0:
256,276,116350,1,12,0:0:0:0:
334,193,116650,2,0,B|368:164|368:120|368:120|368:88,2,115,4|8|8,0:3|0:0|0:0,0:0:0:0:
256,276,117550,1,12,0:0:0:0:
160,340,117850,2,0,L|216:352,2,57.5,8|8|4,0:0|0:0|0:3,0:0:0:0:
60,280,118450,1,8,0:0:0:0:
52,164,118750,2,0,B|104:136|104:136|160:136,1,115,12|4,0:0|0:3,0:0:0:0:
256,72,119350,1,4,0:3:0:0:
352,136,119650,2,0,B|408:136|408:136|460:164,2,115,8|12|8,0:0|0:0|0:0,0:0:0:0:
256,72,120550,6,0,L|256:188,1,115,4|8,0:3|0:0,0:0:0:0:
340,256,121150,1,12,0:0:0:0:
256,336,121450,1,4,0:3:0:0:
172,256,121750,1,8,0:0:0:0:
256,187,122050,2,0,L|256:72,1,115,8|12,0:0|0:0,0:0:0:0:
176,156,122650,2,0,L|176:96,2,57.5,8|8|4,0:0|0:0|0:3,0:0:0:0:
240,252,123250,5,8,0:0:0:0:
240,252,123550,1,4,0:0:0:0:
323,180,123850,1,8,0:0:0:0:
323,180,124150,1,0,0:0:0:0:
212,148,124450,1,8,0:0:0:0:
212,148,124750,2,0,B|180:196|180:196|212:248,1,115,12|0,0:0|0:0,0:0:0:0:
316,288,125350,6,0,B|360:268|356:212|328:192|328:192|356:172|360:116|316:96,1,230,4|10,0:1|0:0,0:0:0:0:
212,52,126250,2,0,P|200:116|220:160,1,115,4|0,0:3|0:0,0:0:0:0:
219,159,127150,1,10,0:0:0:0:
144,248,127450,1,0,0:0:0:0:
156,364,127750,2,0,B|256:308|256:308|356:364,1,230,4|10,0:3|0:0,0:0:0:0:
468,344,128650,1,4,0:3:0:0:
392,260,128950,2,0,B|332:224|332:224|388:144|340:76,1,230,4|10,0:3|0:0,0:0:0:0:
256,144,129850,1,0,0:0:0:0:
168,72,130150,6,0,B|120:140|176:220|176:220|116:256,1,230,4|10,0:3|0:0,0:0:0:0:
44,344,131050,1,4,0:3:0:0:
156,364,131350,2,0,P|256:316|356:364,1,230,0|10,0:0|0:0,0:0:0:0:
440,284,132250,1,0,0:0:0:0:
344,220,132550,2,0,B|288:204|256:148|256:148|224:204|168:220,1,230,4|10,0:3|0:0,0:0:0:0:
60,256,133450,2,0,P|60:184|84:144,2,115,4|4|0,0:3|0:3|0:0,0:0:0:0:
152,328,134350,2,0,P|176:276|172:219,1,115,10|0,0:0|0:0,0:0:0:0:
80,147,134950,6,0,B|75:90|75:90|104:40,1,115,4|8,0:3|0:0,0:0:0:0:
188,112,135550,1,12,0:0:0:0:
276,184,135850,2,0,B|298:131|298:131|292:72,2,115,4|8|8,0:3|0:0|0:0,0:0:0:0:
300,296,136750,1,12,0:0:0:0:
404,344,137050,2,0,L|392:284,2,57.5,8|8|4,0:0|0:0|0:3,0:0:0:0:
496,276,137650,1,8,0:0:0:0:
460,168,137950,2,0,P|416:144|352:140,1,115,12|4,0:0|0:3,0:0:0:0:
256,72,138550,1,4,0:3:0:0:
160,139,138850,2,0,P|96:144|52:167,2,115,8|12|8,0:0|0:0|0:0,0:0:0:0:
256,72,139750,6,0,P|276:128|268:184,1,115,4|8,0:3|0:0,0:0:0:0:
204,276,140350,1,12,0:0:0:0:
300,344,140650,1,4,0:3:0:0:
372,252,140950,1,8,0:0:0:0:
268,181,141250,2,0,P|320:136|372:124,1,115,8|12,0:0|0:0,0:0:0:0:
476,144,141850,2,0,L|496:88,2,57.5,8|8|4,0:0|0:0|0:3,0:0:0:0:
436,252,142450,6,0,P|373:238|337:203,1,115,0|8,0:0|0:0,0:0:0:0:
256,124,143050,1,4,0:3:0:0:
256,240,143350,1,4,0:3:0:0:
176,156,143650,2,0,P|120:165|67:145,1,115,0|8,0:0|0:0,0:0:0:0:
132,48,144250,1,0,0:0:0:0:
