osu file format v14

[General]
AudioFilename: Roses The Chainsmokers Ft Rozes __ Lyrics.mp3
AudioLeadIn: 0
PreviewTime: -1
Countdown: 1
SampleSet: None
StackLeniency: 0.7
Mode: 0
LetterboxInBreaks: 1
WidescreenStoryboard: 1

[Editor]
DistanceSpacing: 1
BeatDivisor: 4
GridSize: 4
TimelineZoom: 1.5

[Metadata]
Title:Roses
TitleUnicode:Roses
Artist:The Chainsmokers
ArtistUnicode:The Chainsmokers
Creator:Bulldog
Version:Normal
Source:
Tags:Chainsmokers, Electronica
BeatmapID:965659
BeatmapSetID:410432

[Difficulty]
HPDrainRate:4
CircleSize:3
OverallDifficulty:6
ApproachRate:7
SliderMultiplier:2
SliderTickRate:1

[Events]
//Background and Video events
0,0,"roses_hd_widescreen-wide.jpg",0,0
//Break Periods
//Storyboard Layer 0 (Background)
//Storyboard Layer 1 (Fail)
//Storyboard Layer 2 (Pass)
//Storyboard Layer 3 (Foreground)
//Storyboard Sound Samples

[TimingPoints]
1360,600,4,1,0,100,1,0
87784,-66.6666666666667,4,1,0,100,0,1
106984,-66.6666666666667,4,1,0,100,0,0
126184,-66.6666666666667,4,1,0,100,0,1
145384,-100,4,1,0,100,0,0
183784,-66.6666666666667,4,1,0,100,0,1
202984,-66.6666666666667,4,1,0,100,0,0

[HitObjects]
108,92,1360,6,0,P|232:92|288:152,1,200
340,220,2260,1,0,0:0:0:0:
388,308,2560,2,0,P|288:328|212:248,1,200
252,72,3760,6,0,P|192:72|88:156,1,200
160,228,4660,1,0,0:0:0:0:
92,300,4960,2,0,P|168:356|280:336,1,200
260,132,6160,6,0,P|212:88|72:120,1,200
56,200,7060,1,0,0:0:0:0:
76,300,7360,2,0,L|288:220,1,200
440,56,8560,6,0,P|352:72|304:184,1,200
392,212,9460,1,0,0:0:0:0:
400,312,9760,2,0,L|264:288,1,100
204,308,10360,2,0,L|168:196,1,100
60,100,10960,6,0,P|164:40|248:64,1,200
248,160,11860,1,0,0:0:0:0:
332,104,12160,2,0,P|368:180|320:292,1,200
160,176,13360,6,0,P|205:133|349:105,1,200
428,128,14260,1,0,0:0:0:0:
416,236,14560,2,0,L|336:312,1,100
312,212,15160,2,0,L|220:140,1,100
160,84,15760,1,0,0:0:0:0:
116,280,16360,6,0,P|220:352|300:344,1,200
248,256,17260,2,0,P|280:184|312:160,1,100
348,256,17860,1,0,0:0:0:0:
444,228,18160,2,0,P|408:80|360:64,1,200
316,144,19060,1,0,0:0:0:0:
240,80,19360,2,0,L|100:240,1,200
108,230,20560,5,0,0:0:0:0:
292,304,21160,1,0,0:0:0:0:
364,232,21460,2,0,P|392:180|392:120,1,100
348,52,22060,2,0,L|240:48,1,100
148,48,22660,1,0,0:0:0:0:
112,132,22960,6,0,P|116:240|192:292,1,200
216,196,23860,1,0,0:0:0:0:
184,290,24160,2,0,P|288:280|344:192,1,200
152,140,25360,5,0,0:0:0:0:
348,100,25960,1,0,0:0:0:0:
280,172,26260,2,0,P|300:236|340:268,1,100
408,312,26860,1,0,0:0:0:0:
312,332,27160,2,0,L|200:312,1,100
120,284,27760,1,0,0:0:0:0:
196,100,28360,6,0,B|208:136|252:152|268:192,1,100
352,152,28960,2,0,B|360:192|320:220|304:268,1,100
212,244,29560,2,0,L|208:360,1,100
124,292,30160,1,0,0:0:0:0:
324,72,31060,5,0,0:0:0:0:
224,80,31360,2,0,P|144:104|68:192,1,200
168,200,32260,1,0,0:0:0:0:
104,280,32560,2,0,L|-8:332,2,100
188,228,33460,5,0,0:0:0:0:
260,296,33760,2,0,P|308:172|396:136,1,200
376,240,34660,1,0,0:0:0:0:
288,288,34960,2,0,L|264:392,2,100
304,188,35860,5,0,0:0:0:0:
212,148,36160,1,0,0:0:0:0:
312,148,36460,1,0,0:0:0:0:
216,116,36760,1,0,0:0:0:0:
316,112,37060,1,0,0:0:0:0:
408,152,37360,6,0,P|388:232|352:260,1,100
280,220,37960,2,0,B|260:268|176:292,1,100
108,268,38560,2,0,P|116:168|236:132,1,200
