osu file format v14

[General]
AudioFilename: Roses The Chainsmokers Ft Rozes __ Lyrics.mp3
AudioLeadIn: 0
PreviewTime: 73360
Countdown: 0
SampleSet: Soft
StackLeniency: 0.7
Mode: 0
LetterboxInBreaks: 1
WidescreenStoryboard: 1

[Editor]
DistanceSpacing: 2.5
BeatDivisor: 4
GridSize: 4
TimelineZoom: 0.7999998

[Metadata]
Title:Roses
TitleUnicode:Roses
Artist:The Chainsmokers
ArtistUnicode:The Chainsmokers
Creator:Bulldog
Version:Let Go
Source:
Tags:Chainsmokers, Electronica
BeatmapID:965658
BeatmapSetID:410432

[Difficulty]
HPDrainRate:6
CircleSize:4
OverallDifficulty:8
ApproachRate:9
SliderMultiplier:2.79999990463257
SliderTickRate:1

[Events]
//Background and Video events
0,0,"roses_hd_widescreen-wide.jpg",0,0
//Break Periods
//Storyboard Layer 0 (Background)
//Storyboard Layer 1 (Fail)
//Storyboard Layer 2 (Pass)
//Storyboard Layer 3 (Foreground)
//Storyboard Sound Samples

[TimingPoints]
1360,600,4,2,0,100,1,0
87760,-100,4,2,0,100,0,1
89860,-76.9230769230769,4,2,0,100,0,1
93460,-100,4,2,0,100,0,1
94660,-76.9230769230769,4,2,0,100,0,1
102160,-100,4,2,0,100,0,1
103660,-76.9230769230769,4,2,0,100,0,1
106960,-76.9230769230769,4,2,0,100,0,0
118660,-76.9230769230769,4,2,0,100,0,1
126160,-76.9230769230769,4,2,0,100,0,1
131860,-100,4,2,0,100,0,1
132460,-76.9230769230769,4,2,0,100,0,1
141460,-100,4,2,0,100,0,1
142960,-76.9230769230769,4,2,0,100,0,1
145360,-100,4,2,0,100,0,0
183760,-100,4,2,0,100,0,1
185260,-76.9230769230769,4,2,0,100,0,1
185860,-76.9230769230769,4,2,0,100,0,1
188860,-76.9230769230769,4,2,0,100,0,1
190060,-76.9230769230769,4,2,0,100,0,1
198160,-100,4,2,0,100,0,1
199660,-76.9230769230769,4,2,0,100,0,1
202960,-76.9230769230769,4,2,0,100,0,0
207760,-100,4,2,0,100,0,0
210160,-76.9230769230769,4,2,0,100,0,0
212560,-100,4,2,0,100,0,0
214960,-76.9230769230769,4,2,0,100,0,0
217360,-100,4,2,0,100,0,0
219760,-76.9230769230769,4,2,0,100,0,0

[Colours]
Combo1 : 255,255,255
Combo2 : 255,0,0
Combo3 : 255,0,255
Combo4 : 255,128,192

[HitObjects]
320,76,1360,6,0,P|384:124|416:188,1,139.999995231629
260,184,1960,1,0,0:0:0:0:
316,328,2260,2,0,L|184:252,1,139.999995231629
272,124,2860,2,0,L|404:196,1,139.999995231629
316,324,3460,2,0,P|252:324|176:272,1,139.999995231629
284,168,4060,5,0,0:0:0:0:
212,32,4360,1,0,0:0:0:0:
108,148,4660,2,0,L|248:96,1,139.999995231629
456,196,5260,2,0,L|312:268,1,139.999995231629
176,256,5860,1,0,0:0:0:0:
192,104,6160,5,0,0:0:0:0:
344,92,6460,1,0,0:0:0:0:
300,240,6760,1,0,0:0:0:0:
260,92,7060,2,0,P|208:36|147:29,1,139.999995231629
176,112,7660,2,0,P|108:164|108:224,1,139.999995231629
188,196,8260,2,0,P|188:268|248:316,1,139.999995231629
388,84,8860,5,0,0:0:0:0:
216,304,9160,1,0,0:0:0:0:
388,84,9460,2,0,L|308:200,1,139.999995231628
152,292,10060,2,0,L|232:164,1,139.999995231628
404,128,10660,2,0,P|360:60|288:36,1,139.999995231629,0|8,3:0|3:0,3:0:0:0:
252,180,11260,1,0,0:0:0:0:
112,240,11560,5,8,0:0:0:0:
368,208,11860,2,0,P|352:288|296:336,1,139.999995231629,8|0,3:0|3:0,3:0:0:0:
268,232,12460,1,0,0:0:0:0:
212,88,12760,1,8,0:0:0:0:
360,48,13060,1,0,3:0:0:0:
412,304,13360,6,0,P|340:336|239:259,1,209.999992847443,8|0,3:0|3:0,3:0:0:0:
224,236,13960,1,0,0:0:0:0:
352,164,14260,1,0,0:0:0:0:
224,112,14560,2,0,P|180:72|96:76,1,139.999995231628,8|0,3:0|0:0,0:0:0:0:
144,164,15160,2,0,P|76:184|68:296,1,139.999995231629,8|0,0:0|0:0,0:0:0:0:
152,264,15760,2,0,P|236:272|336:184,1,209.999992847443
340,168,16360,1,0,0:0:0:0:
252,48,16660,6,0,P|160:72|136:108,1,139.999995231629
96,292,17260,1,0,0:0:0:0:
304,256,17560,1,8,0:0:0:0:
340,84,17860,1,0,0:0:0:0:
463,125,18160,2,0,P|461:197|336:244,1,209.999992847443
308,232,18760,1,8,0:0:0:0:
181,327,19060,1,0,0:0:0:0:
27,185,19360,6,0,L|66:335,1,139.999995231629,8|0,3:0|3:0,3:0:0:0:
328,344,19960,2,0,L|281:212,1,139.999995231629,8|0,0:0|0:0,0:0:0:0:
400,112,20560,2,0,P|284:56|244:52,1,139.999995231629
80,100,21160,5,8,0:0:0:0:
228,284,21460,2,0,P|324:268|352:232,1,139.999995231628,0|8,3:0|3:0,3:0:0:0:
460,28,22060,1,0,0:0:0:0:
224,68,22360,1,8,0:0:0:0:
408,220,22660,1,0,0:0:0:0:
276,296,22960,2,0,B|204:220|204:220|128:200|128:128,1,209.999992847443
128,120,23560,2,8,B|148:60|148:60|240:28,1,139.999995231629,8|0,0:0|0:0,0:0:0:0:
382,205,24160,2,0,L|518:277,1,139.999995231628,8|0,3:0|3:0,3:0:0:0:
366,311,24760,2,0,B|309:354|309:354|230:354,1,139.999995231629,8|0,0:0|0:0,0:0:0:0:
38,249,25360,2,0,P|107:289|194:255,1,139.999995231629
388,80,25960,5,8,0:0:0:0:
164,164,26260,2,0,P|144:240|184:300,1,139.999995231628,8|0,3:0|3:0,3:0:0:0:
332,116,26860,1,0,0:0:0:0:
368,352,27160,1,8,0:0:0:0:
172,239,27460,1,0,0:0:0:0:
223,153,27760,2,0,P|124:136|78:251,1,209.999992847443
72,276,28360,1,8,0:0:0:0:
248,348,28660,1,0,0:0:0:0:
396,240,28960,2,0,L|332:88,1,139.999995231628,8|0,3:0|3:0,3:0:0:0:
96,136,29560,2,0,L|152:272,1,139.999995231628,8|0,0:0|0:0,0:0:0:0:
420,196,30160,6,0,P|476:140|504:80,2,139.999995231629,0|0|8,0:0|0:0|0:0,0:0:0:0:
220,68,31060,1,0,0:0:0:0:
136,292,31360,1,0,0:0:0:0:
328,312,31660,2,0,P|368:248|372:184,1,139.999995231629,0|8,0:0|0:0,0:0:0:0:
372,44,32260,1,0,0:0:0:0:
240,224,32560,2,0,L|148:344,2,139.999995231628,0|0|8,0:0|0:0|0:0,0:0:0:0:
384,56,33460,5,0,0:0:0:0:
152,40,33760,1,0,0:0:0:0:
52,208,34060,2,0,P|92:288|144:300,1,139.999995231629,0|8,0:0|0:0,0:0:0:0:
296,288,34660,1,0,0:0:0:0:
144,152,34960,2,0,L|96:16,2,139.999995231629,0|0|8,3:0|3:0|3:0,3:0:0:0:
164,328,35860,5,0,0:0:0:0:
336,180,36160,1,0,0:0:0:0:
124,72,36460,1,0,0:0:0:0:
184,300,36760,1,8,0:0:0:0:
380,168,37060,1,0,0:0:0:0:
164,72,37360,6,0,P|96:112|80:184,1,139.999995231628
72,200,37810,1,0,0:0:0:0:
72,240,37960,2,0,P|100:316|156:328,1,139.999995231628,8|0,0:0|0:0,0:0:0:0:
232,264,38560,1,0,0:0:0:0:
296,40,38860,1,0,0:0:0:0:
436,216,39160,1,8,0:0:0:0:
268,132,39460,2,0,P|192:92|136:100,1,139.999995231628
88,272,40060,2,0,L|12:260,2,69.9999976158142,0|0|8,3:0|3:0|3:0,3:0:0:0:
200,320,40660,2,0,P|276:360|332:352,1,139.999995231628
492,180,41260,5,0,0:0:0:0:
256,232,41560,1,8,0:0:0:0:
372,328,41860,2,0,P|416:280|420:196,1,139.999995231629
312,96,42460,2,0,L|312:24,2,69.9999976158143,0|0|8,3:0|3:0|3:0,3:0:0:0:
96,188,43060,6,0,P|100:272|132:320,1,139.999995231629
308,104,43660,1,0,0:0:0:0:
328,340,43960,1,8,0:0:0:0:
492,168,44260,2,0,L|348:204,1,139.999995231628
140,300,44860,2,0,L|80:356,2,69.9999976158142,0|0|8,3:0|3:0|3:0,3:0:0:0:
304,128,45460,2,0,L|372:4,1,139.999995231628
172,136,46060,1,0,0:0:0:0:
384,244,46360,1,8,0:0:0:0:
148,248,46660,6,0,P|68:236|24:168,1,139.999995231628
96,48,47260,2,0,L|8:24,2,69.9999976158142,0|0|8,3:0|3:0|3:0,3:0:0:0:
260,88,47860,1,0,0:0:0:0:
408,120,48160,6,0,P|428:196|388:272,1,139.999995231628
328,192,48760,2,0,P|308:252|236:304,1,139.999995231629,8|0,0:0|0:0,0:0:0:0:
144,304,49360,2,0,P|80:268|52:204,1,139.999995231629
48,180,49810,1,0,0:0:0:0:
56,128,49960,2,0,P|112:84|204:108,1,139.999995231629
216,124,50410,1,0,0:0:0:0:
256,156,50560,2,0,P|360:152|408:96,1,139.999995231629
312,76,51160,5,0,0:0:0:0:
272,336,51460,2,0,L|352:292,1,69.9999976158142
400,264,51760,1,0,0:0:0:0:
268,124,52060,2,0,L|268:216,1,69.9999976158142
268,272,52360,1,0,0:0:0:0:
384,208,52660,2,0,L|420:144,1,69.9999976158142
440,72,52960,6,0,P|376:8|316:24,1,139.999995231628
168,112,53560,2,0,L|96:76,2,69.9999976158142
296,172,54160,5,0,0:0:0:0:
95,329,54460,1,0,0:0:0:0:
176,261,54610,1,0,0:0:0:0:
88,196,54760,1,0,0:0:0:0:
395,187,55060,5,0,0:0:0:0:
187,195,55360,1,0,0:0:0:0:
291,191,55510,1,0,0:0:0:0:
299,295,55660,1,0,0:0:0:0:
123,91,55960,5,0,0:0:0:0:
331,95,56260,1,0,0:0:0:0:
291,191,56410,1,0,0:0:0:0:
191,155,56560,1,0,0:0:0:0:
56,50,56860,1,0,0:0:0:0:
0,138,57010,1,0,0:0:0:0:
80,206,57160,1,0,0:0:0:0:
340,292,57460,5,0,0:0:0:0:
388,88,57760,1,0,0:0:0:0:
284,88,57910,1,0,0:0:0:0:
240,184,58060,1,0,0:0:0:0:
380,320,58360,5,0,0:0:0:0:
172,288,58660,1,0,0:0:0:0:
68,268,58810,1,0,0:0:0:0:
48,152,58960,2,0,L|96:84,1,69.9999976158142
264,92,59260,2,0,L|216:160,1,69.9999976158142
188,228,59560,2,0,P|212:288|300:292,1,139.999995231629
332,280,60010,1,0,0:0:0:0:
364,236,60160,2,0,P|360:168|268:124,1,139.999995231629
160,184,60760,6,0,L|80:164,2,69.9999976158142
228,204,61210,1,0,0:0:0:0:
296,220,61360,1,0,0:0:0:0:
436,232,61660,1,0,0:0:0:0:
436,232,61810,1,0,0:0:0:0:
436,232,61960,1,0,0:0:0:0:
368,108,62260,5,0,0:0:0:0:
292,120,62410,1,0,0:0:0:0:
252,184,62560,2,0,P|256:264|304:304,1,139.999995231628
404,196,63160,2,0,P|424:140|408:104,1,69.9999976158142
419,123,63460,1,0,0:0:0:0:
256,72,63760,5,0,0:0:0:0:
128,256,64060,1,0,0:0:0:0:
292,296,64210,1,0,0:0:0:0:
396,164,64360,1,0,0:0:0:0:
76,68,64660,5,0,0:0:0:0:
352,256,64960,1,0,0:0:0:0:
236,136,65110,1,0,0:0:0:0:
88,216,65260,1,0,0:0:0:0:
280,192,65560,5,0,0:0:0:0:
112,268,65860,1,0,0:0:0:0:
88,164,66010,1,0,0:0:0:0:
160,88,66160,1,0,0:0:0:0:
220,216,66460,1,0,0:0:0:0:
288,136,66610,1,0,0:0:0:0:
388,168,66760,1,0,0:0:0:0:
256,300,67060,5,0,0:0:0:0:
400,136,67360,1,0,0:0:0:0:
268,32,67510,1,0,0:0:0:0:
168,164,67660,1,0,0:0:0:0:
456,340,67960,5,0,0:0:0:0:
216,108,68260,1,0,0:0:0:0:
224,276,68410,1,0,0:0:0:0:
392,268,68560,1,0,0:0:0:0:
408,112,68860,6,0,L|320:96,1,69.9999976158142
264,88,69160,1,0,0:0:0:0:
152,232,69460,1,0,0:0:0:0:
108,72,69760,2,0,L|32:48,2,69.9999976158142
176,104,70210,2,0,L|240:160,1,69.9999976158142
320,240,70660,2,0,P|336:308|264:364,1,139.999995231628
112,268,71260,5,0,0:0:0:0:
184,192,71410,1,0,0:0:0:0:
100,132,71560,1,0,0:0:0:0:
288,36,71860,5,0,0:0:0:0:
348,192,72160,1,0,0:0:0:0:
216,104,72310,1,0,0:0:0:0:
188,248,72460,1,0,0:0:0:0:
420,344,72760,5,0,0:0:0:0:
280,128,73060,1,0,0:0:0:0:
352,244,73210,1,0,0:0:0:0:
452,168,73360,1,0,0:0:0:0:
368,116,73660,6,0,L|292:76,1,69.9999976158142
240,48,73960,1,0,0:0:0:0:
112,120,74260,1,0,0:0:0:0:
180,256,74560,2,0,L|252:292,2,69.9999976158142
124,208,75010,2,0,L|124:128,1,69.9999976158142
232,32,75460,1,0,0:0:0:0:
376,88,75760,6,0,P|412:160|388:240,1,139.999995231628
312,184,76360,2,0,P|300:260|252:300,1,139.999995231628
216,216,76960,2,0,P|144:252|68:240,1,139.999995231629
44,112,77560,2,0,P|88:80|212:80,1,139.999995231629
424,52,78160,5,0,0:0:0:0:
272,240,78460,1,0,0:0:0:0:
116,144,78610,1,0,0:0:0:0:
88,320,78760,1,0,0:0:0:0:
296,60,79060,5,0,0:0:0:0:
472,184,79360,1,0,0:0:0:0:
292,216,79510,1,0,0:0:0:0:
404,360,79660,1,0,0:0:0:0:
380,56,79960,5,0,0:0:0:0:
128,188,80260,1,0,0:0:0:0:
188,60,80410,1,0,0:0:0:0:
328,60,80560,1,0,0:0:0:0:
204,312,80860,1,0,0:0:0:0:
308,220,81010,1,0,0:0:0:0:
424,296,81160,1,0,0:0:0:0:
64,96,81460,5,0,0:0:0:0:
180,296,81760,1,0,0:0:0:0:
300,160,81910,1,0,0:0:0:0:
440,276,82060,1,0,0:0:0:0:
132,52,82360,5,0,0:0:0:0:
384,100,82660,1,0,0:0:0:0:
312,268,82810,1,0,0:0:0:0:
140,212,82960,1,0,0:0:0:0:
268,72,83260,5,0,0:0:0:0:
296,172,83410,1,0,0:0:0:0:
240,260,83560,1,0,0:0:0:0:
140,284,83710,1,0,0:0:0:0:
56,220,83860,1,0,0:0:0:0:
92,120,84010,1,0,0:0:0:0:
140,184,84160,6,0,L|164:268,1,69.9999976158142
220,236,84460,2,0,L|264:308,1,69.9999976158142
304,248,84760,2,0,L|372:300,1,69.9999976158142
364,220,85060,2,0,L|444:224,1,69.9999976158142
452,72,85360,5,0,0:0:0:0:
184,264,85660,1,0,0:0:0:0:
288,72,85810,1,0,0:0:0:0:
88,96,85960,1,0,0:0:0:0:
352,272,86260,5,0,0:0:0:0:
248,60,86560,1,0,0:0:0:0:
216,300,86710,1,0,0:0:0:0:
428,152,86860,1,0,0:0:0:0:
256,192,87160,5,8,0:0:0:0:
80,64,87760,6,0,P|200:92|280:244,1,279.999990463257,0|8,0:0|0:0,0:0:0:0:
136,208,88660,1,0,0:0:0:0:
384,132,88960,2,0,P|388:256|272:356,1,279.999990463257,0|8,0:0|0:0,0:0:0:0:
68,88,89860,6,0,L|184:260,1,181.999985469819
208,56,90460,1,0,0:0:0:0:
256,296,90760,1,0,0:0:0:0:
452,76,91060,2,0,L|304:244,1,181.999991668702
236,48,91660,1,0,0:0:0:0:
116,280,91960,1,8,0:0:0:0:
396,180,92260,2,0,P|280:200|224:272,1,181.999985469819
360,312,93160,5,8,0:0:0:0:
148,312,93460,2,0,P|140:216|192:144,1,139.999995231629
224,44,94060,1,0,0:0:0:0:
276,256,94360,1,8,0:0:0:0:
120,80,94660,6,0,P|220:56|296:96,1,181.999985469819
424,196,95260,1,0,0:0:0:0:
224,260,95560,1,8,0:0:0:0:
376,360,95860,6,0,P|336:208|276:156,1,181.999985469819
140,56,96460,1,0,0:0:0:0:
144,240,96760,1,8,0:0:0:0:
288,64,97060,1,0,0:0:0:0:
164,308,97360,6,0,B|224:296|328:248|288:164|288:164|368:160|392:80,1,363.999983337403,0|8,0:0|0:0,0:0:0:0:
146,119,98260,1,0,0:0:0:0:
428,302,98560,2,0,P|276:274|144:112,1,363.999983337403,0|8,0:0|0:0,0:0:0:0:
344,32,99460,1,0,0:0:0:0:
96,300,99760,2,0,P|197:338|280:280,1,181.999985469819
364,188,100360,1,8,0:0:0:0:
176,208,100660,2,0,P|113:153|152:48,1,181.999985469819
312,96,101260,1,0,0:0:0:0:
308,288,101560,1,8,0:0:0:0:
104,324,101860,1,0,0:0:0:0:
104,152,102160,6,8,P|204:76|372:100,1,279.999990463257
472,160,103060,1,0,0:0:0:0:
452,324,103360,2,0,P|360:236|208:232,1,279.999990463257
312,328,104260,1,0,0:0:0:0:
400,136,104560,2,0,P|304:48|240:56,1,181.999985469819
304,156,105160,2,0,P|216:164|140:240,1,181.999985469819
284,256,105760,2,0,P|396:296|464:248,1,181.999985469819
352,108,106360,1,8,0:0:0:0:
128,208,106660,2,0,P|152:116|227:55,1,181.999985469819
428,32,107560,6,0,L|360:220,1,181.999991668702
292,348,108160,1,0,0:0:0:0:
72,112,108460,1,0,0:0:0:0:
172,188,108610,1,0,0:0:0:0:
220,60,108760,1,0,0:0:0:0:
344,304,109060,5,0,0:0:0:0:
384,164,109360,2,0,P|353:85|231:51,1,181.999985469819
232,44,109810,1,0,0:0:0:0:
188,48,109960,2,0,L|88:216,1,181.999985469819
200,344,110560,1,0,0:0:0:0:
416,192,110860,1,0,0:0:0:0:
336,336,111160,1,0,0:0:0:0:
344,71,111460,1,0,0:0:0:0:
124,312,111760,6,0,P|184:144|364:72,1,363.999983337403
344,264,112660,1,0,0:0:0:0:
80,132,112960,1,0,0:0:0:0:
400,64,113260,5,0,0:0:0:0:
368,188,113410,1,0,0:0:0:0:
260,104,113560,1,0,0:0:0:0:
60,288,113860,1,0,0:0:0:0:
256,192,114160,2,0,L|464:144,1,181.999991668702
449,110,114610,1,0,0:0:0:0:
463,68,114760,2,0,L|255:112,1,181.999991668702
56,328,115360,5,0,0:0:0:0:
364,200,115660,1,0,0:0:0:0:
248,340,115960,1,0,0:0:0:0:
128,100,116260,1,0,0:0:0:0:
72,328,116560,6,0,P|176:176|372:188,1,363.999983337403
172,76,117460,1,0,0:0:0:0:
276,304,117760,1,0,0:0:0:0:
380,76,118060,1,0,0:0:0:0:
316,208,118210,1,0,0:0:0:0:
200,116,118360,1,0,0:0:0:0:
384,108,118660,2,0,L|448:68,2,45.4999963674547
352,132,118960,6,0,L|196:232,1,181.999985469819
152,260,119410,1,0,0:0:0:0:
92,240,119560,1,0,0:0:0:0:
204,36,119860,1,0,0:0:0:0:
381,174,120160,2,0,L|241:330,1,181.999991668702
232,152,120760,2,0,L|28:180,1,181.999991668702
384,304,121360,6,0,P|196:248|128:64,1,363.999983337403
360,72,122260,1,0,0:0:0:0:
120,308,122560,1,0,0:0:0:0:
452,252,122860,1,0,0:0:0:0:
328,332,123010,1,0,0:0:0:0:
296,204,123160,1,0,0:0:0:0:
460,52,123460,1,0,0:0:0:0:
252,64,123760,6,0,P|148:108|128:180,1,181.999985469819
232,152,124360,2,0,P|332:192|348:280,1,181.999985469819
256,252,124960,2,0,P|160:232|104:140,1,181.999985469819
216,160,125560,1,0,0:0:0:0:
68,72,126160,6,0,B|252:88|252:88|184:184|300:224,1,363.999983337403
368,128,127060,1,0,0:0:0:0:
148,292,127360,1,0,0:0:0:0:
140,80,127960,5,0,0:0:0:0:
264,76,128260,2,0,P|320:136|292:248,1,181.999991668702
240,324,129160,1,0,0:0:0:0:
56,92,129760,6,0,L|120:288,1,181.999991668702
456,92,130360,6,0,L|384:296,1,181.999991668702
216,60,130960,6,0,B|324:80|352:192|256:192|188:192|188:304|312:332,1,363.999983337403
432,176,131860,2,0,P|392:268|360:288,1,139.999995231629
256,44,132760,1,0,0:0:0:0:
432,196,133060,2,0,P|448:280|356:360,1,181.999991668702
176,172,133960,2,0,L|32:56,2,181.999985469819
464,96,134860,2,0,P|360:156|320:228,1,181.999985469819
312,332,135460,5,0,0:0:0:0:
456,332,135760,2,0,P|364:108|260:68,1,363.999983337403
256,248,136660,1,0,0:0:0:0:
456,32,136960,1,0,0:0:0:0:
183,197,137560,5,0,0:0:0:0:
256,67,137860,2,0,P|344:123|366:220,1,181.999985469819
372,292,138760,1,0,0:0:0:0:
332,356,139360,6,0,L|144:292,1,181.999991668702
364,16,139960,2,0,L|176:96,1,181.999991668702
116,216,140560,6,0,B|144:124|256:96|256:192|256:280|368:260|408:136,1,363.999983337403
464,308,141460,2,0,P|412:360|328:344,1,139.999995231629
260,32,142360,5,0,0:0:0:0:
100,192,142660,1,0,0:0:0:0:
304,104,142960,2,0,P|376:168|380:284,1,181.999991668702
156,184,143560,2,0,P|184:292|272:332,1,181.999991668702
256,80,144160,2,0,L|408:224,1,181.999991668702
124,192,144760,2,0,L|268:344,1,181.999991668702
240,36,145360,6,0,L|344:140,1,140
352,168,145810,1,0,0:0:0:0:
352,200,145960,2,0,L|252:304,1,140
224,328,146410,1,0,0:0:0:0:
200,344,146560,2,0,P|124:292|128:240,1,140
360,64,147160,1,8,0:0:0:0:
84,244,147460,6,0,L|132:184,1,70
168,132,147760,1,0,0:0:0:0:
284,208,148060,2,0,L|284:280,1,70
284,348,148360,1,8,0:0:0:0:
476,216,148660,6,0,L|432:136,1,70
404,104,148960,2,0,P|368:56|288:24,1,140
192,68,149560,2,0,L|120:32,2,70
256,328,150160,5,0,0:0:0:0:
128,112,150460,1,0,0:0:0:0:
144,244,150610,1,0,0:0:0:0:
268,196,150760,1,0,0:0:0:0:
396,272,151060,5,0,0:0:0:0:
220,60,151360,1,0,0:0:0:0:
324,132,151510,1,0,0:0:0:0:
384,16,151660,1,0,0:0:0:0:
440,264,151960,5,0,0:0:0:0:
168,132,152260,1,0,0:0:0:0:
168,264,152410,1,0,0:0:0:0:
296,304,152560,1,0,0:0:0:0:
280,200,152860,1,0,0:0:0:0:
412,176,153010,1,0,0:0:0:0:
472,56,153160,1,0,0:0:0:0:
300,52,153460,5,0,0:0:0:0:
52,216,153760,1,0,0:0:0:0:
224,176,153910,1,0,0:0:0:0:
188,348,154060,1,0,0:0:0:0:
360,44,154360,5,0,0:0:0:0:
84,144,154660,1,0,0:0:0:0:
60,272,154810,1,0,0:0:0:0:
188,304,154960,2,0,L|256:248,1,69.9999976158143
284,216,155260,1,0,0:0:0:0:
304,156,155410,1,0,0:0:0:0:
312,100,155560,2,0,P|356:84|460:112,1,139.999995231629
476,128,156010,1,0,0:0:0:0:
496,148,156160,2,0,P|508:228|464:268,1,140
376,176,156760,5,0,0:0:0:0:
340,132,156910,1,0,0:0:0:0:
288,108,157060,1,0,0:0:0:0:
232,116,157210,1,0,0:0:0:0:
192,152,157360,1,0,0:0:0:0:
260,296,157660,5,0,0:0:0:0:
312,276,157810,1,0,0:0:0:0:
360,252,157960,2,0,P|392:208|360:116,1,140
344,80,158410,1,0,0:0:0:0:
292,60,158560,2,0,L|148:76,1,140
116,240,159160,2,0,L|48:196,2,70
240,308,159760,5,0,0:0:0:0:
204,108,160060,1,0,0:0:0:0:
336,212,160210,1,0,0:0:0:0:
292,48,160360,1,0,0:0:0:0:
444,56,160660,5,0,0:0:0:0:
356,284,160960,1,0,0:0:0:0:
224,180,161110,1,0,0:0:0:0:
272,340,161260,1,0,0:0:0:0:
216,36,161560,5,0,0:0:0:0:
412,144,161860,1,0,0:0:0:0:
380,316,162010,1,0,0:0:0:0:
204,304,162160,1,0,0:0:0:0:
316,204,162460,1,0,0:0:0:0:
140,220,162610,1,0,0:0:0:0:
68,60,162760,1,0,0:0:0:0:
464,44,163060,5,0,0:0:0:0:
256,160,163360,1,0,0:0:0:0:
268,356,163510,1,0,0:0:0:0:
84,292,163660,1,0,0:0:0:0:
400,52,163960,5,0,0:0:0:0:
280,272,164260,1,0,0:0:0:0:
144,288,164410,1,0,0:0:0:0:
80,184,164560,1,0,0:0:0:0:
116,64,164860,6,0,L|196:108,1,70
212,116,165160,1,0,0:0:0:0:
184,288,165460,1,0,0:0:0:0:
336,296,165760,2,0,L|412:324,2,70
304,264,166210,2,0,L|276:176,1,70
188,64,166660,5,0,0:0:0:0:
72,168,166810,1,0,0:0:0:0:
152,300,166960,1,0,0:0:0:0:
216,188,167260,1,0,0:0:0:0:
348,268,167410,1,0,0:0:0:0:
452,156,167560,1,0,0:0:0:0:
72,192,167860,5,0,0:0:0:0:
408,48,168160,1,0,0:0:0:0:
252,212,168310,1,0,0:0:0:0:
496,140,168460,1,0,0:0:0:0:
96,56,168760,5,0,0:0:0:0:
344,316,169060,1,0,0:0:0:0:
104,200,169210,1,0,0:0:0:0:
224,368,169360,1,0,0:0:0:0:
112,72,169660,6,0,L|184:128,1,70
208,144,169960,1,0,0:0:0:0:
412,64,170260,1,0,0:0:0:0:
384,256,170560,2,0,L|408:324,2,69.9999976158143
360,204,171010,2,0,L|300:140,1,69.9999976158143
232,72,171460,1,0,0:0:0:0:
432,112,171760,6,0,P|468:184|444:264,1,140
364,200,172360,2,0,P|352:276|304:316,1,140
264,232,172960,2,0,P|204:268|112:268,1,139.999995231629
84,140,173560,2,0,P|148:88|208:72,1,139.999995231629
432,60,174160,5,0,0:0:0:0:
204,288,174460,1,0,0:0:0:0:
268,124,174610,1,0,0:0:0:0:
104,188,174760,1,0,0:0:0:0:
416,348,175060,5,0,0:0:0:0:
252,40,175360,1,0,0:0:0:0:
92,116,175510,1,0,0:0:0:0:
120,288,175660,1,0,0:0:0:0:
408,88,175960,5,0,0:0:0:0:
64,148,176260,1,0,0:0:0:0:
164,292,176410,1,0,0:0:0:0:
336,260,176560,1,0,0:0:0:0:
184,164,176860,1,0,0:0:0:0:
356,188,177010,1,0,0:0:0:0:
456,44,177160,1,0,0:0:0:0:
108,56,177460,5,0,0:0:0:0:
444,156,177760,1,0,0:0:0:0:
292,244,177910,1,0,0:0:0:0:
428,352,178060,1,0,0:0:0:0:
112,76,178360,5,0,0:0:0:0:
336,328,178660,1,0,0:0:0:0:
332,112,178810,1,0,0:0:0:0:
148,220,178960,1,0,0:0:0:0:
104,76,179260,5,0,0:0:0:0:
196,72,179410,1,0,0:0:0:0:
284,100,179560,1,0,0:0:0:0:
340,172,179710,1,0,0:0:0:0:
364,260,179860,1,0,0:0:0:0:
380,348,180010,1,0,0:0:0:0:
312,328,180160,6,0,L|228:288,1,70
288,248,180460,2,0,L|220:184,1,70
304,172,180760,2,0,L|264:96,1,70
340,108,181060,2,0,L|340:32,1,70
452,72,181360,5,0,0:0:0:0:
176,308,181660,1,0,0:0:0:0:
304,80,181810,1,0,0:0:0:0:
40,100,181960,1,0,0:0:0:0:
360,336,182260,5,0,0:0:0:0:
224,64,182560,1,0,0:0:0:0:
160,312,182710,1,0,0:0:0:0:
416,216,182860,1,0,0:0:0:0:
256,192,183160,5,8,0:0:0:0:
100,312,183760,6,0,P|156:120|268:60,1,279.999990463257
424,136,184660,1,0,0:0:0:0:
264,180,184960,2,0,P|271:225|376:300,1,139.999995231629
436,196,185560,5,0,0:0:0:0:
192,56,185860,2,0,P|104:128|64:204,1,181.999985469819
156,356,186460,1,0,0:0:0:0:
300,152,186760,1,0,0:0:0:0:
384,340,187060,2,0,P|440:224|432:144,1,181.999985469819
256,48,187660,1,0,0:0:0:0:
184,296,187960,1,0,0:0:0:0:
80,216,188260,6,0,P|176:144|276:160,1,181.999985469819
213,311,189160,5,0,0:0:0:0:
396,224,189460,2,0,P|388:112|312:64,1,181.999985469819
160,272,190360,1,0,0:0:0:0:
64,72,190660,6,0,P|208:48|288:96,1,181.999985469819
428,176,191260,1,0,0:0:0:0:
172,232,191560,1,0,0:0:0:0:
344,332,191860,2,0,P|308:148|280:136,1,181.999985469819
132,64,192460,1,0,0:0:0:0:
228,276,192760,1,0,0:0:0:0:
448,180,193060,1,0,0:0:0:0:
280,80,193360,6,0,B|190:101|109:127|149:211|149:211|88:204|60:252|92:308,1,363.999983337403
352,272,194260,1,0,0:0:0:0:
84,82,194560,2,0,P|236:110|356:312,1,363.999983337403
176,216,195460,1,0,0:0:0:0:
152,340,195760,6,0,P|80:288|60:142,1,181.999985469819
56,148,196210,1,0,0:0:0:0:
76,104,196360,2,0,P|160:80|248:136,1,181.999985469819
432,284,196960,1,0,0:0:0:0:
328,144,197260,2,0,L|368:44,2,90.9999927349095
320,312,197860,1,0,0:0:0:0:
464,48,198160,6,0,P|300:88|220:168,1,279.999990463257
396,212,199060,1,0,0:0:0:0:
288,296,199360,2,0,P|180:304|128:280,1,139.999995231629
332,68,199960,5,0,0:0:0:0:
208,184,200260,1,0,0:0:0:0:
392,176,200560,2,0,L|256:308,1,181.999985469819
256,64,201160,2,0,L|104:200,1,181.999991668702
380,195,201760,6,0,P|288:243|196:235,1,181.999985469819
56,120,202360,1,0,0:0:0:0:
256,86,202660,2,0,P|360:138|376:230,1,181.999985469819
152,212,203560,6,0,P|64:268|28:364,1,181.999991668702
256,340,204160,1,0,0:0:0:0:
72,112,204460,1,0,0:0:0:0:
172,188,204610,1,0,0:0:0:0:
296,156,204760,1,0,0:0:0:0:
424,308,205060,5,0,0:0:0:0:
384,164,205360,2,0,P|321:62|240:52,1,181.999985469819
216,56,205810,1,0,0:0:0:0:
168,88,205960,2,0,P|88:128|44:216,1,181.999985469819
220,244,206560,1,0,0:0:0:0:
444,352,206860,1,0,0:0:0:0:
400,92,207160,1,0,0:0:0:0:
328,324,207460,1,0,0:0:0:0:
92,320,207760,6,0,B|124:216|188:256|188:256|276:144,1,279.999990463257
344,264,208660,1,0,0:0:0:0:
80,132,208960,1,0,0:0:0:0:
400,64,209260,5,0,0:0:0:0:
368,188,209410,1,0,0:0:0:0:
252,240,209560,1,0,0:0:0:0:
68,92,209860,1,0,0:0:0:0:
164,328,210160,2,0,P|268:340|356:264,1,181.999985469819
352,248,210610,1,0,0:0:0:0:
368,192,210760,2,0,P|352:104|256:64,1,181.999985469819
132,228,211360,5,0,0:0:0:0:
364,200,211660,1,0,0:0:0:0:
320,312,211960,1,0,0:0:0:0:
200,72,212260,1,0,0:0:0:0:
440,56,212560,6,0,P|400:176|240:208,1,279.999990463257
264,88,213460,1,0,0:0:0:0:
360,308,213760,1,0,0:0:0:0:
112,316,214060,1,0,0:0:0:0:
156,192,214210,1,0,0:0:0:0:
272,256,214360,1,0,0:0:0:0:
456,88,214660,5,0,0:0:0:0:
336,60,214960,2,0,L|168:164,1,181.999991668702
152,176,215410,1,0,0:0:0:0:
112,204,215560,2,0,P|73:282|120:355,1,181.999985469819
296,188,216160,2,0,P|238:274|143:267,1,181.999985469819
264,40,216760,2,0,P|196:116|204:196,1,181.999985469819
384,304,217360,6,0,B|264:244|264:244|272:136|152:152,1,279.999990463257
360,72,218260,1,0,0:0:0:0:
120,308,218560,1,0,0:0:0:0:
452,252,218860,1,0,0:0:0:0:
336,328,219010,1,0,0:0:0:0:
272,208,219160,1,0,0:0:0:0:
460,52,219460,1,0,0:0:0:0:
136,80,219760,6,0,P|256:144|344:80,1,181.999985469819
480,168,220360,2,0,P|416:244|276:248,1,181.999985469819
112,176,220960,2,0,P|160:300|248:324,1,181.999985469819
