osu file format v14

[General]
AudioFilename: Roses The Chainsmokers Ft Rozes __ Lyrics.mp3
AudioLeadIn: 0
PreviewTime: -1
Countdown: 1
SampleSet: None
StackLeniency: 0.7
Mode: 0
LetterboxInBreaks: 1
WidescreenStoryboard: 1

[Editor]
DistanceSpacing: 1.5
BeatDivisor: 4
GridSize: 4
TimelineZoom: 1.5

[Metadata]
Title:Roses
TitleUnicode:Roses
Artist:The Chainsmokers
ArtistUnicode:The Chainsmokers
Creator:Bulldog
Version:Hard
Source:
Tags:Chainsmokers, Electronica
BeatmapID:965656
BeatmapSetID:410432

[Difficulty]
HPDrainRate:5
CircleSize:4
OverallDifficulty:6
ApproachRate:8
SliderMultiplier:2.60000000596047
SliderTickRate:1

[Events]
//Background and Video events
0,0,"roses_hd_widescreen-wide.jpg",0,0
//Break Periods
//Storyboard Layer 0 (Background)
//Storyboard Layer 1 (Fail)
//Storyboard Layer 2 (Pass)
//Storyboard Layer 3 (Foreground)
//Storyboard Sound Samples

[TimingPoints]
1360,600,4,1,0,100,1,0
87760,-66.6666666666667,4,1,0,100,0,1
106960,-66.6666666666667,4,1,0,100,0,0
126160,-66.6666666666667,4,1,0,100,0,1
145360,-100,4,1,0,100,0,0
183760,-66.6666666666667,4,1,0,100,0,1
202960,-66.6666666666667,4,1,0,100,0,0

[HitObjects]
168,108,1360,5,0,0:0:0:0:
296,84,1660,2,0,P|364:116|388:172,1,130.000000298023
388,292,2260,1,0,0:0:0:0:
264,336,2560,6,0,P|192:324|144:276,1,130.000000298023
280,272,3160,2,0,P|216:232|192:176,1,130.000000298023
244,64,3760,1,0,0:0:0:0:
368,108,4060,1,0,0:0:0:0:
268,188,4360,1,0,0:0:0:0:
160,116,4660,6,0,P|128:168|128:248,1,130.000000298023
240,172,5260,2,0,P|264:256|304:288,1,130.000000298023
480,308,5860,2,0,L|392:192,1,130.000000298023
308,112,6460,1,0,0:0:0:0:
240,224,6760,1,0,0:0:0:0:
104,140,7060,6,0,P|180:68|220:60,1,130.000000298023
260,180,7660,2,0,P|324:164|400:196,1,130.000000298023
480,272,8260,1,0,0:0:0:0:
380,352,8560,1,0,0:0:0:0:
272,280,8860,1,0,0:0:0:0:
164,208,9160,1,0,0:0:0:0:
232,96,9460,6,0,P|304:152|316:228,1,130.000000298023
188,200,10060,2,0,P|204:280|148:328,1,130.000000298023
56,364,10660,6,0,L|100:224,1,130.000000298023
256,36,11560,5,0,0:0:0:0:
180,140,11860,2,0,P|248:180|320:160,1,130.000000298023
384,80,12460,1,0,0:0:0:0:
468,180,12760,1,0,0:0:0:0:
364,260,13060,2,0,P|320:324|116:336,1,260.000000596047
68,256,13960,5,0,0:0:0:0:
128,168,14260,1,0,0:0:0:0:
248,268,14560,1,0,0:0:0:0:
252,112,14860,1,0,0:0:0:0:
372,88,15160,2,0,P|396:212|316:328,1,260.000000596047
116,88,16360,5,0,0:0:0:0:
312,148,16660,1,0,0:0:0:0:
184,152,16960,2,0,L|256:272,1,130.000000298023
304,88,17560,1,0,0:0:0:0:
360,320,17860,2,0,P|416:240|288:228,1,260.000000596047
268,336,18760,5,0,0:0:0:0:
144,292,19060,1,0,0:0:0:0:
88,176,19360,2,0,P|140:80|184:72,1,130.000000298023
252,160,19960,2,0,L|308:288,1,130.000000298023
324,320,20560,1,0,0:0:0:0:
256,68,21160,5,0,0:0:0:0:
128,96,21460,1,0,0:0:0:0:
172,216,21760,2,0,L|304:172,1,130.000000298023
420,132,22360,1,0,0:0:0:0:
468,252,22660,2,0,L|208:340,1,260.000000596047
112,292,23560,6,0,B|56:240|96:156,1,130.000000298023
168,68,24160,1,0,0:0:0:0:
248,172,24460,1,0,0:0:0:0:
376,140,24760,2,0,P|384:240|232:292,1,260.000000596047
104,92,25960,5,0,0:0:0:0:
224,144,26260,1,0,0:0:0:0:
212,272,26560,2,0,P|292:264|368:204,1,130.000000298023
292,116,27160,1,0,0:0:0:0:
416,152,27460,2,0,P|348:260|204:312,1,260.000000596047
120,244,28360,5,0,0:0:0:0:
116,372,28660,1,0,0:0:0:0:
230,310,28960,2,0,P|254:214|238:154,1,130.000000298023
116,44,29560,5,0,0:0:0:0:
440,220,30160,1,0,0:0:0:0:
252,280,30460,2,0,L|204:332,2,65.0000001490116
284,96,31060,1,0,0:0:0:0:
280,100,31360,2,0,P|188:112|120:280,1,260.000000596047
316,332,32260,5,0,0:0:0:0:
312,168,32560,1,0,0:0:0:0:
196,280,32860,2,0,L|148:328,2,65.0000001490116
388,252,33460,1,0,0:0:0:0:
388,252,33760,2,0,P|264:244|192:132,1,260.000000596047
324,68,34660,5,0,0:0:0:0:
132,40,34960,1,0,0:0:0:0:
60,196,35260,2,0,L|12:248,2,65.0000001490116
168,128,35860,5,0,0:0:0:0:
200,328,36160,2,0,L|340:248,1,130.000000298023
224,216,36760,2,0,L|312:100,1,130.000000298023
76,68,37360,5,0,0:0:0:0:
208,124,37660,1,0,0:0:0:0:
48,184,37960,2,0,P|92:280|224:364,1,260.000000596047
352,288,38860,1,0,0:0:0:0:
224,244,39160,2,0,P|160:160|252:56,1,260.000000596047
416,108,40060,6,0,L|504:60,2,65.0000001490116
272,168,40660,1,0,0:0:0:0:
392,280,40960,2,0,P|288:332|144:312,1,260.000000596047
60,264,41860,1,0,0:0:0:0:
108,144,42160,1,0,0:0:0:0:
204,232,42460,6,0,L|232:328,2,65.0000001490118
212,100,43060,1,0,0:0:0:0:
320,28,43360,2,0,P|388:132|364:280,1,260.000000596047
264,192,44260,1,0,0:0:0:0:
256,320,44560,1,0,0:0:0:0:
192,248,44860,2,0,L|116:228,2,65.0000001490118
380,300,45460,5,0,0:0:0:0:
484,136,45760,1,0,0:0:0:0:
308,220,46060,1,0,0:0:0:0:
256,48,46360,1,0,0:0:0:0:
424,84,46660,1,0,0:0:0:0:
392,192,46960,6,0,P|372:264|288:304,1,130.000000298024
300,232,47560,2,0,P|248:300|200:312,1,130.000000298024
208,248,48160,2,0,P|132:280|72:272,1,130.000000298024
100,176,48760,2,0,B|136:128|204:160|240:108,1,130.000000298024
264,64,49360,6,0,P|332:96|360:160,1,130.000000298024
360,208,49810,2,0,L|360:292,1,65.0000001490118
244,328,50260,2,0,L|172:264,1,65.0000001490118
156,244,50560,2,0,P|120:164|148:92,1,130.000000298024
176,24,51160,1,0,0:0:0:0:
376,112,51460,6,0,L|432:60,2,65.0000001490118
332,296,52060,1,0,0:0:0:0:
332,296,52210,1,0,0:0:0:0:
332,296,52360,1,0,0:0:0:0:
160,232,52660,2,0,L|92:280,2,65.0000001490118
356,64,53260,5,0,0:0:0:0:
208,104,53560,2,0,P|276:180|336:180,1,130.000000298024
460,208,54160,5,0,0:0:0:0:
228,288,54460,2,0,L|164:324,2,65.0000001490118
56,128,55060,1,0,0:0:0:0:
320,80,55360,2,0,L|384:44,2,65.0000001490118
256,288,55960,5,0,0:0:0:0:
104,176,56260,1,0,0:0:0:0:
104,176,56410,1,0,0:0:0:0:
104,176,56560,1,0,0:0:0:0:
296,104,56860,1,0,0:0:0:0:
296,104,57010,1,0,0:0:0:0:
296,104,57160,1,0,0:0:0:0:
424,252,57460,5,0,0:0:0:0:
184,148,57760,2,0,L|128:200,2,65.0000001490118
340,40,58360,1,0,0:0:0:0:
272,172,58660,2,0,L|288:252,1,65.0000001490118
316,292,58960,6,0,L|392:236,1,65.0000001490118
380,200,59260,2,0,L|396:120,1,65.0000001490118
396,84,59560,2,0,P|264:52|224:56,1,130.000000298024
80,100,60160,2,0,L|148:244,1,130.000000298024
248,180,60760,6,0,L|304:248,1,65.0000001490118
336,268,61060,2,0,P|412:192|412:132,1,130.000000298024
288,88,61660,1,0,0:0:0:0:
288,88,61810,1,0,0:0:0:0:
288,88,61960,1,0,0:0:0:0:
176,256,62260,2,0,L|112:304,2,65.0000001490118
304,176,62860,5,0,0:0:0:0:
252,300,63160,2,0,L|336:276,1,65.0000001490118
376,268,63460,2,0,P|424:196|416:140,1,130.000000298024
232,72,64060,2,0,L|200:12,2,65.0000001490118
