osu file format v14

[General]
AudioFilename: audio.mp3
AudioLeadIn: 0
PreviewTime: 82610
Countdown: 0
SampleSet: None
StackLeniency: 0.7
Mode: 0
LetterboxInBreaks: 0
WidescreenStoryboard: 1

[Editor]
DistanceSpacing: 0.8
BeatDivisor: 4
GridSize: 8
TimelineZoom: 1

[Metadata]
Title:Don't Let Me Down (Illenium Remix)
TitleUnicode:Don't Let Me Down (Illenium Remix)
Artist:The Chainsmokers
ArtistUnicode:The Chainsmokers
Creator:GhostFY
Version:Easy
Source:
Tags:
BeatmapID:1578006
BeatmapSetID:749148

[Difficulty]
HPDrainRate:2
CircleSize:3
OverallDifficulty:2
ApproachRate:2
SliderMultiplier:1.4
SliderTickRate:1

[Events]
//Background and Video events
0,0,"bg.jpg",0,0
//Break Periods
2,36100,56290
2,108300,112540
2,150300,158290
//Storyboard Layer 0 (Background)
//Storyboard Layer 1 (Fail)
//Storyboard Layer 2 (Pass)
//Storyboard Layer 3 (Foreground)
//Storyboard Sound Samples

[TimingPoints]
12100,750,4,2,0,60,1,0
84080,-100,4,2,2,100,0,1
95330,-100,4,1,0,60,0,0
96080,-100,4,2,2,100,0,1
108080,-100,4,2,0,60,0,0
174100,-100,4,2,2,100,0,1
174850,-100,4,2,2,100,0,0
175600,-100,4,2,2,100,0,1
179350,-100,4,2,2,100,0,0
180100,-100,4,2,2,100,0,1
180850,-100,4,2,2,100,0,0
181600,-100,4,2,2,100,0,1
184600,-100,4,2,2,100,0,0
186100,-100,4,2,2,100,0,1
198100,-100,4,2,2,100,0,0

[HitObjects]
288,48,12100,6,0,P|272:112|192:144,1,140,0|2,0:0|0:0,0:0:0:0:
210,239,13600,2,0,P|270:270|288:336,1,140,0|2,0:0|0:0,0:0:0:0:
392,296,15100,6,0,B|408:152,1,140,0|2,0:0|0:0,0:0:0:0:
336,72,16600,2,0,L|320:216,1,140,0|2,0:0|0:0,0:0:0:0:
208,248,18100,6,0,P|136:224|112:144,1,140,0|2,0:0|0:0,0:0:0:0:
112,56,19600,2,0,P|184:80|208:160,2,140,0|2|0,0:0|0:0|1:0,0:0:0:0:
256,192,21475,12,0,24100,1:0:0:0:
256,192,24850,6,0,P|208:152|288:64,1,210,2|0,0:0|1:0,0:0:0:0:
336,88,26350,1,2,0:0:0:0:
360,200,27100,6,0,L|208:216,1,140,0|2,1:0|0:0,0:0:0:0:
120,312,28787,2,0,L|176:304,1,35,0|0,1:0|1:0,1:0:0:0:
208,296,29350,1,2,0:0:0:0:
304,240,30100,6,0,P|296:176|336:96,1,140,0|2,1:0|0:0,0:0:0:0:
160,144,31975,2,0,L|64:144,1,70,0|2,1:0|0:0,0:0:0:0:
168,224,33100,6,0,P|232:184|224:96,1,140,0|2,1:0|0:0,0:0:0:0:
368,64,34787,2,0,L|368:112,1,35,0|0,1:0|1:0,1:0:0:0:
368,152,35350,1,2,0:0:0:0:
256,192,57850,12,4,60100,1:2:0:0:
256,192,61225,6,0,B|312:152|312:152|392:152,1,140,0|4,1:0|0:3,0:0:0:0:
384,264,62725,1,0,1:0:0:0:
384,264,63100,6,0,L|384:104,1,140,4|0,1:3|0:0,0:0:0:0:
464,48,64600,2,0,L|464:192,1,140,4|0,1:3|0:0,0:0:0:0:
464,296,66100,5,0,1:0:0:0:
296,304,67225,2,0,P|224:296|192:232,1,140,4|0,1:3|0:0,0:0:0:0:
184,128,68725,1,0,1:0:0:0:
184,128,69100,6,0,B|128:184|128:184|48:216,2,140,4|0|0,1:3|0:0|1:0,0:0:0:0:
256,40,71350,1,0,1:0:0:0:
328,128,72100,6,0,B|384:184|384:184|464:216,1,140,4|0,1:3|1:0,0:0:0:0:
368,296,73600,2,0,P|288:280|256:336,1,140,0|0,1:0|1:0,0:0:0:0:
144,296,75100,6,0,L|152:152,1,140,4|0,1:3|1:0,0:0:0:0:
64,88,76600,2,0,L|56:240,1,140,0|0,1:0|1:0,0:0:0:0:
144,296,78100,6,0,P|224:304|288:272,1,140,4|4,1:3|1:3,0:0:0:0:
360,200,79600,2,0,P|352:120|368:48,1,140,4|4,1:3|1:3,0:0:0:0:
472,32,81100,6,4,L|472:128,3,70,4|4|4|4,1:3|1:3|1:3|1:3,1:3:0:0:
256,192,82600,12,4,84100,1:2:0:0:
128,72,84850,6,0,P|144:128|96:216,1,140,8|0,0:0|1:0,0:0:0:0:
200,280,86350,2,0,L|344:264,1,140,8|0,0:0|1:0,0:0:0:0:
392,168,87850,2,0,L|240:184,1,140,8|0,0:0|1:0,0:0:0:0:
152,136,89350,1,8,0:0:0:0:
240,64,90100,6,0,P|184:24|112:32,1,140,0|8,1:0|0:0,0:0:0:0:
152,136,91600,2,0,P|208:176|280:168,1,140,0|8,1:0|0:0,0:0:0:0:
360,96,93100,2,0,L|376:256,1,140,0|8,1:0|0:0,0:0:0:0:
336,280,94225,1,0,1:0:0:0:
336,280,94600,5,8,0:0:0:0:
216,88,96100,6,0,P|208:160|160:216,1,140,4|8,1:0|0:0,0:0:0:0:
80,280,97600,2,0,L|232:264,1,140,0|8,1:0|0:0,0:0:0:0:
304,336,99100,2,0,L|160:352,1,140,0|8,1:0|0:0,0:0:0:0:
64,312,100600,2,0,P|40:240|72:160,1,140,0|8,1:0|0:0,0:0:0:0:
160,144,102100,6,0,P|240:152|320:128,1,140,0|8,1:0|0:0,0:0:0:0:
392,80,103600,2,0,L|416:240,1,140,0|8,1:0|0:0,0:0:0:0:
360,320,105100,2,0,B|312:320|272:288|256:256|256:256|216:288|160:288,1,210,0|0,1:0|1:0,0:0:0:0:
128,288,106600,1,0,1:0:0:0:
64,192,107350,1,8,0:0:0:0:
64,192,108100,5,4,1:2:0:0:
224,336,114100,6,0,P|240:272|320:240,1,140,0|2,0:0|0:0,0:0:0:0:
302,145,115600,2,0,P|242:114|224:48,1,140,0|2,0:0|0:0,0:0:0:0:
120,88,117100,6,0,B|104:232,1,140,0|2,0:0|0:0,0:0:0:0:
176,312,118600,2,0,L|192:168,1,140,0|2,0:0|0:0,0:0:0:0:
304,136,120100,6,0,P|376:160|400:240,1,140,0|2,0:0|0:0,0:0:0:0:
400,328,121600,2,0,P|328:304|304:224,2,140,0|2|0,0:0|0:0|1:0,0:0:0:0:
256,192,123475,12,0,126100,1:0:0:0:
256,192,126850,6,0,P|304:232|224:320,1,210,2|0,0:0|1:0,0:0:0:0:
176,296,128350,1,2,0:0:0:0:
152,184,129100,6,0,L|304:168,1,140,0|2,1:0|0:0,0:0:0:0:
392,72,130787,2,0,L|336:80,1,35,0|0,1:0|1:0,1:0:0:0:
304,88,131350,1,2,0:0:0:0:
208,144,132100,6,0,P|216:208|176:288,1,140,0|2,1:0|0:0,0:0:0:0:
352,240,133975,2,0,L|448:240,1,70,0|2,1:0|0:0,0:0:0:0:
344,160,135100,6,0,P|280:200|288:288,1,140,0|2,1:0|0:0,0:0:0:0:
144,320,136787,2,0,L|144:272,1,35,0|0,1:0|1:0,1:0:0:0:
144,232,137350,1,2,0:0:0:0:
144,120,138100,2,0,L|312:128,1,140
376,272,139975,2,0,L|368:352,1,70
472,296,141100,2,0,L|488:144,1,140
392,56,142787,2,0,L|336:56,1,35
304,56,143350,1,0,0:0:0:0:
192,56,144100,2,0,P|192:144|176:208,1,140
320,328,145600,2,0,P|320:240|336:176,1,140
376,88,147100,1,0,0:0:0:0:
256,192,147850,12,0,150100,0:0:0:0:
256,192,159850,12,4,162100,1:2:0:0:
256,192,163225,6,0,B|200:232|120:232,1,140,0|4,1:0|0:3,0:0:0:0:
128,120,164725,1,0,1:0:0:0:
128,120,165100,6,0,L|128:280,1,140,4|0,1:3|1:0,0:0:0:0:
48,336,166600,2,0,L|48:192,1,140,4|0,1:3|1:0,0:0:0:0:
48,88,168100,5,4,0:3:0:0:
216,80,169225,2,0,B|288:88|288:88|320:152,1,140,4|0,1:3|0:0,0:0:0:0:
328,256,170725,1,0,1:0:0:0:
328,256,171100,6,0,B|384:200|384:200|464:168,1,140,4|0,1:3|1:0,0:0:0:0:
256,192,172600,12,4,174100,1:2:0:0:
397,182,174850,6,0,L|408:272,2,70,8|8|4,0:2|1:3|1:0,0:0:0:0:
312,104,176350,2,0,L|168:120,1,140,8|0,0:0|1:0,0:0:0:0:
120,216,177850,2,0,L|272:200,1,140,8|0,0:0|1:0,0:0:0:0:
360,248,179350,1,8,0:0:0:0:
272,320,180100,2,0,L|192:328,2,70,4|8|8,1:2|0:3|0:0,0:0:0:0:
360,248,181600,2,0,P|304:208|232:216,1,140,4|8,1:0|0:0,0:0:0:0:
152,288,183100,2,0,L|136:128,1,140,0|8,1:0|0:0,0:0:0:0:
176,104,184225,1,0,1:0:0:0:
176,104,184600,5,8,0:0:0:0:
296,296,186100,6,0,P|304:224|352:168,1,140,4|8,1:0|0:0,0:0:0:0:
432,104,187600,2,0,L|280:120,1,140,0|8,1:0|0:0,0:0:0:0:
208,48,189100,2,0,L|352:32,1,140,0|8,1:0|0:0,0:0:0:0:
448,72,190600,2,0,P|472:144|440:224,1,140,0|8,1:0|0:0,0:0:0:0:
352,240,192100,6,0,P|272:232|192:256,1,140,0|8,1:0|0:0,0:0:0:0:
120,304,193600,2,0,L|96:144,1,140,0|8,1:0|0:0,0:0:0:0:
152,64,195100,2,0,B|200:64|216:128|256:128|256:128|296:96|352:96,1,210,0|0,1:0|1:0,0:0:0:0:
384,96,196600,1,0,1:0:0:0:
448,192,197350,1,8,0:0:0:0:
448,192,198100,5,4,1:0:0:0:
