osu file format v14

[General]
AudioFilename: audio.mp3
AudioLeadIn: 0
PreviewTime: 151217
Countdown: 1
SampleSet: Normal
StackLeniency: 0.4
Mode: 0
LetterboxInBreaks: 0
WidescreenStoryboard: 1

[Editor]
Bookmarks: 46399,50821,71031,91217,91399,111452,134796,134820,151872,151873,172084,172241,192293,202399,203663,212505
DistanceSpacing: 1.1
BeatDivisor: 8
GridSize: 4
TimelineZoom: 3.199999

[Metadata]
Title:Closer ft. Halsey
TitleUnicode:Closer ft. Halsey
Artist:The Chainsmokers
ArtistUnicode:The Chainsmokers
Creator:Blitzfrog
Version:So Close
Source:
Tags:
BeatmapID:1076359
BeatmapSetID:499128

[Difficulty]
HPDrainRate:5
CircleSize:4
OverallDifficulty:7
ApproachRate:9
SliderMultiplier:2.20000000596046
SliderTickRate:1

[Events]
//Background and Video events
0,0,"Closer- Background.jpg",0,0
//Break Periods
//Storyboard Layer 0 (Background)
//Storyboard Layer 1 (Fail)
//Storyboard Layer 2 (Pass)
//Storyboard Layer 3 (Foreground)
//Storyboard Layer 4 (Overlay)
//Storyboard Sound Samples

[TimingPoints]
10400,631.578947368421,4,3,1,50,1,0
30576,-100,4,3,1,80,0,0
50787,-100,4,2,1,50,0,0
65944,-100,4,3,1,70,0,0
71006,-100,4,3,1,100,0,1
91217,-100,4,2,1,60,0,0
111418,-100,4,3,1,80,0,0
151848,-100,4,3,1,100,0,1
172059,-100,4,2,1,50,0,0
192259,-100,4,3,1,100,0,0
202365,-66.6666666666667,4,3,1,100,0,0
203629,-50,4,3,1,100,0,0
204892,-66.6666666666667,4,3,1,100,0,0
207418,-100,4,3,1,100,0,0
212480,-100,4,3,1,100,0,1
232690,-100,4,1,0,5,0,0

[Colours]
Combo1 : 255,0,0
Combo2 : 164,32,240
Combo3 : 181,251,188
Combo4 : 23,209,116
Combo5 : 226,45,124
Combo6 : 26,116,242
Combo7 : 203,228,254
Combo8 : 249,224,0

[HitObjects]
508,236,10400,6,0,P|476:312|384:316,1,165.000000447034
428,248,11031,1,8,0:0:0:0:
188,288,11978,2,0,P|176:268|180:232,1,55.0000001490115
296,120,12294,2,0,P|288:160|260:188,1,55.0000001490115
88,228,12610,2,0,P|92:200|116:168,1,55.0000001490115
256,52,12926,6,8,P|344:56|376:128,1,165.000000447034,0|0,0:0|0:0,0:0:0:0:
296,120,13557,1,8,0:0:0:0:
376,320,14505,2,0,P|340:304|336:256,1,55.0000001490115
255,153,14821,2,0,P|279:125|319:121,1,55.0000001490115
468,40,15136,2,0,P|480:80|468:120,1,55.0000001490115
368,224,15452,6,0,P|284:232|256:300,1,165.000000447034
333,291,16084,1,8,0:0:0:0:
432,124,17031,1,0,0:0:0:0:
328,36,17347,2,0,P|276:64|268:136,1,110.000000298023
428,200,17978,6,0,P|496:168|488:72,1,165.000000447034
432,124,18610,1,8,0:0:0:0:
292,240,19557,1,0,0:0:0:0:
336,108,19873,1,6,0:0:0:0:
112,152,20189,1,0,0:0:0:0:
336,108,20505,6,0,B|338:137|316:164|316:164|368:184|380:232|368:264,1,165.000000447034,0|8,0:0|0:0,0:0:0:0:
292,240,21136,1,2,0:0:0:0:
112,152,21452,1,0,0:0:0:0:
315,58,22084,2,0,P|331:82|335:110,1,55.0000001490115
292,240,22400,2,0,P|264:264|232:276,1,55.0000001490115
104,203,22715,2,0,P|100:179|116:147,1,55.0000001490115
315,58,23031,6,0,P|348:128|296:190,1,165.000000447034,0|8,0:0|0:0,0:0:0:0:
276,120,23663,1,2,0:0:0:0:
128,40,23978,1,0,0:0:0:0:
104,203,24610,2,0,P|104:256|144:296,1,110.000000298023
312,168,25242,1,0,0:0:0:0:
172,228,25557,6,0,B|205:213|236:184|236:184|252:240|308:244,1,165.000000447034,0|8,0:0|0:0,0:0:0:0:
312,168,26189,1,0,0:0:0:0:
464,124,26505,1,0,0:0:0:0:
236,184,27136,1,0,0:0:0:0:
388,148,27452,1,4,0:0:0:0:
111,283,28084,6,0,B|85:279|81:236|81:236|6:235|-5:164,1,165.000000447034,0|8,0:0|0:0,0:0:0:0:
75,158,28715,1,0,0:0:0:0:
158,217,29031,2,0,P|187:265|181:322,1,110.000000298023
318,283,29663,1,0,0:0:0:0:
233,171,29978,1,8,0:0:0:0:
183,317,30294,1,0,0:0:0:0:
431,251,30610,5,4,0:0:0:0:
404,80,31242,2,0,P|372:32|308:20,1,110.000000298023,8|0,0:0|0:0,0:0:0:0:
496,160,31873,1,0,0:0:0:0:
328,96,32189,2,0,P|260:112|236:156,2,110.000000298023,0|8|0,0:0|0:0|0:0,0:0:0:0:
160,196,33136,5,0,0:0:0:0:
312,172,33452,1,0,0:0:0:0:
376,212,33610,1,0,0:0:0:0:
160,196,33768,2,0,P|216:196|264:248,1,110.000000298023,8|0,0:0|0:0,0:0:0:0:
376,212,34400,1,0,0:0:0:0:
320,264,34557,1,0,0:0:0:0:
512,196,34715,2,0,B|492:216|480:248|480:248|436:256|412:280,2,110.000000298023,0|8|0,0:0|0:0|0:0,0:0:0:0:
368,44,35663,6,0,B|320:40|280:72|280:72|220:44|156:76,1,220.000000596046,4|8,0:0|0:0,0:0:0:0:
368,184,36610,1,0,0:0:0:0:
188,276,36926,1,0,0:0:0:0:
296,192,37242,2,0,P|308:144|368:112,2,110.000000298023,0|8|0,0:0|0:0|0:0,0:0:0:0:
348,312,38189,1,0,0:0:0:0:
188,276,38505,1,0,0:0:0:0:
296,192,38821,2,0,P|276:152|208:128,1,110.000000298023,8|0,0:0|0:0,0:0:0:0:
348,312,39452,1,0,0:0:0:0:
220,204,39768,2,0,P|168:188|140:136,2,110.000000298023,0|8|0,0:0|0:0|0:0,0:0:0:0:
348,312,40715,6,0,P|400:288|428:232,1,110.000000298023,4|0,0:0|0:0,0:0:0:0:
456,144,41189,1,0,0:0:0:0:
408,52,41347,2,0,P|344:20|276:24,1,110.000000298023,8|0,0:0|0:0,0:0:0:0:
204,44,41821,1,0,0:0:0:0:
120,108,41978,2,0,B|115:138|132:176|132:176|84:212|100:268,1,165.000000447034
172,242,42610,1,8,0:0:0:0:
256,192,43242,5,0,0:0:0:0:
400,272,43557,2,0,P|414:342|399:383,2,110.000000298023,0|8|0,0:0|0:0|0:0,0:0:0:0:
256,192,44505,1,0,0:0:0:0:
119,97,44821,2,0,P|96:49|120:2,2,110.000000298023,0|8|0,0:0|0:0|0:0,0:0:0:0:
168,245,45768,6,0,B|190:232|216:237|216:237|228:209|260:189,1,110.000000298023,4|0,0:0|0:0,0:0:0:0:
308,273,46242,1,0,0:0:0:0:
360,357,46400,2,0,B|386:337|398:309|398:309|423:310|446:301,1,110.000000298023,8|0,0:0|0:0,0:0:0:0:
404,213,46873,1,0,0:0:0:0:
508,193,47031,2,0,B|496:136|440:96|376:92|316:144,1,220.000000596046,0|8,0:0|0:0,0:0:0:0:
256,192,48294,12,4,50505,0:0:0:0:
272,64,50821,6,0,P|320:44|384:72,1,110.000000298023
324,268,51452,1,0,0:0:0:0:
248,140,51768,1,0,0:0:0:0:
396,136,52084,1,0,0:0:0:0:
284,204,52400,1,0,0:0:0:0:
324,120,52715,1,0,0:0:0:0:
364,204,53031,1,0,0:0:0:0:
160,280,53347,6,0,P|112:300|48:272,1,110.000000298023
108,76,53978,1,0,0:0:0:0:
184,204,54294,1,0,0:0:0:0:
36,208,54610,1,0,0:0:0:0:
148,140,54926,1,0,0:0:0:0:
108,224,55242,1,0,0:0:0:0:
68,140,55557,1,0,0:0:0:0:
248,32,55873,6,0,P|308:32|352:76,1,110.000000298023,4|0,0:0|0:0,0:0:0:0:
352,272,56505,1,0,0:0:0:0:
276,104,56821,1,0,0:0:0:0:
384,192,57136,1,0,0:0:0:0:
212,284,57452,1,0,0:0:0:0:
296,212,57768,1,0,0:0:0:0:
204,168,58084,1,0,0:0:0:0:
429,127,58400,6,0,P|460:176|448:236,1,110.000000298023,4|0,0:0|0:0,0:0:0:0:
328,292,59031,1,0,0:0:0:0:
204,168,59347,1,0,0:0:0:0:
384,192,59663,1,0,0:0:0:0:
212,284,59978,1,0,0:0:0:0:
252,116,60294,1,0,0:0:0:0:
328,292,60610,1,0,0:0:0:0:
350,90,60926,6,0,P|288:88|242:130,1,110.000000298023,4|0,0:0|0:0,0:0:0:0:
212,284,61557,1,0,0:0:0:0:
316,160,61873,1,0,0:0:0:0:
328,292,62189,1,0,0:0:0:0:
192,176,62505,1,0,0:0:0:0:
380,224,62821,1,0,0:0:0:0:
212,284,63136,1,0,0:0:0:0:
404,152,63452,6,0,P|448:192|452:248,1,110.000000298023,4|0,0:0|0:0,0:0:0:0:
192,176,64084,1,0,0:0:0:0:
380,224,64400,1,0,0:0:0:0:
246,89,64715,2,0,P|203:122|191:175,1,110.000000298023
184,324,65347,5,0,0:0:0:0:
268,164,65663,1,0,0:0:0:0:
376,284,65978,1,14,0:0:0:0:
376,284,66294,6,8,P|408:276|452:268,2,55.0000001490115
252,296,66768,5,0,0:0:0:0:
360,160,66926,1,8,0:0:0:0:
190,174,67084,1,0,0:0:0:0:
164,40,67400,5,0,0:0:0:0:
268,164,67557,1,8,0:0:0:0:
512,340,68031,5,0,0:0:0:0:
392,136,68505,5,14,0:0:0:0:
212,288,68821,2,0,P|216:244|240:216,2,55.0000001490115,8|0|8,0:0|0:0|0:0,0:0:0:0:
420,252,69294,5,8,0:0:0:0:
256,152,69452,1,0,0:0:0:0:
444,268,69610,1,8,0:0:0:0:
272,344,69926,5,8,0:0:0:0:
392,136,70084,1,0,0:0:0:0:
120,48,70400,5,14,0:0:0:0:
128,304,71031,6,0,P|136:236|184:208,1,110.000000298023,4|0,0:0|0:0,0:0:0:0:
424,52,71663,1,8,0:0:0:0:
192,276,71978,2,0,P|144:248|136:228,1,55.0000001490115,2|0,0:0|0:0,0:0:0:0:
64,48,72294,1,0,0:0:0:0:
316,140,72610,1,0,0:0:0:0:
236,340,72926,1,8,0:0:0:0:
77,197,73242,1,0,0:0:0:0:
412,296,73557,6,0,P|417:242|389:196,1,110.000000298023,4|0,0:0|0:0,0:0:0:0:
77,197,74189,1,8,0:0:0:0:
236,340,74505,2,0,P|256:320|268:288,1,55.0000001490115,2|0,0:0|0:0,0:0:0:0:
316,140,74821,1,0,0:0:0:0:
64,48,75136,1,0,0:0:0:0:
280,260,75452,1,8,0:0:0:0:
232,40,75768,1,0,0:0:0:0:
148,312,76084,6,0,P|111:274|114:220,1,110.000000298023,4|0,0:0|0:0,0:0:0:0:
232,40,76715,1,8,0:0:0:0:
321,293,77031,2,0,P|289:273|272:240,1,55.0000001490115,2|0,0:0|0:0,0:0:0:0:
232,40,77347,1,0,0:0:0:0:
44,4,77663,1,0,0:0:0:0:
188,321,77978,1,8,0:0:0:0:
460,120,78294,1,0,0:0:0:0:
188,321,78610,6,8,P|120:297|104:253,1,110.000000298023,12|8,0:0|0:0,0:0:0:0:
280,92,79242,2,8,P|348:116|364:160,1,110.000000298023,12|8,0:0|0:0,0:0:0:0:
188,321,79873,1,8,0:0:0:0:
280,92,80189,1,8,0:0:0:0:
396,336,80505,1,8,0:0:0:0:
92,124,80821,1,8,0:0:0:0:
280,92,81136,6,8,P|348:116|364:160,1,110.000000298023,4|0,0:0|0:0,0:0:0:0:
396,336,81768,1,8,0:0:0:0:
92,124,82084,2,2,B|104:92|144:64,1,55.0000001490115,2|0,0:0|0:0,0:0:0:0:
292,0,82400,1,0,0:0:0:0:
480,220,82715,1,0,0:0:0:0:
52,328,83031,1,8,0:0:0:0:
292,0,83347,1,0,0:0:0:0:
33,228,83663,6,0,P|26:290|65:336,1,110.000000298023,4|0,0:0|0:0,0:0:0:0:
292,0,84294,1,8,0:0:0:0:
51,327,84610,2,0,B|82:326|106:314,1,55.0000001490115,2|0,0:0|0:0,0:0:0:0:
480,220,84926,1,0,0:0:0:0:
292,0,85242,1,0,0:0:0:0:
356,256,85557,1,8,0:0:0:0:
84,156,85873,1,0,0:0:0:0:
446,90,86189,6,0,P|422:42|354:26,1,110.000000298023,4|0,0:0|0:0,0:0:0:0:
84,156,86821,1,8,0:0:0:0:
356,256,87136,2,0,P|356:284|332:308,1,55.0000001490115,2|0,0:0|0:0,0:0:0:0:
116,344,87452,1,0,0:0:0:0:
140,128,87768,1,0,0:0:0:0:
304,96,88084,1,8,0:0:0:0:
455,122,88400,1,0,0:0:0:0:
372,256,88715,6,8,P|412:300|396:372,1,110.000000298023,12|8,0:0|0:0,0:0:0:0:
140,128,89347,6,8,P|100:84|116:12,1,110.000000298023,12|8,0:0|0:0,0:0:0:0:
319,76,89978,6,8,P|358:38|411:37,1,110.000000298023,12|8,0:0|0:0,0:0:0:0:
192,307,90610,6,8,P|153:345|100:346,1,110.000000298023,12|8,0:0|0:0,0:0:0:0:
112,160,91242,5,4,0:0:0:0:
268,64,91873,1,8,0:0:0:0:
360,292,92821,1,0,0:0:0:0:
448,228,93136,2,0,P|476:188|456:128,1,110.000000298023
158,47,93768,5,0,0:0:0:0:
85,218,94400,1,8,0:0:0:0:
412,268,95347,5,0,0:0:0:0:
316,320,95663,1,4,0:0:0:0:
208,312,95978,1,0,0:0:0:0:
120,248,96294,2,0,B|88:224|124:181|124:181|120:140,2,110.000000298023
208,312,97242,1,2,0:0:0:0:
420,280,97873,1,0,0:0:0:0:
316,320,98189,1,8,0:0:0:0:
100,116,98821,6,0,B|138:79|138:79|208:99|252:44|252:44|340:60,1,220.000000596046
404,336,100400,1,0,0:0:0:0:
316,344,100715,1,4,0:0:0:0:
232,320,101031,1,0,0:0:0:0:
172,256,101347,5,0,0:0:0:0:
268,164,101821,1,0,0:0:0:0:
268,164,101978,2,0,B|267:136|280:112|280:112|256:96|248:64,1,110.000000298023
356,68,102926,1,0,0:0:0:0:
428,120,103242,1,2,0:0:0:0:
452,204,103557,1,0,0:0:0:0:
412,280,103873,5,0,0:0:0:0:
284,304,104347,1,0,0:0:0:0:
284,304,104505,2,0,B|292:260|272:228|272:228|278:209|280:192,1,110.000000298023
344,52,105452,1,0,0:0:0:0:
236,72,105768,1,2,0:0:0:0:
140,124,106084,1,0,0:0:0:0:
100,224,106400,5,0,0:0:0:0:
236,316,106873,1,0,0:0:0:0:
236,316,107031,2,0,B|256:293|280:296|280:296|292:252|335:245,1,110.000000298023
424,316,107978,1,0,0:0:0:0:
484,252,108294,1,2,0:0:0:0:
244,320,108926,6,0,B|230:275|240:236|240:236|183:238|164:184,1,165.000000447034
236,160,109557,1,0,0:0:0:0:
184,20,109873,1,8,0:0:0:0:
8,176,110505,1,8,0:0:0:0:
36,260,110821,1,6,0:0:0:0:
100,96,111452,6,0,P|124:52|192:28,1,110.000000298023
332,40,112084,1,8,0:0:0:0:
120,206,112715,1,0,0:0:0:0:
363,298,113031,1,0,0:0:0:0:
167,138,113347,1,8,0:0:0:0:
448,228,113978,6,0,P|432:296|400:312,1,110.000000298023
336,328,114452,1,0,0:0:0:0:
272,332,114610,1,8,0:0:0:0:
208,316,114768,1,0,0:0:0:0:
156,276,114926,1,0,0:0:0:0:
108,232,115084,1,0,0:0:0:0:
88,168,115242,1,0,0:0:0:0:
168,44,115557,1,0,0:0:0:0:
92,64,115873,2,0,P|128:108|184:120,1,110.000000298023,8|0,0:0|0:0,0:0:0:0:
292,36,116505,6,0,B|352:84|352:84|328:148|328:148|396:124|440:156,1,220.000000596046,0|8,0:0|0:0,0:0:0:0:
376,288,117452,1,0,0:0:0:0:
260,108,117768,2,0,B|240:126|244:152|244:152|208:152|175:194,1,110.000000298023
56,256,118400,1,8,0:0:0:0:
248,336,119031,5,0,0:0:0:0:
312,324,119189,1,0,0:0:0:0:
376,304,119347,1,0,0:0:0:0:
428,264,119505,1,0,0:0:0:0:
468,212,119663,2,0,P|484:156|456:104,1,110.000000298023,8|0,0:0|0:0,0:0:0:0:
268,36,120294,1,0,0:0:0:0:
108,136,120610,1,0,0:0:0:0:
304,164,120926,2,0,P|349:211|352:268,1,110.000000298023,8|0,0:0|0:0,0:0:0:0:
160,300,121557,6,0,P|121:244|129:197,1,110.000000298023,2|0,0:0|0:0,0:0:0:0:
212,80,122031,1,0,0:0:0:0:
308,56,122189,2,0,P|380:72|416:104,1,110.000000298023
376,244,122663,1,0,0:0:0:0:
312,320,122821,2,0,P|248:316|212:260,1,110.000000298023
284,64,123452,1,8,0:0:0:0:
464,160,124084,5,0,0:0:0:0:
480,356,124400,1,0,0:0:0:0:
332,224,124715,2,0,P|340:168|301:129,1,110.000000298023,8|0,0:0|0:0,0:0:0:0:
56,226,125347,5,0,0:0:0:0:
48,28,125663,1,0,0:0:0:0:
188,168,125978,2,0,P|180:224|219:263,1,110.000000298023,8|0,0:0|0:0,0:0:0:0:
404,240,126610,6,0,P|381:302|326:314,1,110.000000298023,2|0,0:0|0:0,0:0:0:0:
120,276,127084,1,0,0:0:0:0:
80,208,127242,2,0,B|40:164|76:104,1,110.000000298023,8|0,0:0|0:0,0:0:0:0:
280,40,127715,1,0,0:0:0:0:
356,36,127873,2,0,P|428:60|452:104,1,110.000000298023
208,252,128505,1,8,0:0:0:0:
376,252,129136,5,8,0:0:0:0:
88,212,129452,1,8,0:0:0:0:
368,148,129768,1,8,0:0:0:0:
168,271,130084,1,8,0:0:0:0:
400,224,130400,6,8,P|408:252|392:288,1,55.0000001490115
220,344,130715,2,8,P|224:316|240:288,1,55.0000001490115
360,110,131031,5,8,0:0:0:0:
188,192,131189,1,8,0:0:0:0:
224,64,131347,1,8,0:0:0:0:
340,276,131505,1,8,0:0:0:0:
152,120,131663,6,0,P|104:56|128:24,1,110.000000298023,4|0,0:0|0:0,0:0:0:0:
435,202,132294,2,0,P|460:253|428:300,1,110.000000298023
259,355,132926,1,0,0:0:0:0:
364,187,133242,1,0,0:0:0:0:
104,285,133557,1,0,0:0:0:0:
385,102,133873,1,0,0:0:0:0:
106,124,134189,6,0,P|162:85|209:93,1,110.000000298023,2|0,0:0|0:0,0:0:0:0:
406,260,134821,2,0,P|350:299|303:291,1,110.000000298023
385,102,135452,1,0,0:0:0:0:
104,285,135768,1,0,0:0:0:0:
364,187,136084,1,0,0:0:0:0:
259,355,136400,1,0,0:0:0:0:
114,117,136715,6,0,B|109:60|178:24,1,110.000000298023,4|0,0:0|0:0,0:0:0:0:
293,53,137347,1,0,0:0:0:0:
455,286,137663,1,0,0:0:0:0:
132,152,137978,1,0,0:0:0:0:
402,46,138294,1,0,0:0:0:0:
155,262,138610,1,0,0:0:0:0:
304,39,138926,1,0,0:0:0:0:
211,310,139242,6,0,P|148:336|98:306,1,110.000000298023,2|0,0:0|0:0,0:0:0:0:
304,39,139873,1,0,0:0:0:0:
155,262,140189,1,0,0:0:0:0:
402,46,140505,1,0,0:0:0:0:
132,152,140821,1,0,0:0:0:0:
432,124,141136,2,0,P|472:160|472:216,1,110.000000298023
408,260,141768,5,4,0:0:0:0:
102,171,142084,1,0,0:0:0:0:
352,128,142400,2,0,P|388:84|392:20,1,110.000000298023
102,171,143031,5,0,0:0:0:0:
408,260,143347,1,4,0:0:0:0:
116,288,143663,1,0,0:0:0:0:
284,37,143978,1,0,0:0:0:0:
408,260,144294,6,2,P|360:292|300:288,1,110.000000298023,2|0,0:0|0:0,0:0:0:0:
284,37,144926,1,0,0:0:0:0:
116,288,145242,1,0,0:0:0:0:
408,260,145557,1,4,0:0:0:0:
408,260,146189,5,0,0:0:0:0:
116,288,146505,1,0,0:0:0:0:
280,108,146821,1,6,0:0:0:0:
354,272,147136,2,8,P|386:264|430:256,2,55.0000001490115
264,292,147610,5,0,0:0:0:0:
140,144,147768,1,8,0:0:0:0:
280,316,147926,1,0,0:0:0:0:
292,128,148242,5,0,0:0:0:0:
132,264,148400,1,8,0:0:0:0:
140,44,148873,5,8,0:0:0:0:
424,80,149347,5,14,0:0:0:0:
268,84,149663,2,0,P|272:40|296:12,2,55.0000001490115,8|0|8,0:0|0:0|0:0,0:0:0:0:
268,144,150136,5,8,0:0:0:0:
424,80,150294,1,0,0:0:0:0:
252,204,150452,1,8,0:0:0:0:
440,316,150768,5,8,0:0:0:0:
336,80,150926,1,0,0:0:0:0:
168,318,151242,5,14,0:0:0:0:
168,318,151873,6,8,P|108:291|100:241,1,110.000000298023,4|0,0:0|0:0,0:0:0:0:
326,46,152505,1,8,0:0:0:0:
360,324,152821,2,0,P|320:328|288:312,1,55.0000001490115,2|0,0:0|0:0,0:0:0:0:
98,252,153136,1,0,0:0:0:0:
326,46,153452,1,0,0:0:0:0:
152,116,153768,1,8,0:0:0:0:
460,232,154084,1,0,0:0:0:0:
120,52,154400,6,0,P|84:96|92:152,1,110.000000298023,4|0,0:0|0:0,0:0:0:0:
460,232,155031,1,8,0:0:0:0:
152,116,155347,2,0,P|184:108|216:96,1,55.0000001490115,2|0,0:0|0:0,0:0:0:0:
326,46,155663,1,0,0:0:0:0:
120,52,155978,1,0,0:0:0:0:
184,328,156294,1,8,0:0:0:0:
326,46,156610,1,0,0:0:0:0:
392,308,156926,6,0,P|324:288|288:220,1,137.500000372529,4|0,0:0|0:0,0:0:0:0:
152,128,157557,1,8,0:0:0:0:
404,56,157873,2,0,P|436:80|448:108,1,55.0000001490115,2|0,0:0|0:0,0:0:0:0:
382,175,158189,2,0,B|405:220|373:281,1,110.000000298023,2|0,0:0|0:0,0:0:0:0:
48,68,158821,5,8,0:0:0:0:
216,376,159136,1,0,0:0:0:0:
250,52,159452,6,0,P|303:28|366:40,1,110.000000298023,4|0,0:0|0:0,0:0:0:0:
431,284,160084,1,8,0:0:0:0:
92,8,160400,1,0,0:0:0:0:
396,168,160715,1,0,0:0:0:0:
112,352,161031,1,0,0:0:0:0:
384,36,161347,1,8,0:0:0:0:
92,200,161663,1,0,0:0:0:0:
452,278,161978,6,0,P|441:341|391:348,1,110.000000298023,4|0,0:0|0:0,0:0:0:0:
96,112,162610,1,8,0:0:0:0:
472,192,162926,2,0,B|448:228|424:236,1,55.0000001490115,2|0,0:0|0:0,0:0:0:0:
236,312,163242,1,0,0:0:0:0:
392,24,163557,1,0,0:0:0:0:
76,108,163873,1,8,0:0:0:0:
404,284,164189,1,0,0:0:0:0:
96,254,164505,6,0,P|127:310|177:334,1,110.000000298023,4|0,0:0|0:0,0:0:0:0:
419,51,165136,1,8,0:0:0:0:
228,352,165452,2,0,P|276:336|292:308,1,55.0000001490115,2|0,0:0|0:0,0:0:0:0:
432,180,165768,1,0,0:0:0:0:
76,48,166084,1,0,0:0:0:0:
437,177,166400,1,8,0:0:0:0:
73,333,166715,1,0,0:0:0:0:
468,88,167031,6,0,P|436:48|352:32,1,137.500000372529,4|0,0:0|0:0,0:0:0:0:
85,270,167663,1,8,0:0:0:0:
448,156,167978,2,0,B|452:184|428:216,1,55.0000001490115,2|0,0:0|0:0,0:0:0:0:
252,352,168294,1,0,0:0:0:0:
36,120,168610,1,0,0:3:0:0:
404,12,168926,1,8,0:3:0:0:
96,296,169242,1,0,0:3:0:0:
432,152,169557,5,8,0:0:0:0:
92,38,169873,1,0,0:0:0:0:
439,214,170189,1,8,0:0:0:0:
66,318,170505,1,0,0:0:0:0:
293,32,170821,1,8,0:0:0:0:
22,325,171136,1,0,0:0:0:0:
473,217,171452,1,8,0:0:0:0:
54,33,171768,1,8,0:0:0:0:
339,285,172084,6,0,P|286:308|222:304,1,110.000000298023,6|0,0:0|0:0,0:0:0:0:
42,119,172715,2,0,P|95:96|159:100,1,110.000000298023,6|0,0:0|0:0,0:0:0:0:
384,144,173347,1,2,0:0:0:0:
364,266,173663,1,0,0:0:0:0:
173,295,173978,2,0,P|125:315|57:307,1,110.000000298023
204,151,174610,6,0,P|280:180|306:218,1,110.000000298023
84,214,175242,2,0,P|64:145|99:86,1,110.000000298023
276,88,175873,1,2,0:0:0:0:
423,48,176189,1,0,0:0:0:0:
463,196,176505,1,0,0:0:0:0:
315,235,176821,1,0,0:0:0:0:
245,316,177136,6,0,P|317:344|368:329,1,110.000000298023
321,156,177768,2,0,P|332:93|306:56,1,110.000000298023
167,126,178400,2,0,P|88:112|47:138,1,110.000000298023,2|0,0:0|0:0,0:0:0:0:
321,156,179031,1,0,0:0:0:0:
112,287,179347,1,0,0:0:0:0:
192,62,179663,6,0,P|129:51|77:82,1,110.000000298023
238,264,180294,2,0,P|301:275|353:244,1,110.000000298023
474,35,180926,2,0,L|382:95,1,110.000000298023,2|0,0:0|0:0,0:0:0:0:
216,105,181557,1,0,0:0:0:0:
80,228,181873,1,0,0:0:0:0:
236,348,182189,6,0,P|294:362|356:352,1,110.000000298023
388,164,182821,2,0,B|453:66,1,110.000000298023
236,20,183452,2,0,P|184:8|112:36,1,110.000000298023,2|0,0:0|0:0,0:0:0:0:
48,204,184084,1,0,0:0:0:0:
204,324,184400,1,0,0:0:0:0:
400,356,184715,6,0,P|416:284|376:240,1,110.000000298023
353,113,185347,2,0,B|456:30,2,110.000000298023
392,272,186610,1,0,0:0:0:0:
208,348,186926,1,0,0:0:0:0:
116,172,187242,6,0,P|57:147|33:101,1,110.000000298023
260,100,187873,2,0,P|326:114|356:161,1,110.000000298023
308,340,188505,2,0,P|266:300|275:252,1,110.000000298023
460,188,189136,1,0,0:0:0:0:
316,52,189452,1,0,0:0:0:0:
156,168,189768,6,0,P|119:221|116:284,1,110.000000298023
315,237,190400,2,0,P|377:219|419:172,1,110.000000298023
453,50,191031,1,0,0:0:0:0:
267,141,191347,1,0,0:0:0:0:
170,301,191663,2,0,L|57:337,1,110.000000298023
406,168,192294,5,0,0:0:0:0:
144,88,192610,5,0,0:0:0:0:
220,264,192926,5,0,0:0:0:0:
313,75,193242,5,0,0:0:0:0:
377,289,193557,5,0,0:0:0:0:
116,195,193873,5,0,0:0:0:0:
278,339,194189,5,0,0:0:0:0:
437,107,194505,5,0,0:0:0:0:
235,159,194821,5,0,0:0:0:0:
377,289,195136,5,0,0:0:0:0:
337,110,195452,5,0,0:0:0:0:
117,262,195768,5,0,0:0:0:0:
259,324,196084,5,0,0:0:0:0:
223,100,196400,5,0,0:0:0:0:
117,262,196715,6,0,L|24:348,1,110.000000298023
391,104,197347,5,0,0:0:0:0:
161,305,197663,5,0,0:0:0:0:
404,264,197978,5,0,0:0:0:0:
130,144,198294,5,0,0:0:0:0:
341,48,198610,5,0,0:0:0:0:
293,330,198926,5,0,0:0:0:0:
157,55,199242,5,0,0:0:0:0:
411,173,199557,5,0,0:0:0:0:
90,243,199873,5,0,0:0:0:0:
320,55,200189,5,0,0:0:0:0:
389,311,200505,5,0,0:0:0:0:
136,165,200821,5,0,0:0:0:0:
455,134,201136,5,0,0:0:0:0:
142,323,201452,5,0,0:0:0:0:
193,102,201768,6,0,P|135:82|93:37,1,110.000000298023
347,230,202400,6,0,B|332:288|275:321,1,82.5000033706426
212,283,202715,2,0,B|155:268|132:228,1,82.5000033706426
164,148,203031,2,0,B|179:91|218:68,1,82.5000033706426
299,100,203347,2,0,B|356:115|378:154,1,82.5000033706426
336,282,203663,6,0,B|294:336|294:336|258:312,1,110.000000298023
164,272,203978,2,0,B|110:230|110:230|134:194,1,110.000000298023
174,100,204294,2,0,B|216:46|216:46|252:70,1,110.000000298023
296,100,204610,2,0,L|360:136,2,55.0000001490115
217,68,204926,6,0,B|203:126|163:148,1,82.5000033706426
132,230,205242,2,0,B|190:244|212:284,1,82.5000033706426
294,315,205557,2,0,B|308:258|348:235,1,82.5000033706426
379,153,205873,2,0,B|322:138|299:99,1,82.5000033706426
160,104,206189,6,0,B|177:161|154:200,1,82.5000033706426
168,287,206505,2,0,B|225:270|264:293,1,82.5000033706426
351,279,206821,2,0,B|334:222|357:183,1,82.5000033706426
343,96,207136,2,0,B|286:112|247:90,1,82.5000033706426
200,176,207452,5,8,0:0:0:0:
396,294,207768,1,8,0:0:0:0:
396,294,207926,2,8,L|442:258,2,55.0000001490115
351,328,208400,1,0,0:0:0:0:
189,252,208715,5,8,0:0:0:0:
321,127,208873,1,0,0:0:0:0:
166,188,209031,1,8,0:0:0:0:
347,193,209189,1,0,0:0:0:0:
189,127,209347,1,8,0:0:0:0:
321,252,209505,1,0,0:0:0:0:
255,99,209663,1,8,0:0:0:0:
258,280,209821,1,0,0:0:0:0:
268,20,209978,5,8,0:0:0:0:
176,64,210294,2,8,L|120:96,2,55.0000001490115
268,20,210768,1,0,0:0:0:0:
236,132,210926,5,8,0:0:0:0:
380,48,211084,1,0,0:0:0:0:
224,140,211242,1,8,0:0:0:0:
416,156,211400,5,0,0:0:0:0:
216,108,211557,1,8,0:0:0:0:
436,164,211715,1,0,0:0:0:0:
256,244,211873,1,8,0:0:0:0:
436,132,212031,5,0,0:0:0:0:
240,260,212189,1,8,0:0:0:0:
448,304,212347,1,0,0:0:0:0:
224,240,212505,1,8,0:0:0:0:
400,344,212821,5,0,0:0:0:0:
452,16,213136,1,8,0:0:0:0:
256,356,213452,2,0,P|228:340|204:312,1,55.0000001490115,2|0,0:0|0:0,0:0:0:0:
124,136,213768,1,0,0:0:0:0:
452,24,214084,1,0,0:0:0:0:
268,352,214400,1,8,0:0:0:0:
48,84,214715,1,0,0:0:0:0:
384,44,215031,5,12,0:0:0:0:
64,160,215347,1,0,0:0:0:0:
384,44,215663,1,8,0:0:0:0:
28,248,215978,2,0,L|80:216,1,55.0000001490115,2|0,0:0|0:0,0:0:0:0:
384,44,216294,1,8,0:0:0:0:
0,340,216610,1,0,0:0:0:0:
440,148,216926,5,10,0:0:0:0:
256,368,217242,1,2,0:0:0:0:
128,24,217557,1,12,0:0:0:0:
484,168,217873,1,0,0:0:0:0:
128,360,218189,1,8,0:0:0:0:
312,24,218505,2,0,P|368:36|400:60,1,55.0000001490115,2|0,0:0|0:0,0:0:0:0:
404,240,218821,2,0,P|428:308|396:356,1,110.000000298023
60,340,219452,5,10,0:0:0:0:
448,208,219768,1,4,0:0:0:0:
128,44,220084,5,8,0:0:0:0:
472,152,220400,1,0,0:0:0:0:
128,44,220715,1,8,0:0:0:0:
492,236,221031,1,0,0:0:0:0:
128,44,221347,1,8,0:0:0:0:
386,305,221663,6,0,P|413:334|433:344,1,55.0000001490115,8|0,0:0|0:0,0:0:0:0:
252,63,221978,6,0,P|279:34|299:24,1,55.0000001490115,8|0,0:0|0:0,0:0:0:0:
40,237,222294,6,0,P|13:266|-7:276,1,55.0000001490115,8|0,0:0|0:0,0:0:0:0:
140,220,222610,5,12,0:0:0:0:
56,24,222926,1,0,0:0:0:0:
460,144,223242,1,2,0:0:0:0:
216,376,223557,2,0,B|176:368|144:336,1,55.0000001490115,2|0,0:0|0:0,0:0:0:0:
12,164,223873,1,0,0:0:0:0:
428,16,224189,1,0,0:0:0:0:
296,380,224505,1,8,0:0:0:0:
168,8,224821,1,6,0:0:0:0:
464,108,225136,5,8,0:0:0:0:
76,32,225452,1,0,0:0:0:0:
465,163,225768,1,8,0:0:0:0:
32,136,226084,1,0,0:0:0:0:
465,220,226400,1,8,0:0:0:0:
32,248,226715,1,0,0:0:0:0:
464,276,227031,1,8,0:0:0:0:
76,352,227347,1,4,0:0:0:0:
412,88,227663,5,14,0:0:0:0:
32,132,227978,1,0,0:0:0:0:
408,360,228294,1,8,0:0:0:0:
98,70,228610,2,0,B|64:17,1,55.0000001490115,2|0,0:0|0:0,0:0:0:0:
332,8,228926,1,0,0:0:0:0:
256,372,229242,1,0,0:0:0:0:
185,34,229557,1,8,0:0:0:0:
512,278,229873,1,6,0:0:0:0:
48,108,230189,5,8,0:0:0:0:
436,32,230505,1,0,0:0:0:0:
46,163,230821,1,8,0:0:0:0:
480,136,231136,1,0,0:0:0:0:
46,220,231452,1,8,0:0:0:0:
480,248,231768,1,0,0:0:0:0:
48,276,232084,1,8,0:0:0:0:
436,352,232400,1,0,0:0:0:0:
256,192,232715,12,0,237768,0:0:0:0:
