osu file format v14

[General]
AudioFilename: audio.mp3
AudioLeadIn: 0
PreviewTime: 151217
Countdown: 1
SampleSet: Normal
StackLeniency: 0.7
Mode: 0
LetterboxInBreaks: 0
WidescreenStoryboard: 1

[Editor]
Bookmarks: 70365,151208
DistanceSpacing: 1
BeatDivisor: 4
GridSize: 4
TimelineZoom: 1

[Metadata]
Title:Closer ft. Halsey
TitleUnicode:Closer ft. Halsey
Artist:The Chainsmokers
ArtistUnicode:The Chainsmokers
Creator:Blitzfrog
Version:Normal
Source:
Tags:
BeatmapID:1062432
BeatmapSetID:499128

[Difficulty]
HPDrainRate:4
CircleSize:3
OverallDifficulty:3
ApproachRate:5
SliderMultiplier:1.40000000596046
SliderTickRate:1

[Events]
//Background and Video events
0,0,"Closer- Background.jpg",0,0
//Break Periods
2,191521,206227
//Storyboard Layer 0 (Background)
//Storyboard Layer 1 (Fail)
//Storyboard Layer 2 (Pass)
//Storyboard Layer 3 (Foreground)
//Storyboard Sound Samples

[TimingPoints]
10375,631.578947368421,4,3,1,50,1,0
30576,-100,4,3,1,80,0,0
50787,-100,4,2,1,50,0,0
65944,-100,4,3,1,70,0,0
71006,-100,4,3,1,100,0,1
91375,-100,4,2,1,60,0,0
111418,-100,4,3,1,80,0,0
151848,-100,4,3,1,100,0,1
172059,-100,4,2,1,50,0,0
192259,-100,4,3,1,100,0,0
207400,-100,4,3,1,100,0,0
212480,-100,4,3,1,100,0,1
232690,-100,4,1,0,5,0,0

[Colours]
Combo1 : 128,0,255
Combo2 : 255,0,0
Combo3 : 255,128,0
Combo4 : 249,216,32
Combo5 : 113,244,166
Combo6 : 116,230,245

[HitObjects]
192,64,10375,6,0,P|112:80|80:144,1,140.000000596046,0|8,0:0|0:0,0:0:0:0:
108,336,11953,1,0,0:0:0:0:
176,344,12269,1,2,0:0:0:0:
316,324,12901,6,0,P|348:260|332:196,1,140.000000596046,0|8,0:0|0:0,0:0:0:0:
208,28,14480,1,0,0:0:0:0:
148,64,14796,1,2,0:0:0:0:
92,108,15111,1,0,0:0:0:0:
60,168,15427,6,0,P|40:248|80:304,1,140.000000596046,0|8,0:0|0:0,0:0:0:0:
272,344,17006,1,0,0:0:0:0:
340,336,17322,1,4,0:0:0:0:
432,232,17953,2,8,P|480:184|472:116,1,140.000000596046,0|8,0:0|0:0,0:0:0:0:
268,72,19532,5,0,0:0:0:0:
208,104,19848,1,2,0:0:0:0:
156,152,20164,1,0,0:0:0:0:
184,216,20480,2,0,L|104:260,2,70.000000298023,0|0|2,0:0|0:0|0:0,0:0:0:0:
244,184,21427,1,0,0:0:0:0:
312,308,22059,1,0,0:0:0:0:
244,308,22375,1,0,0:0:0:0:
132,224,23006,6,0,P|136:258|153:288,2,70.000000298023,0|0|2,0:0|0:0|0:0,0:0:0:0:
140,156,23953,1,0,0:0:0:0:
252,72,24585,1,0,0:0:0:0:
320,64,24901,1,0,0:0:0:0:
388,80,25217,1,0,0:0:0:0:
440,124,25532,6,0,B|496:184|456:264,1,140.000000596046,2|0,0:0|0:0,0:0:0:0:
308,344,27111,1,0,0:0:0:0:
240,340,27427,1,0,0:0:0:0:
124,264,28059,2,0,P|132:220|180:208,2,70.000000298023
140,332,29006,1,0,0:0:0:0:
256,256,29638,1,0,0:0:0:0:
312,216,29953,1,10,0:0:0:0:
240,60,30585,5,4,0:0:0:0:
128,144,31217,1,8,0:0:0:0:
256,204,31848,2,0,L|336:188,2,70.000000298023,0|0|8,0:0|0:0|0:0,0:0:0:0:
120,232,33111,5,0,0:0:0:0:
92,96,33743,1,8,0:0:0:0:
204,180,34375,2,0,L|204:260,2,70.000000298023,0|0|8,0:0|0:0|0:0,0:0:0:0:
204,40,35638,1,4,0:0:0:0:
320,120,36269,1,8,0:0:0:0:
188,168,36901,6,0,P|136:200|120:232,1,70.000000298023
100,268,37532,1,8,0:0:0:0:
212,352,38164,2,0,P|243:367|277:369,1,70.000000298023
344,352,38796,1,8,0:0:0:0:
364,212,39427,2,0,P|348:180|316:148,1,70.000000298023
280,208,40059,2,0,P|232:224|202:210,1,70.000000298023,8|0,0:0|0:0,0:0:0:0:
160,176,40690,5,4,0:0:0:0:
108,128,41006,2,0,P|60:144|28:176,2,70.000000298023,0|8|0,0:0|0:0|0:0,0:0:0:0:
176,108,41953,2,0,P|216:136|252:160,1,70.000000298023
304,136,42585,1,8,0:0:0:0:
440,108,43217,6,0,L|440:188,1,70.000000298023
436,248,43848,1,8,0:0:0:0:
396,308,44164,1,0,0:0:0:0:
328,292,44480,2,0,L|328:222,1,70.000000298023
368,164,45111,1,8,0:0:0:0:
400,100,45427,1,0,0:0:0:0:
332,104,45743,5,4,0:0:0:0:
264,96,46059,2,0,P|264:32|288:12,2,70.000000298023,0|8|0,0:0|0:0|0:0,0:0:0:0:
288,160,47006,1,0,0:0:0:0:
252,220,47322,2,0,P|216:188|212:148,2,70.000000298023,0|8|0,0:0|0:0|0:0,0:0:0:0:
256,288,48269,6,0,P|300:272|328:240,1,70.000000298023
308,188,48901,2,0,P|340:140|340:108,1,70.000000298023,8|0,0:0|0:0,0:0:0:0:
280,96,49532,2,0,P|264:48|232:16,1,70.000000298023
184,44,50164,1,8,0:0:0:0:
148,104,50480,1,0,0:0:0:0:
148,176,50796,6,0,P|196:176|228:160,1,70.000000298023
284,148,51427,2,0,P|260:189|257:225,1,70.000000298023
260,280,52059,2,0,P|236:238|206:218,1,70.000000298023
172,176,52690,1,0,0:0:0:0:
104,168,53006,1,0,0:0:0:0:
104,240,53322,6,0,P|108:280|96:312,1,70.000000298023
76,372,53953,2,0,P|108:348|142:342,1,70.000000298023
200,316,54585,2,0,P|163:299|141:273,1,70.000000298023
184,220,55217,2,0,P|232:224|268:212,1,70.000000298023
320,204,55848,5,0,0:0:0:0:
360,148,56164,1,0,0:0:0:0:
312,96,56480,2,0,L|232:80,2,70.000000298023
428,128,57743,6,0,L|492:160,1,70.000000298023
468,228,58375,6,0,L|436:292,1,70.000000298023
372,264,59006,2,0,L|308:232,1,70.000000298023
328,164,59638,2,0,L|359:101,1,70.000000298023
296,68,60269,1,0,0:0:0:0:
232,92,60585,1,0,0:0:0:0:
168,116,60901,6,0,L|168:200,1,70.000000298023
196,252,61532,1,0,0:0:0:0:
256,292,61848,1,0,0:0:0:0:
316,256,62164,2,0,L|316:160,1,70.000000298023
380,156,62796,1,0,0:0:0:0:
400,88,63111,1,0,0:0:0:0:
352,40,63427,6,0,P|320:64|304:100,1,70.000000298023
248,132,64059,2,0,P|229:161|202:183,2,70.000000298023
248,132,65322,2,0,P|274:109|308:102,1,70.000000298023
364,144,65953,5,8,0:0:0:0:
432,132,66269,2,8,L|416:84,2,35.0000001490115
440,200,66901,1,0,0:0:0:0:
400,256,67217,2,0,L|345:299,1,70.000000298023
300,248,67848,2,0,L|245:291,1,70.000000298023
188,252,68480,5,8,0:0:0:0:
164,188,68796,2,8,L|124:172,2,35.0000001490115
176,120,69427,1,0,0:0:0:0:
244,128,69743,2,0,P|248:92|280:52,1,70.000000298023
328,120,70375,6,0,B|342:146|388:148,1,70.000000298023,8|0,0:0|0:0,0:0:0:0:
304,40,71006,5,4,0:0:0:0:
400,56,71322,1,0,0:0:0:0:
484,104,71638,2,0,P|508:144|508:192,1,70.000000298023,8|0,0:0|0:0,0:0:0:0:
472,256,72269,1,0,0:0:0:0:
376,236,72585,1,0,0:0:0:0:
348,328,72901,2,0,P|312:348|264:344,1,70.000000298023,8|0,0:0|0:0,0:0:0:0:
288,252,73532,6,0,P|240:236|224:220,1,70.000000298023,4|0,0:0|0:0,0:0:0:0:
188,132,74164,1,8,0:0:0:0:
272,80,74480,2,0,L|200:32,2,70.000000298023
356,128,75427,1,8,0:0:0:0:
444,172,75743,1,0,0:0:0:0:
500,252,76059,6,0,B|492:304|460:344,1,70.000000298023,4|0,0:0|0:0,0:0:0:0:
380,304,76690,1,8,0:0:0:0:
292,348,77006,1,0,0:0:0:0:
196,328,77322,2,0,B|164:300|164:300|164:248,1,70.000000298023
80,224,77953,6,0,L|80:152,1,70.000000298023,8|0,0:0|0:0,0:0:0:0:
176,176,78585,6,0,L|176:96,1,70.000000298023
272,80,79217,2,0,L|272:168,1,70.000000298023,8|0,0:0|0:0,0:0:0:0:
360,196,79848,2,0,L|360:116,1,70.000000298023
448,80,80480,1,8,0:0:0:0:
452,176,80796,1,0,0:0:0:0:
500,260,81111,6,0,P|468:284|416:292,1,70.000000298023,4|0,0:0|0:0,0:0:0:0:
340,284,81743,1,8,0:0:0:0:
248,252,82059,1,0,0:0:0:0:
168,200,82375,2,0,P|152:168|152:132,1,70.000000298023
176,40,83006,1,8,0:0:0:0:
272,32,83322,1,0,0:0:0:0:
256,128,83638,6,0,P|288:128|336:112,1,70.000000298023,4|0,0:0|0:0,0:0:0:0:
400,56,84269,2,0,P|416:96|408:144,1,70.000000298023,8|0,0:0|0:0,0:0:0:0:
492,180,84901,2,0,P|468:212|408:216,1,70.000000298023
344,240,85532,1,8,0:0:0:0:
248,260,85848,1,0,0:0:0:0:
148,256,86164,6,0,P|100:248|76:224,1,70.000000298023,4|0,0:0|0:0,0:0:0:0:
148,160,86796,1,8,0:0:0:0:
52,136,87111,1,0,0:0:0:0:
124,68,87427,2,0,P|144:36|184:12,1,70.000000298023
220,100,88059,1,8,0:0:0:0:
316,80,88375,1,0,0:0:0:0:
412,88,88690,6,0,P|396:136|380:152,1,70.000000298023
400,248,89322,2,0,P|352:248|320:232,1,70.000000298023,8|0,0:0|0:0,0:0:0:0:
236,232,89953,6,0,P|252:184|268:168,1,70.000000298023
252,72,90585,2,0,P|308:80|336:104,1,70.000000298023,8|0,0:0|0:0,0:0:0:0:
388,156,91217,5,4,0:0:0:0:
292,260,91848,1,2,0:0:0:0:
92,192,92796,1,0,0:0:0:0:
92,192,93111,2,0,P|132:168|180:160,1,70.000000298023
224,148,93743,1,0,0:0:0:0:
348,80,94375,1,4,0:0:0:0:
272,276,95322,5,0,0:0:0:0:
208,244,95638,2,0,P|224:212|256:180,1,70.000000298023
300,140,96269,1,0,0:0:0:0:
436,112,96901,1,2,0:0:0:0:
256,220,97848,1,0,0:0:0:0:
208,168,98164,2,0,P|224:136|248:112,1,70.000000298023
312,80,98796,5,0,0:0:0:0:
392,196,99427,1,4,0:0:0:0:
184,208,100375,2,0,P|149:210|118:226,2,70.000000298023
252,220,101322,1,0,0:0:0:0:
356,232,101796,2,0,L|340:284,1,35.0000001490115
328,332,102269,1,0,0:0:0:0:
192,236,102901,5,0,0:0:0:0:
208,168,103217,2,0,P|224:136|256:104,1,70.000000298023
304,72,103848,1,0,0:0:0:0:
376,148,104322,2,0,L|376:212,1,35.0000001490115
376,252,104796,1,2,0:0:0:0:
232,256,105427,5,0,0:0:0:0:
200,192,105743,2,0,P|156:204|120:232,2,70.000000298023
260,156,106690,2,0,P|308:172|332:196,1,70.000000298023
360,244,107322,1,0,0:0:0:0:
360,244,107953,5,0,0:0:0:0:
304,288,108269,2,0,P|256:300|216:288,1,70.000000298023
256,192,108901,12,0,110796,0:0:0:0:
128,192,111427,5,4,0:0:0:0:
252,128,112059,1,8,0:0:0:0:
392,108,112690,6,0,P|408:140|411:179,1,70.000000298023
392,240,113322,1,8,0:0:0:0:
252,260,113953,2,0,P|216:241|188:204,1,70.000000298023
180,152,114585,1,8,0:0:0:0:
300,80,115217,2,0,P|332:96|348:128,2,70.000000298023,0|0|8,0:0|0:0|0:0,0:0:0:0:
180,148,116480,1,4,0:0:0:0:
252,268,117111,1,8,0:0:0:0:
352,172,117743,6,0,P|368:204|368:244,1,70.000000298023
352,304,118375,1,8,0:0:0:0:
216,272,119006,2,0,B|192:240|200:192,1,70.000000298023
264,180,119638,2,0,P|280:132|296:116,1,70.000000298023,8|0,0:0|0:0,0:0:0:0:
356,148,120269,2,0,P|391:164|412:196,2,70.000000298023,0|0|8,0:0|0:0|0:0,0:0:0:0:
288,124,121217,1,0,0:0:0:0:
224,96,121532,6,0,P|196:126|180:158,1,70.000000298023,4|0,0:0|0:0,0:0:0:0:
168,220,122164,2,0,P|152:260|160:300,1,70.000000298023,8|0,0:0|0:0,0:0:0:0:
224,276,122796,2,0,B|216:308|248:356,1,70.000000298023
288,292,123427,1,8,0:0:0:0:
396,204,124059,2,0,L|476:172,2,70.000000298023,0|0|8,0:0|0:0|0:0,0:0:0:0:
256,208,125322,2,0,B|192:176,2,70.000000298023,0|0|8,0:0|0:0|0:0,0:0:0:0:
408,248,126585,6,0,P|424:200|424:168,1,70.000000298023,4|0,0:0|0:0,0:0:0:0:
376,132,127217,2,0,P|328:116|296:116,1,70.000000298023,8|0,0:0|0:0,0:0:0:0:
308,184,127848,2,0,P|260:200|228:200,1,70.000000298023
188,156,128480,1,8,0:0:0:0:
328,152,129111,2,0,L|392:120,2,70.000000298023,0|0|8,0:0|0:0|0:0,0:0:0:0:
268,188,130059,1,0,0:0:0:0:
312,240,130375,2,0,L|368:304,2,70.000000298023,0|0|8,0:0|0:0|0:0,0:0:0:0:
268,188,131322,1,0,0:0:0:0:
204,216,131638,6,0,P|156:200|140:184,1,70.000000298023
196,140,132269,2,0,P|220:108|260:92,1,70.000000298023
260,164,132901,1,0,0:0:0:0:
328,176,133217,1,0,0:0:0:0:
364,116,133532,2,0,P|412:108|452:132,1,70.000000298023
456,180,134164,2,0,P|456:220|416:260,1,70.000000298023
376,272,134796,2,0,P|354:299|296:320,1,70.000000298023
268,272,135427,1,0,0:0:0:0:
200,256,135743,1,0,0:0:0:0:
152,204,136059,5,0,0:0:0:0:
140,128,136375,1,0,0:0:0:0:
188,76,136690,2,0,P|218:92|240:126,1,70.000000298023
304,140,137322,2,0,P|272:180|224:188,1,70.000000298023
188,204,137953,1,0,0:0:0:0:
172,272,138269,1,0,0:0:0:0:
240,292,138585,2,0,P|288:292|320:260,1,70.000000298023
324,212,139217,2,0,P|376:176|408:184,1,70.000000298023
436,216,139848,2,0,P|476:176|476:136,1,70.000000298023
444,104,140480,5,0,0:0:0:0:
392,56,140796,1,0,0:0:0:0:
324,44,141111,2,0,P|304:73|304:121,1,70.000000298023
252,156,141743,2,0,L|188:108,2,70.000000298023
308,196,142690,1,0,0:0:0:0:
364,236,143006,2,0,P|340:276|308:292,1,70.000000298023
252,284,143638,2,0,P|220:260|220:212,1,70.000000298023
276,200,144269,2,0,B|324:200|356:184,1,70.000000298023
404,148,144901,2,0,L|468:84,2,70.000000298023
284,220,146164,6,0,P|268:188|260:148,1,70.000000298023
248,84,146796,1,2,0:0:0:0:
316,72,147111,2,8,L|300:24,2,35.0000001490115
376,112,147743,1,0,0:0:0:0:
428,156,148059,2,0,P|428:204|412:220,1,70.000000298023
388,284,148690,2,0,P|356:316|324:316,1,70.000000298023
336,248,149322,1,0,0:0:0:0:
268,260,149638,2,8,L|268:308,2,35.0000001490115
276,192,150269,1,0,0:0:0:0:
208,212,150585,2,0,P|200:180|208:140,1,70.000000298023
136,128,151217,5,2,0:0:0:0:
176,72,151532,1,2,0:0:0:0:
248,40,151848,2,0,P|292:40|340:40,1,70.000000298023,4|0,0:0|0:0,0:0:0:0:
304,108,152480,2,0,P|352:116|384:140,1,70.000000298023,8|0,0:0|0:0,0:0:0:0:
336,188,153111,2,0,P|365:212|381:244,1,70.000000298023
316,272,153743,1,0,0:0:0:0:
252,300,154059,1,0,0:0:0:0:
184,304,154375,6,0,P|136:264|128:232,1,70.000000298023,4|0,0:0|0:0,0:0:0:0:
196,224,155006,2,0,P|174:180|175:147,1,70.000000298023,8|0,0:0|0:0,0:0:0:0:
244,148,155638,2,0,P|232:113|232:73,1,70.000000298023
300,64,156269,1,0,0:0:0:0:
368,72,156585,1,0,0:0:0:0:
440,64,156901,2,0,P|480:104|496:140,1,70.000000298023,4|0,0:0|0:0,0:0:0:0:
448,176,157532,2,0,P|464:208|464:256,1,70.000000298023,8|0,0:0|0:0,0:0:0:0:
408,280,158164,2,0,P|392:312|363:335,1,70.000000298023
296,324,158796,1,0,0:0:0:0:
228,308,159111,1,0,0:0:0:0:
160,328,159427,6,0,P|136:352|89:362,1,70.000000298023,2|0,0:0|0:0,0:0:0:0:
76,296,160059,2,0,P|38:263|29:214,1,70.000000298023,8|0,0:0|0:0,0:0:0:0:
84,200,160690,2,0,P|101:154|133:129,1,70.000000298023
184,156,161322,1,8,0:0:0:0:
244,192,161638,1,0,0:0:0:0:
272,256,161953,2,0,P|288:288|320:304,1,70.000000298023,4|0,0:0|0:0,0:0:0:0:
388,312,162585,2,0,P|436:312|468:312,2,70.000000298023,8|0|0,0:0|0:0|0:0,0:0:0:0:
317,311,163532,1,0,0:0:0:0:
356,252,163848,5,8,0:0:0:0:
364,184,164164,1,0,0:0:0:0:
360,116,164480,2,0,P|312:124|296:140,1,70.000000298023
264,200,165111,2,0,P|278:239|240:280,2,70.000000298023,8|0|0,0:0|0:0|0:0,0:0:0:0:
236,136,166059,1,0,0:0:0:0:
168,132,166375,1,0,0:0:0:0:
112,176,166690,1,0,0:0:0:0:
104,244,167006,2,0,B|144:268|192:260,1,70.000000298023,4|0,0:0|0:0,0:0:0:0:
228,220,167638,2,0,P|276:236|300:260,1,70.000000298023,8|0,0:0|0:0,0:0:0:0:
328,308,168269,2,0,P|376:332|408:324,1,70.000000298023
424,268,168901,5,8,0:0:0:0:
468,212,169217,1,0,0:0:0:0:
452,144,169532,2,0,P|420:128|380:120,1,70.000000298023
332,76,170164,2,0,P|284:92|260:132,1,70.000000298023,8|0,0:0|0:0,0:0:0:0:
200,108,170796,2,0,P|192:148|232:188,1,70.000000298023
256,220,171427,1,0,0:0:0:0:
204,268,171743,1,0,0:0:0:0:
144,232,172059,6,0,P|160:200|200:184,1,70.000000298023
240,136,172690,2,0,P|288:136|320:152,1,70.000000298023
332,212,173322,2,0,P|364:228|380:260,1,70.000000298023
332,308,173953,5,0,0:0:0:0:
264,304,174269,1,0,0:0:0:0:
196,300,174585,2,0,B|180:260|196:220,1,70.000000298023
220,168,175217,2,0,P|188:152|140:152,1,70.000000298023
108,96,175848,2,0,P|68:120|52:152,1,70.000000298023
84,204,176480,5,0,0:0:0:0:
136,252,176796,1,0,0:0:0:0:
204,264,177111,2,0,P|220:208|220:168,1,70.000000298023
264,140,177743,2,0,P|304:172|312:204,1,70.000000298023
336,252,178375,1,0,0:0:0:0:
476,244,179006,5,0,0:0:0:0:
468,176,179322,1,0,0:0:0:0:
420,124,179638,2,0,P|412:92|388:60,1,70.000000298023
324,88,180269,2,0,P|292:56|260:48,1,70.000000298023
244,112,180901,2,0,P|196:128|180:144,1,70.000000298023
188,212,181532,5,0,0:0:0:0:
220,276,181848,1,0,0:0:0:0:
280,312,182164,2,0,P|306:281|311:236,1,70.000000298023
376,228,182796,2,0,P|384:196|368:156,1,70.000000298023
412,104,183427,2,0,P|371:79|339:79,1,70.000000298023
280,80,184059,5,0,0:0:0:0:
228,124,184375,1,0,0:0:0:0:
164,152,184690,2,0,P|164:200|180:232,1,70.000000298023
184,288,185322,2,0,B|220:302|252:286,1,70.000000298023
288,224,185953,1,0,0:0:0:0:
424,252,186585,6,0,P|464:220|472:180,1,70.000000298023
412,164,187217,2,0,P|412:132|388:92,1,70.000000298023
336,60,187848,2,0,P|304:72|282:99,1,70.000000298023
240,156,188480,1,0,0:0:0:0:
284,208,188796,1,0,0:0:0:0:
352,220,189111,5,0,0:0:0:0:
420,240,189427,1,0,0:0:0:0:
368,288,189743,2,0,P|351:333|320:360,1,70.000000298023
288,296,190375,2,0,L|208:296,1,70.000000298023
148,280,191006,2,0,P|100:280|68:264,1,70.000000298023
272,232,207427,5,0,0:0:0:0:
213,209,207743,2,0,L|143:212,2,70.000000298023
252,152,208690,2,0,P|292:120|324:112,1,70.000000298023
340,52,209322,2,0,P|376:39|416:48,1,70.000000298023
440,104,209953,5,8,0:0:0:0:
440,180,210269,1,0,0:0:0:0:
416,244,210585,1,8,0:0:0:0:
356,284,210901,1,0,0:0:0:0:
284,284,211217,6,8,L|284:236,8,35.0000001490115,8|8|8|8|8|8|8|8|12,0:0|0:0|0:0|0:0|0:0|0:0|0:0|0:0|0:0,0:0:0:0:
88,296,213111,6,8,P|72:264|56:216,1,70.000000298023,8|0,0:0|0:0,0:0:0:0:
120,152,213743,2,0,P|136:120|168:88,1,70.000000298023
244,48,214375,1,8,0:0:0:0:
348,52,214690,1,4,0:0:0:0:
432,100,215006,6,0,P|456:132|464:180,1,70.000000298023,8|0,0:0|0:0,0:0:0:0:
364,176,215638,2,0,P|348:208|316:232,1,70.000000298023,8|0,0:0|0:0,0:0:0:0:
260,152,216269,2,8,P|220:192|212:224,1,70.000000298023,8|0,0:0|0:0,0:0:0:0:
160,284,216901,1,0,0:0:0:0:
76,232,217217,1,0,0:0:0:0:
68,136,217532,6,0,P|84:88|100:72,1,70.000000298023,4|0,0:0|0:0,0:0:0:0:
160,136,218164,2,0,P|208:120|240:120,1,70.000000298023,8|0,0:0|0:0,0:0:0:0:
216,216,218796,2,0,P|248:232|264:264,1,70.000000298023
312,348,219427,1,8,0:0:0:0:
408,324,219743,1,4,0:0:0:0:
432,228,220059,6,0,P|408:180|376:164,1,70.000000298023,8|0,0:0|0:0,0:0:0:0:
332,248,220690,2,0,B|284:264|252:248,1,70.000000298023,8|0,0:0|0:0,0:0:0:0:
288,156,221322,2,0,P|256:124|256:76,1,70.000000298023,8|0,0:0|0:0,0:0:0:0:
348,84,221953,1,8,0:0:0:0:
412,156,222269,1,0,0:0:0:0:
456,244,222585,6,0,P|432:284|384:308,1,70.000000298023,4|0,0:0|0:0,0:0:0:0:
360,216,223217,1,8,0:0:0:0:
264,196,223532,1,0,0:0:0:0:
184,140,223848,2,0,P|168:172|184:220,1,70.000000298023
236,280,224480,1,8,0:0:0:0:
332,284,224796,1,4,0:0:0:0:
424,316,225111,6,0,P|436:286|424:240,1,70.000000298023,8|0,0:0|0:0,0:0:0:0:
352,192,225743,2,0,P|345:158|320:128,1,70.000000298023,8|0,0:0|0:0,0:0:0:0:
252,200,226375,2,0,P|234:169|196:152,1,70.000000298023,8|0,0:0|0:0,0:0:0:0:
176,248,227006,1,8,0:0:0:0:
124,332,227322,1,0,0:0:0:0:
32,304,227638,6,0,P|32:256|48:224,1,70.000000298023,4|0,0:0|0:0,0:0:0:0:
112,168,228269,1,8,0:0:0:0:
200,120,228585,1,0,0:0:0:0:
280,60,228901,2,0,P|312:28|344:12,1,70.000000298023
368,108,229532,1,8,0:0:0:0:
328,200,229848,1,0,0:0:0:0:
400,268,230164,6,10,P|434:261|456:235,2,70.000000298023
304,276,231111,1,10,0:0:0:0:
220,328,231427,2,8,P|188:296|180:248,1,70.000000298023,10|8,0:0|0:0,0:0:0:0:
172,176,232059,1,2,0:0:0:0:
256,128,232375,1,6,0:0:0:0:
