osu file format v14

[General]
AudioFilename: audio.mp3
AudioLeadIn: 0
PreviewTime: 151217
Countdown: 1
SampleSet: Normal
StackLeniency: 0.7
Mode: 0
LetterboxInBreaks: 0
WidescreenStoryboard: 0

[Editor]
Bookmarks: 70997,91365,111418,151839,172050,212471
DistanceSpacing: 1.8
BeatDivisor: 8
GridSize: 4
TimelineZoom: 2.1

[Metadata]
Title:Closer ft. Halsey
TitleUnicode:Closer ft. Halsey
Artist:The Chainsmokers
ArtistUnicode:The Chainsmokers
Creator:Blitzfrog
Version:Hard
Source:
Tags:
BeatmapID:1062431
BeatmapSetID:499128

[Difficulty]
HPDrainRate:5
CircleSize:3.5
OverallDifficulty:6
ApproachRate:7
SliderMultiplier:2.20000000596046
SliderTickRate:1

[Events]
//Background and Video events
0,0,"Closer- Background.jpg",0,0
//Break Periods
2,191522,201475
//Storyboard Layer 0 (Background)
//Storyboard Layer 1 (Fail)
//Storyboard Layer 2 (Pass)
//Storyboard Layer 3 (Foreground)
//Storyboard Layer 4 (Overlay)
//Storyboard Sound Samples

[TimingPoints]
10375,631.578947368421,4,3,1,50,1,0
30576,-100,4,3,1,80,0,0
50787,-100,4,2,1,50,0,0
65944,-100,4,3,1,70,0,0
71006,-100,4,3,1,100,0,1
91375,-100,4,2,1,60,0,0
111418,-100,4,3,1,80,0,0
151848,-100,4,3,1,100,0,1
172059,-100,4,2,1,50,0,0
192259,-100,4,3,1,100,0,0
207400,-100,4,3,1,100,0,0
212480,-100,4,3,1,100,0,1
232690,-100,4,1,0,5,0,0

[Colours]
Combo1 : 255,0,0
Combo2 : 164,32,240
Combo3 : 181,251,188
Combo4 : 23,209,116
Combo5 : 226,45,124
Combo6 : 26,116,242
Combo7 : 203,228,254
Combo8 : 249,224,0

[HitObjects]
0,192,10375,6,0,B|100:172|32:80|160:96,1,165.000000447034
176,92,11006,1,8,0:0:0:0:
412,40,11953,1,0,0:0:0:0:
484,164,12269,2,0,P|496:223|444:276,1,110.000000298023,2|0,0:0|0:0,0:0:0:0:
345,332,12901,6,8,P|358:242|450:203,1,165.000000447034,0|0,0:0|0:0,0:0:0:0:
484,164,13532,1,8,0:0:0:0:
387,63,14006,2,0,B|308:188,1,110.000000298023
284,236,14480,1,0,0:0:0:0:
252,108,14796,1,2,0:0:0:0:
328,155,15111,1,4,0:0:0:0:
204,184,15427,6,0,P|152:160|128:92,1,110.000000298023
88,56,15901,2,0,L|160:36,1,55.0000001490115
216,24,16217,1,0,0:0:0:0:
292,48,16375,2,0,P|264:88|205:102,1,110.000000298023
128,220,17006,1,0,0:0:0:0:
128,220,17164,1,0,0:0:0:0:
128,220,17322,2,0,P|192:228|256:212,1,110.000000298023
316,132,17953,6,0,B|252:96|192:220|80:92,1,220.000000596046,0|8,0:0|0:0,0:0:0:0:
216,320,19532,1,0,0:0:0:0:
356,292,19848,1,6,0:0:0:0:
320,152,20164,1,0,0:0:0:0:
180,180,20480,6,0,P|144:172|140:36,1,192.50000052154,0|8,0:0|0:0,0:0:0:0:
160,20,21111,1,2,0:0:0:0:
260,68,21427,1,0,0:0:0:0:
260,68,22059,1,0,0:0:0:0:
312,164,22375,2,0,P|256:180|194:139,1,110.000000298023
104,244,23006,6,0,P|160:228|222:269,1,110.000000298023
248,284,23480,1,0,0:0:0:0:
248,284,23638,1,2,0:0:0:0:
340,224,23953,1,0,0:0:0:0:
340,224,24111,2,0,L|440:280,1,110.000000298023
436,180,24585,6,0,L|368:144,1,55.0000001490115
360,56,24901,2,0,L|408:81,1,55.0000001490115
312,124,25217,2,0,L|263:98,1,55.0000001490115
200,160,25532,6,0,B|288:192|296:264,1,137.500000372529
304,336,26164,1,0,0:0:0:0:
376,252,26480,1,0,0:0:0:0:
320,156,26796,1,0,0:0:0:0:
212,180,27111,1,0,0:0:0:0:
200,288,27427,2,0,P|151:322|88:316,1,110.000000298023
0,304,28059,2,0,P|52:236|136:224,1,165.000000447034,0|8,0:0|0:0,0:0:0:0:
180,208,28690,1,0,0:0:0:0:
208,100,29006,1,0,0:0:0:0:
208,100,29638,5,0,0:0:0:0:
180,208,29953,1,8,0:0:0:0:
64,120,30269,1,0,0:0:0:0:
180,208,30585,5,4,0:0:0:0:
324,44,31217,2,0,P|388:64|416:116,1,110.000000298023,8|0,0:0|0:0,0:0:0:0:
364,240,31848,1,0,0:0:0:0:
333,126,32164,1,0,0:0:0:0:
448,212,32480,2,0,P|444:272|404:320,1,110.000000298023,8|0,0:0|0:0,0:0:0:0:
364,240,33111,6,0,P|308:224|252:256,1,110.000000298023
152,336,33743,1,8,0:0:0:0:
316,304,34059,1,0,0:0:0:0:
262,244,34375,1,0,0:0:0:0:
224,360,34690,1,0,0:0:0:0:
184,224,35006,2,0,P|224:172|288:168,1,110.000000298023,8|0,0:0|0:0,0:0:0:0:
421,198,35638,6,0,B|368:196|348:156|348:156|340:248|252:240,1,220.000000596046,0|8,0:0|0:0,0:0:0:0:
108,244,36585,1,0,0:0:0:0:
88,112,36901,2,0,B|120:44|208:60,1,110.000000298023
312,64,37532,1,10,0:0:0:0:
216,232,38164,6,0,P|204:168|144:136,1,110.000000298023
40,112,38796,1,8,0:0:0:0:
143,212,39111,1,0,0:0:0:0:
288,272,39427,1,0,0:0:0:0:
144,312,39743,2,0,P|124:260|152:204,1,110.000000298023,0|8,0:0|0:0,0:0:0:0:
252,116,40375,1,0,0:0:0:0:
404,80,40690,6,0,B|471:93|474:168,1,110.000000298023
460,288,41322,1,8,0:0:0:0:
320,192,41638,1,0,0:0:0:0:
396,156,41953,2,0,B|416:220|369:261,1,110.000000298023
264,336,42585,1,8,0:0:0:0:
48,200,43217,5,0,0:0:0:0:
96,64,43532,1,0,0:0:0:0:
241,119,43848,2,0,P|225:167|170:200,1,110.000000298023,8|0,0:0|0:0,0:0:0:0:
48,200,44480,1,0,0:0:0:0:
159,119,44796,1,0,0:0:0:0:
114,256,45111,1,10,0:0:0:0:
68,120,45427,1,0,0:0:0:0:
178,199,45743,6,0,B|224:248|180:316,1,110.000000298023
44,352,46375,1,8,0:0:0:0:
114,256,46690,1,0,0:0:0:0:
268,248,47006,2,0,P|248:288|184:300,1,110.000000298023
24,268,47638,1,8,0:0:0:0:
256,192,48269,12,0,50480,0:0:0:0:
264,320,50796,6,0,P|204:320|152:344,1,110.000000298023,6|0,0:0|0:0,0:0:0:0:
32,260,51427,2,0,P|96:264|152:236,1,110.000000298023,6|0,0:0|0:0,0:0:0:0:
212,168,52059,2,0,P|220:108|192:56,1,110.000000298023
112,132,52690,1,2,0:0:0:0:
128,240,53006,1,2,0:0:0:0:
212,168,53322,6,0,P|268:172|324:224,1,110.000000298023,4|0,0:0|0:0,0:0:0:0:
444,156,53953,2,0,P|388:152|336:108,1,110.000000298023,4|0,0:0|0:0,0:0:0:0:
244,124,54585,2,0,P|280:166|288:236,1,110.000000298023,4|0,0:0|0:0,0:0:0:0:
204,204,55217,1,0,0:0:0:0:
368,224,55532,1,0,0:0:0:0:
323,340,55848,6,0,P|259:332|204:304,1,110.000000298023,4|0,0:0|0:0,0:0:0:0:
283,244,56480,2,0,P|243:208|228:144,1,110.000000298023
340,164,57111,1,0,0:0:0:0:
432,108,57427,1,0,0:0:0:0:
372,16,57743,1,0,0:0:0:0:
276,72,58059,1,0,0:0:0:0:
168,100,58375,6,0,P|192:152|248:180,1,110.000000298023,4|0,0:0|0:0,0:0:0:0:
340,184,59006,2,0,P|321:234|256:272,1,110.000000298023
176,312,59638,2,0,P|172:252|208:192,1,110.000000298023
272,132,60269,1,0,0:0:0:0:
380,136,60585,1,0,0:0:0:0:
476,188,60901,6,0,P|452:236|384:260,1,110.000000298023,4|0,0:0|0:0,0:0:0:0:
444,360,61532,2,0,P|384:368|324:336,1,110.000000298023
256,280,62164,1,0,0:0:0:0:
180,200,62480,1,0,0:0:0:0:
256,124,62796,1,0,0:0:0:0:
336,200,63111,1,0,0:0:0:0:
444,220,63427,6,0,P|436:152|388:104,1,110.000000298023,4|0,0:0|0:0,0:0:0:0:
388,12,64059,2,0,P|328:48|312:116,1,110.000000298023
292,192,64690,2,0,P|232:212|164:168,1,110.000000298023
236,96,65322,1,0,0:0:0:0:
140,52,65638,1,0,0:0:0:0:
236,96,65953,5,4,0:0:0:0:
140,148,66269,1,0,0:0:0:0:
140,148,66427,1,0,0:0:0:0:
140,148,66585,1,8,0:0:0:0:
64,228,66901,1,0,0:0:0:0:
144,304,67217,1,0,0:0:0:0:
252,320,67532,1,0,0:0:0:0:
356,284,67848,6,0,L|468:244,2,110.000000298023
252,320,68796,1,0,0:0:0:0:
252,320,68953,1,0,0:0:0:0:
252,320,69111,1,8,0:0:0:0:
144,304,69427,1,0,0:0:0:0:
64,228,69743,1,0,0:0:0:0:
132,144,70059,2,0,P|64:120|0:144,2,110.000000298023,0|8|0,0:0|0:0|0:0,0:0:0:0:
224,256,71006,6,0,P|272:284|344:268,1,110.000000298023,4|0,0:0|0:0,0:0:0:0:
368,128,71638,1,8,0:0:0:0:
244,64,71953,1,0,0:0:0:0:
284,196,72269,1,0,0:0:0:0:
128,152,72585,1,0,0:0:0:0:
172,312,72901,1,8,0:0:0:0:
284,196,73217,1,0,0:0:0:0:
380,124,73532,6,0,P|400:180|392:236,1,110.000000298023,4|0,0:0|0:0,0:0:0:0:
204,288,74164,1,8,0:0:0:0:
80,168,74480,1,0,0:0:0:0:
276,140,74796,1,0,0:0:0:0:
96,56,75111,1,0,0:0:0:0:
184,236,75427,1,8,0:0:0:0:
248,48,75743,1,0,0:0:0:0:
104,183,76059,6,0,P|168:199|184:247,1,110.000000298023,4|0,0:0|0:0,0:0:0:0:
180,300,76690,1,8,0:0:0:0:
376,316,77006,1,0,0:0:0:0:
308,132,77322,1,0,0:0:0:0:
268,328,77638,1,0,0:0:0:0:
412,192,77953,1,8,0:0:0:0:
216,228,78269,1,0,0:0:0:0:
308,132,78585,6,8,P|332:180|320:240,1,110.000000298023,12|8,0:0|0:0,0:0:0:0:
248,196,79217,2,8,P|216:244|144:244,1,110.000000298023
172,176,79848,1,8,0:0:0:0:
100,92,80164,1,8,0:0:0:0:
184,20,80480,1,8,0:0:0:0:
260,100,80796,1,8,0:0:0:0:
100,92,81111,6,0,P|52:128|40:176,1,110.000000298023,4|0,0:0|0:0,0:0:0:0:
164,332,81743,1,8,0:0:0:0:
308,196,82059,1,0,0:0:0:0:
108,200,82375,1,0,0:0:0:0:
268,316,82690,1,0,0:0:0:0:
200,128,83006,1,8,0:0:0:0:
308,196,83322,1,0,0:0:0:0:
408,128,83638,6,0,P|428:184|424:240,1,110.000000298023,4|0,0:0|0:0,0:0:0:0:
268,296,84269,1,8,0:0:0:0:
136,204,84585,1,0,0:0:0:0:
244,120,84901,1,0,0:0:0:0:
192,276,85217,1,0,0:0:0:0:
104,100,85532,1,8,0:0:0:0:
88,296,85848,1,0,0:0:0:0:
304,160,86164,6,0,P|262:125|206:125,1,110.000000298023,4|0,0:0|0:0,0:0:0:0:
176,220,86796,1,8,0:0:0:0:
368,268,87111,1,0,0:0:0:0:
176,320,87427,1,0,0:0:0:0:
308,172,87743,1,0,0:0:0:0:
144,64,88059,1,8,0:0:0:0:
256,228,88375,1,0,0:0:0:0:
376,44,88690,6,8,P|432:84|456:132,1,110.000000298023,12|8,0:0|0:0,0:0:0:0:
344,144,89322,2,8,B|376:196|332:252,1,110.000000298023,12|8,0:0|0:0,0:0:0:0:
244,188,89953,2,8,B|184:200|164:260,1,110.000000298023,12|8,0:0|0:0,0:0:0:0:
272,288,90585,2,8,P|320:320|372:316,1,110.000000298023,12|8,0:0|0:0,0:0:0:0:
472,276,91217,5,12,0:0:0:0:
416,64,91848,1,8,0:0:0:0:
116,204,92796,1,0,0:0:0:0:
52,116,93111,2,0,B|-4:140|0:204,1,110.000000298023
112,204,93743,1,0,0:0:0:0:
256,372,94375,1,0,0:0:0:0:
344,52,95322,5,0,0:0:0:0:
384,156,95638,2,0,P|440:120|452:68,1,110.000000298023
344,52,96269,1,0,0:0:0:0:
128,84,96901,1,2,0:0:0:0:
356,324,97848,1,0,0:0:0:0:
424,236,98164,1,8,0:0:0:0:
216,40,98796,6,0,B|168:92|208:156|208:156|148:152|120:188,1,220.000000596046
472,312,100375,1,0,0:0:0:0:
496,204,100690,1,4,0:0:0:0:
452,104,101006,1,0,0:0:0:0:
360,40,101322,5,0,0:0:0:0:
196,32,101796,1,0,0:0:0:0:
196,32,101953,2,0,P|132:52|72:40,1,110.000000298023
36,288,102901,1,0,0:0:0:0:
132,344,103217,1,2,0:0:0:0:
240,348,103532,1,0,0:0:0:0:
340,300,103848,5,0,0:0:0:0:
440,168,104322,1,0,0:0:0:0:
440,168,104480,2,0,P|432:104|464:64,1,110.000000298023
192,32,105427,1,0,0:0:0:0:
148,132,105743,1,2,0:0:0:0:
224,212,106059,1,0,0:0:0:0:
324,264,106375,5,0,0:0:0:0:
368,104,106848,1,0,0:0:0:0:
368,104,107006,2,0,P|304:100|256:64,1,110.000000298023
52,168,107953,1,0,0:0:0:0:
84,272,108269,1,2,0:0:0:0:
300,324,108901,2,0,B|276:272|276:272|296:204,1,110.000000298023
372,248,109532,2,0,B|386:197|386:197|362:145,1,110.000000298023
204,12,110480,1,8,0:0:0:0:
144,104,110796,1,6,0:0:0:0:
360,68,111427,6,0,P|408:100|424:152,1,110.000000298023
316,164,112059,1,8,0:0:0:0:
396,360,112690,1,0,0:0:0:0:
508,360,113006,1,0,0:0:0:0:
396,360,113322,1,8,0:0:0:0:
176,364,113953,6,0,P|112:332|104:292,1,110.000000298023
96,188,114585,1,8,0:0:0:0:
316,164,115217,1,0,0:0:0:0:
240,84,115532,2,0,P|192:56|132:48,2,110.000000298023
316,164,116480,5,6,0:0:0:0:
512,268,117111,1,8,0:0:0:0:
424,332,117427,2,0,B|404:348|368:324|368:324|336:348|308:332,1,110.000000298023
312,228,118059,1,0,0:0:0:0:
200,228,118375,1,8,0:0:0:0:
88,40,119006,6,0,L|60:108,1,55.0000001490115
124,96,119322,6,0,L|96:164,1,55.0000001490115
156,156,119638,6,0,L|128:224,1,55.0000001490115
188,212,119953,6,0,L|160:280,1,55.0000001490115
224,264,120269,1,0,0:0:0:0:
248,124,120585,1,0,0:0:0:0:
328,224,120901,1,8,0:0:0:0:
248,124,121217,1,0,0:0:0:0:
388,136,121532,6,0,P|428:184|436:232,1,110.000000298023,2|0,0:0|0:0,0:0:0:0:
328,224,122164,2,0,B|328:256|300:288|236:296,1,110.000000298023,8|0,0:0|0:0,0:0:0:0:
172,220,122796,2,0,L|92:300,1,110.000000298023
16,376,123427,1,8,0:0:0:0:
20,196,124059,5,0,0:0:0:0:
80,104,124375,1,0,0:0:0:0:
120,0,124690,2,0,B|148:4|172:32|172:32|192:4|224:0,1,110.000000298023,8|0,0:0|0:0,0:0:0:0:
252,104,125322,1,0,0:0:0:0:
348,160,125638,1,0,0:0:0:0:
420,76,125953,2,0,P|460:136|456:184,1,110.000000298023,8|0,0:0|0:0,0:0:0:0:
348,160,126585,6,0,P|356:220|404:264,1,110.000000298023,2|0,0:0|0:0,0:0:0:0:
472,328,127217,2,0,B|416:384|344:352,1,110.000000298023
264,372,127848,2,0,B|220:320|244:256,1,110.000000298023
332,300,128480,1,8,0:0:0:0:
160,160,129111,1,8,0:0:0:0:
104,256,129427,1,8,0:0:0:0:
8,200,129743,1,8,0:0:0:0:
64,104,130059,2,0,P|128:80|156:32,1,110.000000298023
256,76,130690,2,0,P|320:100|348:148,2,110.000000298023
220,212,131638,6,0,P|220:276|256:320,1,110.000000298023,4|0,0:0|0:0,0:0:0:0:
320,232,132269,2,0,P|380:212|408:160,1,110.000000298023
308,124,132901,1,0,0:0:0:0:
232,44,133217,1,0,0:0:0:0:
144,112,133532,1,2,0:0:0:0:
216,192,133848,1,0,0:0:0:0:
196,300,134164,6,0,P|148:340|96:344,1,110.000000298023,4|0,0:0|0:0,0:0:0:0:
116,240,134796,2,0,P|68:192|60:136,1,110.000000298023
168,144,135427,2,0,P|220:116|280:128,1,110.000000298023
364,180,136059,1,0,0:0:0:0:
280,248,136375,1,0,0:0:0:0:
172,232,136690,6,0,P|140:176|144:124,1,110.000000298023,4|0,0:0|0:0,0:0:0:0:
248,152,137322,2,0,P|284:112|288:52,1,110.000000298023
180,68,137953,1,0,0:0:0:0:
76,108,138269,2,0,P|80:48|112:0,2,110.000000298023
32,212,139217,6,0,P|96:220|144:196,1,110.000000298023,6|0,0:0|0:0,0:0:0:0:
200,112,139848,2,0,B|248:148|244:208,1,110.000000298023
240,316,140480,2,0,B|172:320|140:248,1,110.000000298023
124,160,141111,1,0,0:0:0:0:
140,52,141427,1,0,0:0:0:0:
264,48,141743,6,0,P|328:48|376:72,1,110.000000298023,4|0,0:0|0:0,0:0:0:0:
452,140,142375,1,0,0:0:0:0:
392,232,142690,1,0,0:0:0:0:
336,328,143006,2,0,P|288:280|284:208,1,110.000000298023
280,132,143638,1,0,0:0:0:0:
172,148,143953,1,0,0:0:0:0:
116,52,144269,6,4,P|180:36|228:52,1,110.000000298023,6|0,0:0|0:0,0:0:0:0:
328,72,144901,1,0,0:0:0:0:
392,160,145217,1,0,0:0:0:0:
460,76,145532,1,0,0:0:0:0:
272,192,146164,5,0,0:0:0:0:
200,108,146480,1,0,0:0:0:0:
188,216,146796,1,6,0:0:0:0:
96,192,147111,1,8,0:0:0:0:
96,192,147269,2,8,L|96:128,3,55.0000001490115,8|8|8|4,0:0|0:0|0:0|0:0,0:0:0:0:
100,28,148059,1,0,0:0:0:0:
208,40,148375,1,0,0:0:0:0:
216,148,148690,2,0,P|224:212|264:252,1,110.000000298023
352,200,149322,5,6,0:0:0:0:
440,132,149638,1,8,0:0:0:0:
440,132,149796,2,8,L|440:204,3,55.0000001490115
440,296,150585,1,0,0:0:0:0:
332,272,150901,1,0,0:0:0:0:
240,212,151217,1,8,0:0:0:0:
196,108,151532,1,0,0:0:0:0:
296,48,151848,6,0,P|352:80|368:128,1,110.000000298023,4|0,0:0|0:0,0:0:0:0:
352,244,152480,1,8,0:0:0:0:
196,108,152796,1,0,0:0:0:0:
140,296,153111,1,0,0:0:0:0:
284,160,153427,1,0,0:0:0:0:
92,104,153743,1,0,0:0:0:0:
232,244,154059,1,0,0:0:0:0:
312,64,154375,6,0,P|364:92|384:144,1,110.000000298023,2|0,0:0|0:0,0:0:0:0:
372,232,155006,1,8,0:0:0:0:
204,128,155322,1,0,0:0:0:0:
212,328,155638,1,0,0:0:0:0:
300,152,155953,1,0,0:0:0:0:
320,348,156269,1,8,0:0:0:0:
140,268,156585,1,0,0:0:0:0:
300,152,156901,6,0,P|240:164|188:132,1,110.000000298023,4|0,0:0|0:0,0:0:0:0:
96,32,157532,1,8,0:0:0:0:
256,84,157848,1,0,0:0:0:0:
112,220,158164,1,0,0:0:0:0:
300,276,158480,1,0,0:0:0:0:
256,84,158796,1,8,0:0:0:0:
448,124,159111,1,0,0:0:0:0:
336,256,159427,6,0,P|288:288|224:288,1,110.000000298023,2|0,0:0|0:0,0:0:0:0:
112,208,160059,1,8,0:0:0:0:
292,128,160375,1,0,0:0:0:0:
104,64,160690,1,0,0:0:0:0:
240,208,161006,1,0,0:0:0:0:
52,152,161322,1,8,0:0:0:0:
212,36,161638,1,0,0:0:0:0:
240,208,161953,6,0,P|208:248|208:312,1,110.000000298023,4|0,0:0|0:0,0:0:0:0:
380,212,162585,1,8,0:0:0:0:
232,84,162901,1,0,0:0:0:0:
284,276,163217,1,0,0:0:0:0:
404,112,163532,1,0,0:0:0:0:
200,172,163848,1,8,0:0:0:0:
300,36,164164,1,0,0:0:0:0:
404,112,164480,6,0,P|356:176|312:180,1,110.000000298023,2|0,0:0|0:0,0:0:0:0:
240,256,165111,1,8,0:0:0:0:
320,96,165427,1,0,0:0:0:0:
156,112,165743,1,0,0:0:0:0:
312,236,166059,1,0,0:0:0:0:
116,252,166375,1,8,0:0:0:0:
220,192,166690,1,0,0:0:0:0:
128,132,167006,6,0,P|156:76|212:60,1,110.000000298023,4|0,0:0|0:0,0:0:0:0:
304,112,167638,1,8,0:0:0:0:
352,160,167953,1,0,0:0:0:0:
288,176,168269,1,0,0:0:0:0:
320,90,168585,1,0,0:3:0:0:
374,184,168901,1,8,0:3:0:0:
268,182,169217,1,0,0:3:0:0:
358,58,169532,5,8,0:0:0:0:
376,260,169848,1,0,0:0:0:0:
198,174,170164,1,8,0:0:0:0:
409,104,170480,1,0,0:0:0:0:
277,333,170796,1,8,0:0:0:0:
151,108,171111,1,0,0:0:0:0:
352,160,171427,1,8,0:0:0:0:
144,224,171743,1,8,0:0:0:0:
128,72,172059,6,0,P|180:44|248:44,1,110.000000298023,6|0,0:0|0:0,0:0:0:0:
216,144,172690,2,0,P|280:160|312:200,1,110.000000298023
216,256,173322,1,2,0:0:0:0:
216,256,173638,1,0,0:0:0:0:
320,288,173953,2,0,B|260:316|240:364,1,110.000000298023
144,296,174585,6,0,P|120:248|124:180,1,110.000000298023
228,212,175217,2,0,P|236:160|288:108,1,110.000000298023
340,200,175848,1,2,0:0:0:0:
448,188,176164,1,0,0:0:0:0:
436,76,176480,1,0,0:0:0:0:
328,88,176796,1,0,0:0:0:0:
236,28,177111,6,0,P|164:12|116:36,1,110.000000298023
180,124,177743,2,0,P|180:188|212:220,1,110.000000298023
320,236,178375,2,0,P|308:292|244:336,1,110.000000298023,2|0,0:0|0:0,0:0:0:0:
160,336,179006,1,0,0:0:0:0:
92,248,179322,1,0,0:0:0:0:
36,152,179638,6,0,P|92:136|164:168,1,110.000000298023
240,100,180269,2,0,P|256:172|240:212,1,110.000000298023
228,312,180901,2,0,P|276:336|328:323,1,110.000000298023,2|0,0:0|0:0,0:0:0:0:
428,280,181532,1,0,0:0:0:0:
456,172,181848,1,0,0:0:0:0:
368,108,182164,6,0,P|336:60|280:44,1,110.000000298023
252,148,182796,2,0,B|196:172|172:228,1,110.000000298023
280,256,183427,2,0,P|316:316|384:340,1,110.000000298023,2|0,0:0|0:0,0:0:0:0:
452,296,184059,1,0,0:0:0:0:
448,188,184375,1,0,0:0:0:0:
404,88,184690,6,0,P|350:82|303:109,1,110.000000298023
200,72,185322,2,0,B|161:110|188:176,1,110.000000298023
236,272,185953,2,0,P|282:243|305:194,1,110.000000298023,2|0,0:0|0:0,0:0:0:0:
248,100,186585,1,0,0:0:0:0:
152,152,186901,1,0,0:0:0:0:
64,88,187217,6,0,P|31:131|31:185,1,110.000000298023
136,224,187848,2,0,P|188:234|223:276,1,110.000000298023
276,372,188480,2,0,P|324:332|340:280,1,110.000000298023
356,180,189111,1,0,0:0:0:0:
304,84,189427,1,0,0:0:0:0:
216,16,189743,6,0,B|156:40|156:108,1,110.000000298023
236,176,190375,2,0,P|184:220|128:224,1,110.000000298023
52,168,191006,1,0,0:0:0:0:
36,60,191322,1,0,0:0:0:0:
364,284,202375,5,0,0:0:0:0:
276,292,202690,1,0,0:0:0:0:
276,292,202848,1,0,0:0:0:0:
276,292,203006,1,2,0:0:0:0:
168,280,203322,2,0,P|140:276|108:252,1,55.0000001490115
152,220,203638,2,0,P|132:204|124:168,1,55.0000001490115
176,164,203953,1,0,0:0:0:0:
236,72,204269,5,6,0:0:0:0:
344,76,204585,1,0,0:0:0:0:
344,76,204743,1,0,0:0:0:0:
344,76,204901,1,0,0:0:0:0:
356,184,205217,5,0,0:0:0:0:
252,216,205532,1,6,0:0:0:0:
360,236,205848,2,0,P|388:239|428:264,1,55.0000001490115
380,296,206164,2,0,P|408:316|424:344,1,55.0000001490115
368,348,206480,1,0,0:0:0:0:
260,344,206796,1,4,0:0:0:0:
156,308,207111,1,0,0:0:0:0:
100,212,207427,5,6,0:0:0:0:
172,128,207743,1,8,0:0:0:0:
172,128,207901,2,8,L|236:80,3,55.0000001490115
300,24,208690,1,12,0:0:0:0:
348,52,208848,1,0,0:0:0:0:
384,96,209006,1,0,0:0:0:0:
396,148,209164,1,0,0:0:0:0:
388,204,209322,1,12,0:0:0:0:
372,256,209480,1,0,0:0:0:0:
336,300,209638,1,6,0:0:0:0:
292,380,209953,5,8,0:0:0:0:
396,348,210269,2,8,L|456:320,3,55.0000001490115
500,308,210901,1,8,0:0:0:0:
508,252,211059,1,8,0:0:0:0:
488,200,211217,1,12,0:0:0:0:
456,156,211375,1,8,0:0:0:0:
412,124,211532,1,8,0:0:0:0:
360,112,211690,1,8,0:0:0:0:
308,132,211848,2,0,L|260:180,4,55.0000001490115,12|8|8|8|4,0:0|0:0|0:0|0:0|0:0,0:0:0:0:
312,232,212796,5,0,0:0:0:0:
104,268,213111,1,8,0:0:0:0:
224,128,213427,1,2,0:0:0:0:
80,88,213743,1,0,0:0:0:0:
192,264,214059,1,0,0:0:0:0:
324,140,214375,1,8,0:0:0:0:
164,180,214690,1,0,0:0:0:0:
388,208,215006,6,8,P|436:256|432:308,1,110.000000298023,12|8,0:0|0:0,0:0:0:0:
348,288,215638,2,8,P|284:320|236:304,1,110.000000298023,10|8,0:0|0:0,0:0:0:0:
284,232,216269,2,8,P|220:200|188:168,1,110.000000298023
152,96,216901,1,2,0:0:0:0:
152,96,217217,1,2,0:0:0:0:
308,176,217532,5,4,0:0:0:0:
128,224,217848,1,0,0:0:0:0:
320,96,218164,1,8,0:0:0:0:
232,280,218480,1,0,0:0:0:0:
156,112,218796,1,0,0:0:0:0:
352,208,219111,1,0,0:0:0:0:
240,44,219427,1,10,0:0:0:0:
152,224,219743,1,4,0:0:0:0:
224,128,220059,6,8,P|288:124|344:160,1,110.000000298023,12|8,0:0|0:0,0:0:0:0:
268,236,220690,2,8,P|284:300|260:340,1,110.000000298023
168,280,221322,2,8,P|104:264|64:216,1,110.000000298023
128,80,221953,1,0,0:0:0:0:
196,208,222269,1,2,0:0:0:0:
264,76,222585,5,4,0:0:0:0:
304,248,222901,1,0,0:0:0:0:
140,144,223217,1,10,0:0:0:0:
364,128,223532,1,0,0:0:0:0:
192,276,223848,1,0,0:0:0:0:
192,76,224164,1,0,0:0:0:0:
364,128,224480,1,8,0:0:0:0:
356,280,224796,1,6,0:0:0:0:
192,200,225111,6,8,P|192:136|232:100,1,110.000000298023
296,192,225743,2,8,P|360:208|400:184,1,110.000000298023
332,100,226375,2,8,P|304:40|252:24,1,110.000000298023
156,32,227006,1,0,0:0:0:0:
156,32,227322,1,6,0:0:0:0:
100,128,227638,5,0,0:0:0:0:
280,296,227953,1,0,0:0:0:0:
256,100,228269,1,8,0:0:0:0:
168,296,228585,1,0,0:0:0:0:
352,220,228901,1,0,0:0:0:0:
156,208,229217,1,0,0:0:0:0:
340,132,229532,1,8,0:0:0:0:
144,116,229848,1,6,0:0:0:0:
304,272,230164,6,8,P|240:320|192:320,1,110.000000298023
112,372,230796,2,8,P|96:320|124:248,1,110.000000298023
84,160,231427,2,8,B|164:148|204:208,1,110.000000298023
284,240,232059,1,0,0:0:0:0:
376,300,232375,1,2,0:0:0:0:
440,212,232690,1,4,0:0:0:0:
