osu file format v14

[General]
AudioFilename: audio.mp3
AudioLeadIn: 0
PreviewTime: 0
Countdown: 0
SampleSet: Soft
StackLeniency: 0.5
Mode: 0
LetterboxInBreaks: 0
WidescreenStoryboard: 1

[Editor]
Bookmarks: 10209,20314,30419,40525,50314,65156,70209,91051,101156,111301,121051,131156,145998,151051,171893,191472,207261,211683
DistanceSpacing: 1.1
BeatDivisor: 16
GridSize: 32
TimelineZoom: 2

[Metadata]
Title:Closer (feat. Halsey)
TitleUnicode:Closer (feat. Halsey)
Artist:The Chainsmokers
ArtistUnicode:The Chainsmokers
Creator:UndeadCapulet
Version:Expert
Source:
Tags:frogyfro kibbleru aeril shanipika
BeatmapID:1437384
BeatmapSetID:679724

[Difficulty]
HPDrainRate:5
CircleSize:4
OverallDifficulty:7
ApproachRate:9
SliderMultiplier:3
SliderTickRate:1

[Events]
//Background and Video events
0,0,"27277434_p0.jpg",0,0
//Break Periods
//Storyboard Layer 0 (Background)
//Storyboard Layer 1 (Fail)
//Storyboard Layer 2 (Pass)
//Storyboard Layer 3 (Foreground)
//Storyboard Sound Samples

[TimingPoints]
185,631.578947368421,4,2,1,25,1,0
185,-200,4,2,1,25,0,0
2711,-200,4,2,1,31,0,0
4290,-200,4,2,1,34,0,0
5237,-200,4,2,1,37,0,0
6816,-200,4,2,1,40,0,0
7763,-200,4,2,1,43,0,0
9342,-200,4,2,1,46,0,0
10290,-100,4,2,1,45,0,0
20395,-100,4,2,1,46,0,0
21974,-100,4,2,1,47,0,0
22921,-100,4,2,1,48,0,0
24500,-100,4,2,1,49,0,0
25448,-100,4,2,1,50,0,0
27027,-100,4,2,1,51,0,0
27974,-100,4,2,1,52,0,0
29553,-100,4,2,1,53,0,0
30500,-100,4,2,1,50,0,0
40606,-100,4,2,1,51,0,0
42185,-100,4,2,1,53,0,0
43132,-100,4,2,1,55,0,0
44711,-100,4,2,1,57,0,0
45658,-100,4,2,1,59,0,0
47237,-100,4,2,1,61,0,0
48185,-100,4,2,1,63,0,0
49763,-100,4,2,1,65,0,0
50711,-133.333333333333,4,2,1,40,0,0
52290,-133.333333333333,4,2,1,42,0,0
53237,-133.333333333333,4,2,1,44,0,0
54816,-133.333333333333,4,2,1,46,0,0
55763,-133.333333333333,4,2,1,48,0,0
57342,-133.333333333333,4,2,1,50,0,0
58290,-133.333333333333,4,2,1,52,0,0
59869,-133.333333333333,4,2,1,54,0,0
60816,-133.333333333333,4,2,1,56,0,0
62395,-133.333333333333,4,2,1,58,0,0
63342,-133.333333333333,4,2,1,60,0,0
64921,-133.333333333333,4,2,1,62,0,0
65869,-133.333333333333,4,2,1,55,0,0
67290,-133.333333333333,4,2,1,58,0,0
68395,-133.333333333333,4,2,1,61,0,0
69816,-133.333333333333,4,2,1,64,0,0
70290,-200,4,2,1,67,0,0
70921,-100,4,2,1,70,0,1
91132,-100,4,2,1,45,0,0
101237,-100,4,2,1,46,0,0
102816,-100,4,2,1,47,0,0
103763,-100,4,2,1,48,0,0
105342,-100,4,2,1,49,0,0
106290,-100,4,2,1,50,0,0
107869,-100,4,2,1,51,0,0
108816,-100,4,2,1,52,0,0
110395,-100,4,2,1,53,0,0
111342,-100,4,2,1,50,0,0
121448,-100,4,2,1,51,0,0
123027,-100,4,2,1,53,0,0
123974,-100,4,2,1,55,0,0
125553,-100,4,2,1,57,0,0
126500,-100,4,2,1,59,0,0
128079,-100,4,2,1,61,0,0
129027,-100,4,2,1,63,0,0
130605,-100,4,2,1,65,0,0
131553,-133.333333333333,4,2,1,40,0,0
133132,-133.333333333333,4,2,1,42,0,0
134079,-133.333333333333,4,2,1,44,0,0
135658,-133.333333333333,4,2,1,46,0,0
136605,-133.333333333333,4,2,1,48,0,0
138184,-133.333333333333,4,2,1,50,0,0
139132,-133.333333333333,4,2,1,52,0,0
140711,-133.333333333333,4,2,1,54,0,0
141658,-133.333333333333,4,2,1,56,0,0
143237,-133.333333333333,4,2,1,58,0,0
144184,-133.333333333333,4,2,1,60,0,0
145763,-133.333333333333,4,2,1,62,0,0
146711,-133.333333333333,4,2,1,55,0,0
148132,-133.333333333333,4,2,1,58,0,0
149237,-133.333333333333,4,2,1,61,0,0
150658,-133.333333333333,4,2,1,64,0,0
151132,-200,4,2,1,67,0,0
151763,-100,4,2,1,70,0,1
171974,-200,4,2,1,40,0,0
173553,-200,4,2,1,42,0,0
174500,-200,4,2,1,44,0,0
176079,-200,4,2,1,46,0,0
177026,-200,4,2,1,48,0,0
178605,-200,4,2,1,50,0,0
179553,-200,4,2,1,52,0,0
181132,-200,4,2,1,54,0,0
182079,-200,4,2,1,56,0,0
183658,-200,4,2,1,58,0,0
184605,-200,4,2,1,60,0,0
186184,-200,4,2,1,62,0,0
187132,-200,4,2,1,64,0,0
188711,-200,4,2,1,66,0,0
189658,-200,4,2,1,68,0,0
191237,-200,4,2,1,70,0,0
192185,-133.333333333333,4,2,1,50,0,0
192500,-133.333333333333,4,2,1,51,0,0
192816,-133.333333333333,4,2,1,52,0,0
193132,-133.333333333333,4,2,1,53,0,0
193448,-133.333333333333,4,2,1,54,0,0
193763,-133.333333333333,4,2,1,55,0,0
194079,-133.333333333333,4,2,1,60,0,0
194711,-133.333333333333,4,2,1,61,0,0
195027,-133.333333333333,4,2,1,62,0,0
195342,-133.333333333333,4,2,1,63,0,0
195658,-133.333333333333,4,2,1,64,0,0
195974,-133.333333333333,4,2,1,65,0,0
196290,-133.333333333333,4,2,1,66,0,0
196606,-133.333333333333,4,2,1,55,0,0
197237,-133.333333333333,4,2,1,56,0,0
197553,-133.333333333333,4,2,1,57,0,0
197869,-133.333333333333,4,2,1,58,0,0
198185,-133.333333333333,4,2,1,59,0,0
198500,-133.333333333333,4,2,1,60,0,0
198816,-133.333333333333,4,2,1,61,0,0
199132,-133.333333333333,4,2,1,66,0,0
199763,-133.333333333333,4,2,1,67,0,0
200079,-133.333333333333,4,2,1,68,0,0
200395,-133.333333333333,4,2,1,69,0,0
200711,-133.333333333333,4,2,1,70,0,0
201027,-133.333333333333,4,2,1,71,0,0
201342,-133.333333333333,4,2,1,72,0,0
201658,-133.333333333333,4,2,1,61,0,0
202290,-133.333333333333,4,2,1,62,0,0
202606,-133.333333333333,4,2,1,63,0,0
202921,-133.333333333333,4,2,1,64,0,0
203237,-133.333333333333,4,2,1,65,0,0
203553,-133.333333333333,4,2,1,66,0,0
203869,-133.333333333333,4,2,1,67,0,0
204185,-133.333333333333,4,2,1,72,0,0
204816,-133.333333333333,4,2,1,73,0,0
205132,-133.333333333333,4,2,1,74,0,0
205448,-133.333333333333,4,2,1,75,0,0
205763,-133.333333333333,4,2,1,76,0,0
206079,-133.333333333333,4,2,1,77,0,0
206395,-133.333333333333,4,2,1,78,0,0
206711,-133.333333333333,4,2,1,67,0,0
207342,-133.333333333333,4,2,1,72,0,0
208763,-133.333333333333,4,2,1,75,0,0
209869,-133.333333333333,4,2,1,78,0,0
211290,-133.333333333333,4,2,1,81,0,0
211763,-200,4,2,1,85,0,0
212395,-50,4,2,1,90,0,1
212948,-50,4,2,1,5,0,1
213027,-50,4,2,1,90,0,1
213500,-50,4,2,1,5,0,1
213658,-50,4,2,1,90,0,1
213816,-50,4,2,1,5,0,1
213974,-50,4,2,1,90,0,1
214250,-50,4,2,1,5,0,1
214290,-50,4,2,1,90,0,1
214566,-50,4,2,1,5,0,1
214606,-50,4,2,1,90,0,1
214882,-50,4,2,1,5,0,1
214921,-50,4,2,1,90,0,1
215158,-50,4,2,1,5,0,1
215237,-50,4,2,1,90,0,1
215474,-50,4,2,1,5,0,1
215553,-50,4,2,1,90,0,1
215790,-50,4,2,1,5,0,1
215869,-50,4,2,1,90,0,1
216027,-50,4,2,1,5,0,1
216185,-50,4,2,1,90,0,1
216342,-50,4,2,1,5,0,1
216500,-50,4,2,1,90,0,1
216777,-50,4,2,1,5,0,1
216816,-50,4,2,1,90,0,1
217092,-50,4,2,1,5,0,1
217132,-50,4,2,1,90,0,1
217408,-50,4,2,1,5,0,1
217448,-50,4,2,1,90,0,1
218000,-50,4,2,1,5,0,1
218079,-50,4,2,1,90,0,1
218316,-50,4,2,1,5,0,1
218395,-50,4,2,1,90,0,1
218553,-50,4,2,1,5,0,1
218711,-50,4,2,1,90,0,1
218869,-50,4,2,1,5,0,1
219027,-50,4,2,1,90,0,1
219303,-50,4,2,1,5,0,1
219342,-50,4,2,1,90,0,1
219619,-50,4,2,1,5,0,1
219658,-50,4,2,1,90,0,1
219935,-50,4,2,1,5,0,1
219974,-50,4,2,1,90,0,1
220250,-50,4,2,1,5,0,1
220290,-50,4,2,1,90,0,1
220566,-50,4,2,1,5,0,1
220606,-50,4,2,1,90,0,1
220882,-50,4,2,1,5,0,1
220921,-50,4,2,1,90,0,1
221079,-50,4,2,1,5,0,1
221237,-50,4,2,1,90,0,1
221395,-50,4,2,1,5,0,1
221553,-50,4,2,1,90,0,1
221829,-50,4,2,1,5,0,1
221869,-50,4,2,1,90,0,1
222145,-50,4,2,1,5,0,1
222185,-50,4,2,1,90,0,1
222461,-50,4,2,1,5,0,1
222500,-50,4,2,1,90,0,1
223369,-50,4,2,1,5,0,1
223448,-50,4,2,1,90,0,1
223606,-50,4,2,1,5,0,1
223763,-50,4,2,1,90,0,1
223921,-50,4,2,1,5,0,1
224079,-50,4,2,1,90,0,1
224356,-50,4,2,1,5,0,1
224395,-50,4,2,1,90,0,1
224671,-50,4,2,1,5,0,1
224711,-50,4,2,1,90,0,1
224987,-50,4,2,1,5,0,1
225027,-50,4,2,1,90,0,1
225263,-50,4,2,1,5,0,1
225342,-50,4,2,1,90,0,1
225500,-50,4,2,1,5,0,1
225540,-50,4,2,1,90,0,1
225895,-50,4,2,1,5,0,1
225974,-50,4,2,1,90,0,1
226132,-50,4,2,1,5,0,1
226290,-50,4,2,1,90,0,1
226448,-50,4,2,1,5,0,1
226606,-50,4,2,1,90,0,1
226882,-50,4,2,1,5,0,1
226921,-50,4,2,1,90,0,1
227198,-50,4,2,1,5,0,1
227237,-50,4,2,1,90,0,1
227513,-50,4,2,1,5,0,1
227553,-50,4,2,1,90,0,1
228027,-50,4,2,1,5,0,1
228066,-50,4,2,1,90,0,1
228421,-50,4,2,1,5,0,1
228500,-50,4,2,1,90,0,1
228658,-50,4,2,1,5,0,1
228816,-50,4,2,1,90,0,1
228974,-50,4,2,1,5,0,1
229132,-50,4,2,1,90,0,1
229408,-50,4,2,1,5,0,1
229448,-50,4,2,1,90,0,1
229724,-50,4,2,1,5,0,1
229763,-50,4,2,1,90,0,1
230040,-50,4,2,1,5,0,1
230079,-50,4,2,1,90,0,1
230356,-50,4,2,1,5,0,1
230395,-50,4,2,1,90,0,1
230553,-50,4,2,1,5,0,1
230592,-50,4,2,1,90,0,1
230987,-50,4,2,1,5,0,1
231027,-50,4,2,1,90,0,1
231185,-50,4,2,1,5,0,1
231342,-50,4,2,1,90,0,1
231500,-50,4,2,1,5,0,1
231658,-50,4,2,1,90,0,1
231935,-50,4,2,1,5,0,1
231974,-50,4,2,1,90,0,1
232250,-50,4,2,1,5,0,1
232290,-57.1428571428571,4,2,1,75,0,1
232606,-57.1428571428571,4,2,1,50,0,0

[Colours]
Combo1 : 232,236,236
Combo2 : 239,213,163

[HitObjects]
125,57,185,5,2,0:0:0:0:
68,239,1763,1,2,0:0:0:0:
143,272,2079,2,0,L|232:263,1,75,0|0,0:0|0:0,0:0:0:0:
283,214,2711,5,2,0:0:0:0:
449,350,4290,1,2,0:0:0:0:
466,269,4606,2,0,L|471:191,1,75,0|0,0:0|0:0,0:0:0:0:
458,112,5237,5,2,0:0:0:0:
206,324,6816,1,2,0:0:0:0:
131,288,7132,2,0,L|53:280,1,75,0|0,0:0|0:0,0:0:0:0:
32,201,7763,5,2,0:0:0:0:
305,26,9342,1,2,0:0:0:0:
328,105,9658,2,0,P|317:152|293:177,1,75,0|0,0:0|0:0,0:0:0:0:
189,114,10290,6,0,P|200:67|224:42,1,75,2|0,3:2|0:0,0:0:0:0:
189,114,10921,1,8,0:0:0:0:
371,179,11869,2,0,P|407:212|416:245,1,75,2|0,3:2|0:0,0:0:0:0:
378,306,12185,2,0,P|342:272|333:239,1,75,8|0,0:0|0:0,0:0:0:0:
442,29,12816,6,0,P|477:62|486:95,1,75,2|0,3:2|0:0,0:0:0:0:
442,29,13448,1,8,0:0:0:0:
195,268,14395,2,0,P|148:281|115:273,1,75,2|0,3:2|0:0,0:0:0:0:
56,183,14711,2,0,P|102:196|135:188,1,75,8|0,0:0|0:0,0:0:0:0:
195,98,15027,2,0,P|148:111|115:103,1,75,0|0,0:0|0:0,0:0:0:0:
79,33,15342,6,0,P|125:19|158:27,1,75,2|0,3:2|0:0,0:0:0:0:
79,33,15974,1,8,0:0:0:0:
292,239,16921,2,0,P|281:286|256:311,1,75,2|0,3:2|0:0,0:0:0:0:
179,307,17237,2,0,P|190:259|214:235,1,75,8|0,0:0|0:0,0:0:0:0:
480,318,17869,6,0,P|469:365|444:390,1,75,2|0,3:2|0:0,0:0:0:0:
480,318,18500,1,8,0:0:0:0:
320,287,19448,2,0,P|284:253|275:220,1,75,2|0,3:2|0:0,0:0:0:0:
317,136,19763,2,0,P|339:178|369:196,1,75,8|0,0:0|0:0,0:0:0:0:
462,177,20079,2,0,P|426:143|417:110,1,75,0|0,0:0|0:0,0:0:0:0:
459,25,20395,6,0,P|444:60|417:86,1,75,10|0,3:2|0:0,0:0:0:0:
114,19,20908,1,8,0:1:0:0:
193,41,21027,1,8,0:0:0:0:
114,19,21342,1,8,0:1:0:0:
448,23,21974,2,0,P|433:58|406:84,1,75,2|0,3:2|0:0,0:0:0:0:
465,163,22290,2,0,P|400:183|318:131,1,150,8|0,0:0|0:0,0:0:0:0:
116,354,22921,6,0,P|86:330|67:298,1,75,10|0,3:2|0:0,0:0:0:0:
123,9,23435,1,8,0:1:0:0:
101,89,23553,1,8,0:0:0:0:
123,9,23868,1,8,0:1:0:0:
116,354,24500,2,0,P|86:330|67:298,1,75,2|0,3:2|0:0,0:0:0:0:
159,270,24816,2,0,P|154:231|163:195,1,75,8|0,0:0|0:0,0:0:0:0:
248,241,25132,2,0,P|272:210|304:192,1,75,0|0,0:0|0:0,0:0:0:0:
404,287,25448,6,0,P|368:278|331:283,1,75,10|0,3:2|0:0,0:0:0:0:
48,370,25961,1,8,0:1:0:0:
128,348,26079,1,8,0:0:0:0:
48,370,26394,1,8,0:1:0:0:
404,287,27027,2,0,P|368:278|331:283,1,75,2|0,3:2|0:0,0:0:0:0:
334,180,27342,2,0,P|261:204|230:278,1,150,8|0,0:0|0:0,0:0:0:0:
455,380,27974,6,0,P|483:355|501:323,1,75,10|0,3:2|0:0,0:0:0:0:
472,34,28487,1,8,0:1:0:0:
494,114,28606,1,8,0:0:0:0:
472,34,28921,1,8,0:1:0:0:
455,380,29553,2,0,P|483:355|501:323,1,75,2|0,3:2|0:0,0:0:0:0:
472,34,29869,2,0,P|422:12|343:58,1,150,8|0,0:3|0:0,0:0:0:0:
477,312,30500,6,0,L|477:209,1,75,4|0,3:1|0:0,0:0:0:0:
444,111,30816,1,4,0:0:0:0:
35,72,31132,2,0,L|35:175,1,75,8|0,0:3|0:0,0:0:0:0:
59,323,31448,1,4,0:0:0:0:
342,281,31763,1,0,0:0:0:0:
140,186,32079,2,0,L|133:281,1,75,4|0,3:2|0:0,0:0:0:0:
363,200,32395,2,0,L|357:125,1,75,8|0,0:3|0:0,0:0:0:0:
298,7,32711,1,4,0:0:0:0:
53,264,33027,6,0,L|64:360,1,75,2|0,3:2|0:0,0:0:0:0:
204,376,33342,1,4,0:0:0:0:
459,120,33658,2,0,L|448:24,1,75,8|0,0:3|0:0,0:0:0:0:
252,9,33974,1,4,0:0:0:0:
257,196,34290,1,0,0:0:0:0:
91,46,34606,2,0,L|87:142,1,75,2|0,3:2|0:0,0:0:0:0:
278,359,34921,2,0,L|274:263,1,75,8|0,0:3|0:0,0:0:0:0:
25,216,35237,2,0,L|76:301,1,75,4|0,0:0|0:0,0:0:0:0:
375,370,35553,6,0,L|414:274,1,75,4|0,3:1|0:0,0:0:0:0:
480,228,35869,1,4,0:0:0:0:
166,20,36185,2,0,L|194:89,1,75,8|0,0:3|0:0,0:0:0:0:
304,244,36500,1,4,0:0:0:0:
105,111,36816,1,0,0:0:0:0:
441,37,37132,2,0,L|436:146,1,75,2|0,3:2|0:0,0:0:0:0:
233,339,37448,2,0,L|228:230,1,75,8|0,0:3|0:0,0:0:0:0:
187,125,37763,1,4,0:0:0:0:
479,254,38079,6,0,L|470:335,1,75,2|0,3:2|0:0,0:0:0:0:
351,373,38395,1,4,0:0:0:0:
33,130,38711,2,0,L|42:49,1,75,8|0,0:3|0:0,0:0:0:0:
212,8,39027,1,4,0:0:0:0:
332,132,39342,1,0,0:0:0:0:
100,341,39658,2,0,L|82:250,1,75,2|0,3:2|0:0,0:0:0:0:
185,41,39974,2,0,L|167:132,1,75,8|0,0:3|0:0,0:0:0:0:
9,334,40290,2,0,L|12:236,1,75,4|0,0:0|0:0,0:0:0:0:
333,20,40606,6,0,L|340:192,1,150,12|0,3:1|0:0,0:0:0:0:
430,353,41119,1,8,0:0:0:0:
434,268,41237,1,8,0:3:0:0:
474,45,41553,1,8,0:0:0:0:
501,218,41869,1,4,0:0:0:0:
240,322,42185,2,0,P|254:272|286:239,1,75,4|0,3:2|0:0,0:0:0:0:
373,294,42500,2,0,P|359:344|327:377,1,75,8|0,0:3|0:0,0:0:0:0:
160,301,42816,1,4,0:0:0:0:
326,114,43132,6,0,P|376:101|420:112,1,75,8|0,3:1|0:0,0:0:0:0:
469,182,43448,1,4,0:0:0:0:
427,350,43645,1,8,0:1:0:0:
431,265,43764,1,8,0:3:0:0:
469,182,44079,1,8,0:0:0:0:
404,24,44395,1,4,0:0:0:0:
303,174,44711,2,0,P|317:224|349:257,1,75,4|0,3:2|0:0,0:0:0:0:
217,352,45027,2,0,P|231:302|263:269,1,75,8|0,0:3|0:0,0:0:0:0:
131,174,45342,2,0,P|145:224|177:257,1,75,4|0,0:0|0:0,0:0:0:0:
179,20,45658,6,0,L|172:192,1,150,12|0,3:1|0:0,0:0:0:0:
82,353,46171,1,8,0:1:0:0:
78,268,46289,1,8,0:3:0:0:
38,45,46605,1,8,0:0:0:0:
11,218,46921,1,4,0:0:0:0:
272,322,47237,2,0,P|258:272|226:239,1,75,4|0,3:2|0:0,0:0:0:0:
139,294,47553,2,0,P|153:344|185:377,1,75,8|0,0:3|0:0,0:0:0:0:
352,301,47869,1,4,0:0:0:0:
186,114,48185,6,0,P|135:101|91:112,1,75,8|0,3:1|0:0,0:0:0:0:
43,182,48500,1,4,0:0:0:0:
85,350,48698,1,8,0:1:0:0:
81,265,48816,1,8,0:3:0:0:
43,182,49131,1,8,0:0:0:0:
108,24,49447,1,4,0:0:0:0:
209,174,49763,2,0,P|195:224|163:257,1,75,4|0,3:2|0:0,0:0:0:0:
295,352,50079,2,0,P|281:302|249:269,1,75,8|0,0:3|0:0,0:0:0:0:
381,174,50395,2,0,P|367:224|335:257,1,75,4|0,0:0|0:0,0:0:0:0:
181,280,50711,6,0,P|17:181|174:65,1,450.000017166138,2|0,0:0|0:0,0:0:0:0:
148,220,52290,2,0,P|101:210|181:181,1,225.000008583069,2|0,0:0|0:0,0:0:0:0:
331,280,53237,6,0,P|495:181|339:65,1,450.000017166138,2|0,0:0|0:0,0:0:0:0:
364,220,54816,2,0,P|411:210|331:181,1,225.000008583069,2|0,0:0|0:0,0:0:0:0:
214,256,55763,6,0,B|128:373|128:373|64:239|64:239|153:104,1,450.000017166138,2|0,0:0|0:0,0:0:0:0:
34,132,57342,2,0,B|108:19|108:19|215:32,1,225.000008583069,2|0,0:0|0:0,0:0:0:0:
298,256,58290,6,0,B|384:373|384:373|448:239|448:239|359:104,1,450.000017166138,2|0,0:0|0:0,0:0:0:0:
478,132,59869,2,0,B|404:19|404:19|297:32,1,225.000008583069,2|0,0:0|0:0,0:0:0:0:
129,384,60816,6,0,B|194:351|217:271|150:211|147:206|144:201|52:155|64:40|156:0,1,450.000017166138,2|0,0:0|0:0,0:0:0:0:
9,149,62395,2,0,P|113:172|181:89,1,225.000008583069,2|0,0:0|0:0,0:0:0:0:
383,384,63342,6,0,B|318:351|295:271|362:211|365:206|368:201|460:155|448:40|356:0,1,450.000017166138,2|0,0:0|0:0,0:0:0:0:
501,150,64921,2,0,P|397:172|330:89,1,225.000008583069,2|0,0:0|0:0,0:0:0:0:
165,223,65869,5,2,0:3:0:0:
109,164,66342,2,0,L|93:163,4,14.0625005364418,2|2|2|2|2,0:3|0:3|0:3|0:3|0:3,0:0:0:0:
165,223,66658,1,2,0:3:0:0:
47,20,66974,1,2,0:3:0:0:
165,223,67290,1,2,0:3:0:0:
247,239,67448,1,2,0:3:0:0:
47,20,67921,1,2,0:3:0:0:
347,223,68395,5,2,0:3:0:0:
403,164,68869,2,0,L|419:163,4,14.0625005364418,2|2|2|2|2,0:3|0:3|0:3|0:3|0:3,0:0:0:0:
347,223,69185,1,2,0:3:0:0:
465,20,69500,1,2,0:3:0:0:
347,223,69816,1,2,0:3:0:0:
265,239,69974,1,2,0:3:0:0:
486,341,70290,2,0,L|476:254,1,84.375,8|0,0:3|0:0,0:0:0:0:
512,181,70921,6,0,P|482:128|478:106,1,75,4|0,3:1|0:0,0:0:0:0:
117,19,71237,2,0,P|99:18|82:14,1,25,4|0,0:0|0:0,0:0:0:0:
450,18,71553,1,8,0:3:0:0:
95,248,71869,1,2,0:0:0:0:
49,268,71921,1,0,0:0:0:0:
275,381,72185,1,4,0:0:0:0:
512,127,72500,6,0,P|505:85|490:48,1,75,0|0,3:0|0:0,0:0:0:0:
0,18,72816,2,0,P|42:25|79:40,1,75,8|0,0:3|0:0,0:0:0:0:
195,384,73132,1,4,0:0:0:0:
512,215,73448,6,0,P|470:187|429:179,1,75,4|0,3:1|0:0,0:0:0:0:
111,349,73763,1,4,0:0:0:0:
169,8,74079,1,8,0:3:0:0:
473,279,74395,1,2,0:0:0:0:
512,308,74447,1,0,0:0:0:0:
197,381,74711,1,4,0:0:0:0:
422,2,75027,6,0,P|389:15|340:20,1,75,0|0,3:3|0:0,0:0:0:0:
355,383,75342,2,0,P|359:348|381:303,1,75,8|0,0:3|0:0,0:0:0:0:
60,134,75658,2,0,P|87:155|116:196,1,75,4|0,0:0|0:0,0:0:0:0:
101,384,75974,6,0,P|74:363|45:322,1,75,4|0,3:1|0:0,0:0:0:0:
58,27,76290,2,0,P|60:9|59:-8,1,25,4|0,0:0|0:0,0:0:0:0:
291,363,76606,1,8,0:3:0:0:
485,49,76921,1,2,0:0:0:0:
507,5,76973,1,0,0:0:0:0:
223,33,77237,1,4,0:0:0:0:
440,227,77553,6,0,P|477:231|512:244,1,75,0|0,3:0|0:0,0:0:0:0:
71,213,77869,2,0,P|36:227|0:234,1,75,8|0,0:3|0:0,0:0:0:0:
336,42,78185,2,0,P|370:27|407:20,1,75,4|0,0:0|0:0,0:0:0:0:
167,384,78500,6,0,P|129:379|94:366,1,75,4|0,3:1|0:0,0:0:0:0:
24,133,78816,2,0,P|61:127|99:131,1,75,4|0,0:0|0:0,0:0:0:0:
512,298,79132,2,0,P|474:303|436:299,1,75,8|0,0:3|0:0,0:0:0:0:
218,200,79448,1,2,0:0:0:0:
173,179,79500,1,0,0:0:0:0:
0,331,79763,1,4,0:0:0:0:
357,73,80079,6,0,P|350:27|338:-5,1,75,0|0,3:0|0:0,0:0:0:0:
155,311,80395,2,0,P|162:357|174:389,1,75,8|0,0:3|0:0,0:0:0:0:
464,117,80711,2,0,P|480:73|486:39,1,75,4|0,3:2|0:0,0:0:0:0:
21,23,81027,6,0,P|19:68|26:114,1,75,12|0,3:1|0:0,0:0:0:0:
65,320,81342,2,0,P|65:338|62:355,1,25,4|0,0:0|0:0,0:0:0:0:
213,374,81540,1,8,0:1:0:0:
155,311,81658,1,8,0:3:0:0:
456,364,81974,1,8,0:1:0:0:
501,384,82026,1,2,0:0:0:0:
512,98,82290,1,4,0:0:0:0:
97,14,82606,6,0,L|1:0,1,75,4|0,3:2|0:0,0:0:0:0:
438,186,82921,2,0,L|534:172,1,75,8|0,0:3|0:0,0:0:0:0:
77,306,83237,1,4,0:2:0:0:
397,107,83553,6,0,P|407:66|415:24,1,75,12|0,3:1|0:0,0:0:0:0:
435,373,83869,1,4,0:0:0:0:
344,238,84066,1,8,0:1:0:0:
319,156,84184,1,8,0:3:0:0:
36,325,84500,1,8,0:1:0:0:
7,364,84552,1,2,0:0:0:0:
309,326,84816,1,4,0:0:0:0:
86,17,85132,6,0,L|124:82,1,75,4|0,3:2|0:0,0:0:0:0:
460,83,85448,2,0,L|385:83,1,75,8|0,0:3|0:0,0:0:0:0:
216,373,85763,2,0,L|253:307,1,75,4|0,0:0|0:0,0:0:0:0:
29,98,86079,6,0,P|37:151|62:176,1,75,12|0,3:1|0:0,0:0:0:0:
374,156,86395,2,0,P|386:157|402:155,1,25,4|0,0:0|0:0,0:0:0:0:
255,214,86592,1,8,0:1:0:0:
169,210,86711,1,8,0:3:0:0:
458,35,87027,1,8,0:1:0:0:
503,15,87079,1,2,0:0:0:0:
138,5,87342,1,4,0:0:0:0:
372,384,87658,6,0,P|372:356|365:305,1,75,4|0,3:2|0:0,0:0:0:0:
56,45,87974,2,0,P|70:69|101:109,1,75,8|0,0:3|0:0,0:0:0:0:
503,226,88290,2,0,P|483:193|460:164,1,75,4|0,0:0|0:0,0:0:0:0:
168,0,88606,6,0,P|168:28|175:79,1,75,4|0,3:2|0:0,0:0:0:0:
54,366,88921,2,0,P|54:338|47:287,1,75,4|0,0:0|0:0,0:0:0:0:
24,209,89119,1,8,0:1:0:0:
27,124,89237,1,8,0:3:0:0:
313,330,89553,1,8,0:1:0:0:
352,358,89605,1,4,0:0:0:0:
480,70,89869,1,4,0:0:0:0:
448,282,90185,6,0,L|458:356,1,75,4|0,3:2|0:0,0:0:0:0:
51,88,90500,2,0,L|61:13,1,75,10|2,0:3|0:0,0:0:0:0:
275,201,90816,2,0,L|247:269,1,75,4|0,3:2|0:0,0:0:0:0:
315,341,91132,6,0,P|334:307|336:264,1,75,2|0,3:2|0:0,0:0:0:0:
315,341,91763,1,8,0:0:0:0:
70,145,92711,2,0,P|89:178|126:201,1,75,2|0,3:2|0:0,0:0:0:0:
202,176,93027,2,0,P|182:142|145:119,1,75,8|0,0:0|0:0,0:0:0:0:
11,329,93658,6,0,P|30:362|67:385,1,75,2|0,3:2|0:0,0:0:0:0:
11,329,94290,1,8,0:0:0:0:
167,64,95237,2,0,P|128:64|89:84,1,75,2|0,3:2|0:0,0:0:0:0:
6,154,95553,2,0,P|44:154|83:174,1,75,8|0,0:0|0:0,0:0:0:0:
167,244,95869,2,0,P|128:244|89:264,1,75,0|0,0:0|0:0,0:0:0:0:
156,335,96185,6,0,P|194:334|233:314,1,75,2|0,3:2|0:0,0:0:0:0:
156,335,96816,1,8,0:0:0:0:
372,36,97763,2,0,P|353:69|351:113,1,75,2|0,3:2|0:0,0:0:0:0:
424,170,98079,2,0,P|442:136|444:92,1,75,8|0,0:0|0:0,0:0:0:0:
150,8,98711,6,0,P|131:41|129:85,1,75,2|0,3:2|0:0,0:0:0:0:
150,8,99342,1,8,0:0:0:0:
434,248,100290,2,0,P|414:215|377:191,1,75,2|0,3:2|0:0,0:0:0:0:
263,191,100606,2,0,P|289:218|302:260,1,75,8|0,0:0|0:0,0:0:0:0:
273,370,100921,2,0,P|253:337|216:313,1,75,0|0,0:0|0:0,0:0:0:0:
115,323,101237,6,0,P|153:322|192:302,1,75,10|0,3:2|0:0,0:0:0:0:
375,32,101750,1,8,0:1:0:0:
334,107,101869,1,8,0:0:0:0:
375,32,102185,1,8,0:1:0:0:
115,323,102816,2,0,P|153:322|192:302,1,75,2|0,3:2|0:0,0:0:0:0:
245,384,103132,2,0,P|276:338|262:246,1,150,8|0,0:0|0:0,0:0:0:0:
489,94,103763,6,0,P|469:61|432:37,1,75,10|0,3:2|0:0,0:0:0:0:
56,32,104277,1,8,0:1:0:0:
140,44,104395,1,8,0:0:0:0:
56,32,104711,1,8,0:1:0:0:
489,94,105342,2,0,P|469:61|432:37,1,75,2|0,3:2|0:0,0:0:0:0:
401,129,105658,2,0,P|364:120|321:129,1,75,8|0,0:0|0:0,0:0:0:0:
363,215,105974,2,0,P|330:234|306:271,1,75,0|0,0:0|0:0,0:0:0:0:
392,374,106290,6,0,P|386:337|396:302,1,75,10|0,3:2|0:0,0:0:0:0:
512,34,106803,1,8,0:1:0:0:
468,107,106921,1,8,0:0:0:0:
512,34,107237,1,8,0:1:0:0:
392,374,107869,2,0,P|386:337|396:302,1,75,2|0,3:2|0:0,0:0:0:0:
284,284,108185,2,0,P|302:237|397:187,1,150,8|0,0:0|0:0,0:0:0:0:
503,352,108816,6,0,P|474:375|438:384,1,75,10|0,3:2|0:0,0:0:0:0:
52,310,109329,1,8,0:1:0:0:
135,331,109447,1,8,0:0:0:0:
52,310,109763,1,8,0:1:0:0:
503,352,110395,2,0,P|474:375|438:384,1,75,2|0,3:2|0:0,0:0:0:0:
24,283,110711,2,0,P|26:221|97:170,1,150,8|0,0:3|0:0,0:0:0:0:
132,365,111342,6,0,L|116:286,1,75,4|0,3:1|0:0,0:0:0:0:
120,185,111658,1,4,0:0:0:0:
478,11,111974,2,0,L|463:84,1,75,8|0,0:3|0:0,0:0:0:0:
419,221,112290,1,4,0:0:0:0:
158,95,112606,1,0,0:0:0:0:
217,343,112921,2,0,L|216:262,1,75,4|0,3:2|0:0,0:0:0:0:
39,35,113237,2,0,L|40:116,1,75,8|0,0:3|0:0,0:0:0:0:
127,201,113553,1,4,0:0:0:0:
404,354,113869,6,0,L|423:281,1,75,2|0,3:2|0:0,0:0:0:0:
496,182,114185,1,4,0:0:0:0:
137,19,114500,2,0,L|156:91,1,75,8|0,0:3|0:0,0:0:0:0:
135,260,114816,1,4,0:0:0:0:
0,145,115132,1,0,0:0:0:0:
257,300,115448,2,0,L|273:213,1,75,2|0,3:2|0:0,0:0:0:0:
486,128,115763,2,0,L|470:215,1,75,8|0,0:3|0:0,0:0:0:0:
347,384,116079,2,0,L|324:298,1,75,4|0,0:0|0:0,0:0:0:0:
416,1,116395,6,0,L|420:79,1,75,4|0,3:1|0:0,0:0:0:0:
395,220,116711,1,4,0:0:0:0:
102,342,117027,2,0,L|98:264,1,75,8|0,0:3|0:0,0:0:0:0:
29,58,117342,1,4,0:0:0:0:
179,336,117658,1,0,0:0:0:0:
316,158,117974,2,0,L|301:245,1,75,2|0,3:2|0:0,0:0:0:0:
8,342,118290,2,0,L|23:255,1,75,8|0,0:3|0:0,0:0:0:0:
34,128,118606,1,4,0:0:0:0:
332,355,118921,6,0,L|364:285,1,75,2|0,3:2|0:0,0:0:0:0:
376,169,119237,1,4,0:0:0:0:
120,35,119553,2,0,L|88:105,1,75,8|0,0:3|0:0,0:0:0:0:
81,275,119869,1,4,0:0:0:0:
245,374,120185,1,0,0:0:0:0:
376,64,120500,2,0,L|384:144,1,75,2|0,3:2|0:0,0:0:0:0:
168,238,120816,2,0,L|160:158,1,75,8|0,0:3|0:0,0:0:0:0:
434,212,121132,2,0,L|417:293,1,75,4|0,0:0|0:0,0:0:0:0:
73,384,121448,6,0,L|82:229,1,150,12|0,3:1|0:0,0:0:0:0:
146,19,121961,1,8,0:0:0:0:
150,104,122079,1,8,0:3:0:0:
1,282,122395,1,8,0:0:0:0:
73,148,122711,1,4,0:0:0:0:
202,317,123027,2,0,P|180:286|167:251,1,75,4|0,3:2|0:0,0:0:0:0:
256,208,123342,2,0,P|277:238|290:273,1,75,8|0,0:3|0:0,0:0:0:0:
131,364,123658,1,4,0:0:0:0:
0,262,123974,6,0,P|37:265|74:258,1,75,8|0,3:1|0:0,0:0:0:0:
110,182,124290,1,4,0:0:0:0:
146,19,124487,1,8,0:1:0:0:
150,104,124606,1,8,0:3:0:0:
110,182,124921,1,8,0:0:0:0:
84,358,125237,1,4,0:0:0:0:
238,289,125553,6,0,P|261:317|292:339,1,75,4|0,3:2|0:0,0:0:0:0:
323,175,125869,2,0,P|286:181|252:197,1,75,8|0,0:3|0:0,0:0:0:0:
380,307,126185,2,0,P|392:271|396:234,1,75,4|0,0:0|0:0,0:0:0:0:
439,384,126500,6,0,L|430:229,1,150,12|0,3:1|0:0,0:0:0:0:
366,19,127013,1,8,0:1:0:0:
362,104,127131,1,8,0:3:0:0:
511,282,127447,1,8,0:0:0:0:
439,148,127763,1,4,0:0:0:0:
310,317,128079,2,0,P|331:286|344:251,1,75,4|0,3:2|0:0,0:0:0:0:
256,208,128395,2,0,P|235:238|222:273,1,75,8|0,0:3|0:0,0:0:0:0:
381,364,128710,1,4,0:0:0:0:
512,262,129027,6,0,P|474:265|437:258,1,75,8|0,3:1|0:0,0:0:0:0:
402,182,129342,1,4,0:0:0:0:
366,19,129539,1,8,0:1:0:0:
362,104,129658,1,8,0:3:0:0:
402,182,129974,1,8,0:0:0:0:
460,363,130290,1,4,0:0:0:0:
274,289,130606,6,0,P|250:317|219:339,1,75,4|0,3:2|0:0,0:0:0:0:
189,175,130921,2,0,P|225:181|259:197,1,75,8|0,0:3|0:0,0:0:0:0:
132,307,131237,2,0,P|119:271|115:234,1,75,4|0,0:0|0:0,0:0:0:0:
202,258,131553,6,0,B|176:310|90:371|19:347|19:347|-16:245|26:179|87:125,1,450.000017166138,2|0,0:0|0:0,0:0:0:0:
105,227,133132,2,0,P|147:192|105:43,1,225.000008583069,2|0,0:0|0:0,0:0:0:0:
310,258,134079,6,0,B|336:310|422:371|493:347|493:347|528:245|486:179|425:125,1,450.000017166138,2|0,0:0|0:0,0:0:0:0:
407,227,135658,2,0,P|365:192|407:43,1,225.000008583069,2|0,0:0|0:0,0:0:0:0:
186,220,136606,6,0,B|32:272|32:272|31:81|31:81|133:137,1,450.000017166138,2|0,0:0|0:0,0:0:0:0:
214,295,138185,2,0,L|-16:370,1,225.000008583069,2|0,0:0|0:0,0:0:0:0:
326,220,139132,6,0,B|480:272|480:272|481:81|481:81|379:137,1,450.000017166138,2|0,0:0|0:0,0:0:0:0:
298,295,140711,2,0,L|528:370,1,225.000008583069,2|0,0:0|0:0,0:0:0:0:
133,295,141658,6,0,B|69:286|19:245|1:155|12:100|51:44|128:40|128:40|125:140,1,450.000017166138,2|0,0:0|0:0,0:0:0:0:
190,365,143237,2,0,P|216:326|125:205,1,225.000008583069,2|0,0:0|0:0,0:0:0:0:
379,295,144185,6,0,B|443:286|493:245|511:155|500:100|461:44|384:40|384:40|387:140,1,450.000017166138,2|0,0:0|0:0,0:0:0:0:
322,365,145764,2,0,P|295:326|386:205,1,225.000008583069,2|0,0:0|0:0,0:0:0:0:
159,193,146711,5,2,0:3:0:0:
103,134,147184,2,0,L|87:133,4,14.0625005364418,2|2|2|2|2,0:3|0:3|0:3|0:3|0:3,0:0:0:0:
159,193,147500,1,2,0:3:0:0:
47,364,147816,1,2,0:3:0:0:
159,193,148132,1,2,0:3:0:0:
241,209,148290,1,2,0:3:0:0:
47,364,148763,1,2,0:3:0:0:
353,193,149237,5,2,0:3:0:0:
409,134,149711,2,0,L|425:133,4,14.0625005364418,2|2|2|2|2,0:3|0:3|0:3|0:3|0:3,0:0:0:0:
353,193,150026,1,2,0:3:0:0:
465,364,150342,1,2,0:3:0:0:
353,193,150658,1,2,0:3:0:0:
271,209,150816,1,2,0:3:0:0:
486,43,151132,2,0,L|479:130,1,84.375,8|0,0:3|0:0,0:0:0:0:
500,223,151763,6,0,P|479:263|459:321,1,75,4|0,3:1|0:0,0:0:0:0:
51,304,152079,2,0,L|27:309,1,25,4|0,0:0|0:0,0:0:0:0:
482,372,152395,1,8,0:3:0:0:
65,144,152711,1,2,0:0:0:0:
15,138,152763,1,0,0:0:0:0:
285,4,153027,1,4,0:0:0:0:
163,384,153342,6,0,P|159:347|151:311,1,75,0|0,3:0|0:0,0:0:0:0:
487,50,153658,2,0,P|467:81|444:111,1,75,8|0,0:3|0:0,0:0:0:0:
92,251,153974,1,4,0:0:0:0:
499,200,154290,6,0,P|449:193|415:197,1,75,4|0,3:1|0:0,0:0:0:0:
46,350,154606,1,4,0:0:0:0:
4,0,154921,1,8,0:3:0:0:
262,311,155237,1,2,0:0:0:0:
302,341,155289,1,0,0:0:0:0:
506,132,155553,1,4,0:0:0:0:
39,175,155869,6,0,P|84:120|96:101,1,75,0|0,3:3|0:0,0:0:0:0:
349,388,156185,2,0,P|279:376|257:376,1,75,8|0,0:3|0:0,0:0:0:0:
379,13,156500,2,0,P|403:80|414:99,1,75,4|0,0:0|0:0,0:0:0:0:
434,368,156816,6,0,P|433:296|429:275,1,75,4|0,3:1|0:0,0:0:0:0:
479,35,157132,2,0,L|484:8,1,25,4|0,0:0|0:0,0:0:0:0:
154,364,157448,1,8,0:3:0:0:
156,45,157763,1,2,0:0:0:0:
136,0,157815,1,0,0:0:0:0:
394,34,158079,1,4,0:0:0:0:
73,226,158395,6,0,P|40:207|13:181,1,75,0|0,3:0|0:0,0:0:0:0:
416,139,158711,2,0,P|453:139|489:148,1,75,8|0,0:3|0:0,0:0:0:0:
167,373,159027,2,0,P|129:372|93:363,1,75,4|0,0:0|0:0,0:0:0:0:
349,10,159342,6,0,P|381:28|408:54,1,75,4|0,3:1|0:0,0:0:0:0:
422,333,159658,2,0,P|389:351|353:361,1,75,4|0,0:0|0:0,0:0:0:0:
81,51,159974,2,0,P|113:32|149:22,1,75,8|0,0:3|0:0,0:0:0:0:
485,228,160290,1,2,0:0:0:0:
505,273,160342,1,0,0:0:0:0:
491,12,160606,1,4,0:0:0:0:
231,384,160921,6,0,P|222:330|222:301,1,75,0|0,3:0|0:0,0:0:0:0:
384,8,161237,2,0,P|393:62|393:91,1,75,8|0,0:3|0:0,0:0:0:0:
72,329,161553,2,0,P|49:279|41:251,1,75,4|0,3:2|0:0,0:0:0:0:
498,108,161869,6,0,P|486:143|469:177,1,75,12|0,3:1|0:0,0:0:0:0:
241,224,162185,2,0,L|197:222,1,25,4|0,0:0|0:0,0:0:0:0:
420,268,162382,1,8,0:1:0:0:
501,293,162501,1,8,0:3:0:0:
140,167,162816,1,8,0:1:0:0:
91,160,162868,1,2,0:0:0:0:
229,2,163132,1,4,0:0:0:0:
6,384,163448,6,0,L|19:296,1,75,4|0,3:2|0:0,0:0:0:0:
312,0,163763,2,0,L|325:88,1,75,8|0,0:3|0:0,0:0:0:0:
411,339,164079,1,4,0:2:0:0:
47,41,164395,6,0,P|35:76|27:113,1,75,12|0,3:1|0:0,0:0:0:0:
119,384,164711,1,4,0:0:0:0:
156,237,164908,1,8,0:1:0:0:
131,156,165027,1,8,0:3:0:0:
450,356,165342,1,8,0:1:0:0:
495,374,165394,1,2,0:0:0:0:
512,208,165658,2,0,P|500:166|481:124,1,75,4|0,0:0|0:0,0:0:0:0:
132,32,165974,6,0,L|152:119,1,75,4|0,3:2|0:0,0:0:0:0:
456,164,166290,2,0,L|384:142,1,75,8|0,0:3|0:0,0:0:0:0:
179,379,166606,2,0,L|234:328,1,75,4|0,0:0|0:0,0:0:0:0:
481,2,166921,6,0,P|473:40|450:84,1,75,12|0,3:1|0:0,0:0:0:0:
137,262,167237,2,0,L|97:241,1,25,4|0,0:0|0:0,0:0:0:0:
326,277,167435,1,8,0:1:0:0:
408,295,167554,1,8,0:3:0:0:
62,44,167869,1,8,0:1:0:0:
23,14,167921,1,2,0:0:0:0:
21,183,168185,2,0,P|77:181|103:178,1,75,4|0,0:0|0:0,0:0:0:0:
478,45,168500,6,0,P|418:16|395:12,1,75,4|0,3:2|0:0,0:0:0:0:
60,306,168816,2,0,P|110:349|131:359,1,75,8|0,0:3|0:0,0:0:0:0:
508,333,169132,2,0,P|503:266|495:244,1,75,4|0,0:0|0:0,0:0:0:0:
148,5,169448,6,0,P|152:71|160:93,1,75,4|0,3:2|0:0,0:0:0:0:
385,372,169763,2,0,P|397:306|395:283,1,75,4|0,0:0|0:0,0:0:0:0:
364,211,169961,1,8,0:1:0:0:
383,128,170079,1,8,0:3:0:0:
103,203,170395,1,8,0:1:0:0:
58,222,170447,1,4,0:0:0:0:
235,363,170711,1,4,0:0:0:0:
132,23,171027,6,0,L|96:95,1,75,4|0,3:2|0:0,0:0:0:0:
464,169,171342,2,0,L|420:101,1,75,10|2,0:3|0:0,0:0:0:0:
171,383,171658,2,0,L|251:379,1,75,4|0,3:2|0:0,0:0:0:0:
339,359,171974,6,0,P|381:214|448:276,1,300,2|0,0:0|0:0,0:0:0:0:
374,293,173553,2,0,P|340:248|347:147,1,150,2|0,0:0|0:0,0:0:0:0:
173,359,174500,6,0,P|131:214|64:276,1,300,2|0,0:0|0:0,0:0:0:0:
138,293,176079,2,0,P|172:248|165:147,1,150,2|0,0:0|0:0,0:0:0:0:
321,175,177027,6,0,B|362:211|414:209|456:183|456:183|418:149|411:81|442:29,1,300,2|0,0:0|0:0,0:0:0:0:
506,100,178606,2,0,P|480:123|364:96,1,150,2|0,0:0|0:0,0:0:0:0:
191,175,179553,6,0,B|150:211|98:209|56:183|56:183|94:149|101:81|70:29,1,300,2|0,0:0|0:0,0:0:0:0:
6,100,181132,2,0,P|32:123|148:96,1,150,2|0,0:0|0:0,0:0:0:0:
337,160,182079,6,0,B|333:192|319:211|319:211|344:223|365:257|365:257|403:221|430:170|413:136|400:101|380:84,1,300,2|0,0:0|0:0,0:0:0:0:
290,290,183658,2,0,B|312:340|313:376|313:376|325:353|368:329,1,150,2|0,0:0|0:0,0:0:0:0:
175,160,184606,6,0,B|179:192|193:211|193:211|168:223|147:257|147:257|109:221|82:170|99:136|112:101|132:84,1,300,2|0,0:0|0:0,0:0:0:0:
222,290,186185,2,0,B|200:340|199:376|199:376|187:353|144:329,1,150,2|0,0:0|0:0,0:0:0:0:
309,227,187132,6,0,B|399:235|398:177|459:152|503:211|503:211|498:259|431:268,1,300,2|0,0:0|0:0,0:0:0:0:
320,153,188711,2,0,P|349:143|353:32,1,150,2|0,0:0|0:0,0:0:0:0:
203,227,189658,6,0,B|113:235|114:177|53:152|9:211|9:211|14:259|81:268,1,300,2|0,0:0|0:0,0:0:0:0:
192,153,191237,2,0,P|163:143|159:32,1,150,2|0,0:0|0:0,0:0:0:0:
371,18,192185,6,0,L|364:92,1,56.2500021457673,0|0,3:0|0:0,0:0:0:0:
453,35,192500,2,0,L|450:103,1,56.2500021457673,0|0,3:0|0:0,0:0:0:0:
377,153,192816,2,0,L|372:222,1,56.2500021457673,0|0,3:0|0:0,0:0:0:0:
462,166,193132,2,0,L|458:233,1,56.2500021457673,0|0,3:0|0:0,0:0:0:0:
316,275,193448,2,0,L|312:345,1,56.2500021457673,0|0,3:0|0:0,0:0:0:0:
394,293,193763,2,0,L|393:355,1,56.2500021457673,0|0,3:0|0:0,0:0:0:0:
479,295,194079,6,0,P|478:347|487:375,1,56.2500021457673,2|0,3:2|0:0,0:0:0:0:
370,92,194395,2,0,P|371:40|362:12,1,56.2500021457673,0|0,3:2|0:0,0:0:0:0:
141,18,194711,6,0,L|148:92,1,56.2500021457673,0|0,3:0|0:0,0:0:0:0:
59,35,195027,2,0,L|62:103,1,56.2500021457673,0|0,3:0|0:0,0:0:0:0:
135,153,195342,2,0,L|140:222,1,56.2500021457673,0|0,3:0|0:0,0:0:0:0:
50,166,195658,2,0,L|54:233,1,56.2500021457673,0|0,3:0|0:0,0:0:0:0:
196,275,195974,2,0,L|200:345,1,56.2500021457673,0|0,3:0|0:0,0:0:0:0:
118,293,196290,2,0,L|119:355,1,56.2500021457673,0|0,3:0|0:0,0:0:0:0:
33,295,196605,6,0,P|34:347|25:375,1,56.2500021457673,2|0,3:2|0:0,0:0:0:0:
33,350,196921,2,0,P|32:298|41:270,1,56.2500021457673,0|0,3:0|0:0,0:0:0:0:
47,24,197237,6,0,L|53:93,1,56.2500021457673,0|0,3:0|0:0,0:0:0:0:
133,30,197553,2,0,L|135:89,1,56.2500021457673,0|0,3:0|0:0,0:0:0:0:
37,161,197869,2,0,L|48:233,1,56.2500021457673,0|0,3:0|0:0,0:0:0:0:
123,169,198185,2,0,L|125:229,1,56.2500021457673,0|0,3:0|0:0,0:0:0:0:
38,300,198500,2,0,L|43:358,1,56.2500021457673,0|0,3:0|0:0,0:0:0:0:
123,314,198816,2,0,L|132:382,1,56.2500021457673,0|0,3:0|0:0,0:0:0:0:
204,283,199132,6,0,P|218:331|216:361,1,56.2500021457673,2|0,3:2|0:0,0:0:0:0:
41,117,199448,2,0,P|27:69|29:39,1,56.2500021457673,0|0,3:0|0:0,0:0:0:0:
465,24,199763,6,0,L|459:93,1,56.2500021457673,0|0,3:0|0:0,0:0:0:0:
379,30,200079,2,0,L|377:89,1,56.2500021457673,0|0,3:0|0:0,0:0:0:0:
475,161,200395,2,0,L|464:233,1,56.2500021457673,0|0,3:0|0:0,0:0:0:0:
389,169,200711,2,0,L|387:229,1,56.2500021457673,0|0,3:0|0:0,0:0:0:0:
474,300,201027,2,0,L|469:358,1,56.2500021457673,0|0,3:0|0:0,0:0:0:0:
389,314,201342,2,0,L|380:382,1,56.2500021457673,0|0,3:0|0:0,0:0:0:0:
308,283,201658,6,0,P|294:331|296:361,1,56.2500021457673,2|0,3:2|0:0,0:0:0:0:
293,336,201974,2,0,P|307:288|305:258,1,56.2500021457673,0|0,3:0|0:0,0:0:0:0:
324,19,202290,6,0,L|333:88,1,56.2500021457673,0|0,3:0|0:0,0:0:0:0:
191,16,202606,2,0,L|188:84,1,56.2500021457673,0|0,3:0|0:0,0:0:0:0:
316,162,202921,2,0,L|315:219,1,56.2500021457673,0|0,3:0|0:0,0:0:0:0:
195,161,203237,2,0,L|197:231,1,56.2500021457673,0|0,3:0|0:0,0:0:0:0:
309,294,203553,2,0,L|299:352,1,56.2500021457673,0|0,3:0|0:0,0:0:0:0:
214,301,203869,2,0,L|220:361,1,56.2500021457673,0|0,3:0|0:0,0:0:0:0:
396,380,204185,6,0,P|409:333|406:299,1,56.2500021457673,2|0,3:2|0:0,0:0:0:0:
116,4,204500,2,0,P|103:51|106:85,1,56.2500021457673,0|0,3:0|0:0,0:0:0:0:
454,253,204816,6,0,L|450:182,1,56.2500021457673,0|0,3:0|0:0,0:0:0:0:
58,131,205132,2,0,L|62:202,1,56.2500021457673,0|0,3:0|0:0,0:0:0:0:
457,145,205448,2,0,L|419:86,1,56.2500021457673,0|0,3:0|0:0,0:0:0:0:
54,238,205764,2,0,L|92:297,1,56.2500021457673,0|0,3:0|0:0,0:0:0:0:
407,51,206079,2,0,L|344:18,1,56.2500021457673,0|0,3:0|0:0,0:0:0:0:
104,332,206395,2,0,L|167:365,1,56.2500021457673,0|0,3:0|0:0,0:0:0:0:
352,185,206711,6,0,L|271:193,1,56.2500021457673,2|0,3:2|0:0,0:0:0:0:
160,199,207027,2,0,L|241:191,1,56.2500021457673,0|0,3:0|0:0,0:0:0:0:
378,267,207342,5,2,0:3:0:0:
434,208,207816,2,0,L|450:207,4,14.0625005364418,2|2|2|2|2,0:3|0:3|0:3|0:3|0:3,0:0:0:0:
378,267,208131,1,2,0:3:0:0:
465,20,208447,1,2,0:3:0:0:
378,267,208763,1,2,0:3:0:0:
394,349,208921,1,2,0:3:0:0:
465,20,209395,1,2,0:3:0:0:
134,267,209869,5,2,0:3:0:0:
78,208,210342,2,0,L|62:207,4,14.0625005364418,2|2|2|2|2,0:3|0:3|0:3|0:3|0:3,0:0:0:0:
134,267,210658,1,2,0:3:0:0:
47,20,210974,1,2,0:3:0:0:
134,267,211290,1,2,0:3:0:0:
118,349,211448,1,2,0:3:0:0:
47,20,211763,2,0,L|135:7,1,84.375,8|0,0:3|0:3,0:0:0:0:
40,99,212395,6,0,P|86:176|277:312,1,300,4|4,3:1|0:0,0:0:0:0:
325,285,212763,2,0,P|271:261|138:275,1,175,0|0,0:0|0:0,0:0:0:0:
316,365,213027,2,0,P|368:357|437:204,1,225,8|0,0:3|0:0,0:0:0:0:
381,6,213342,1,2,0:0:0:0:
359,21,213395,2,0,P|348:113|349:136,1,100,0|0,0:0|0:0,0:0:0:0:
153,363,213658,2,0,P|164:271|116:226,1,150,4|0,0:0|0:0,0:0:0:0:
9,384,213974,6,0,P|231:330|282:297,1,262.5,2|0,3:2|0:0,0:0:0:0:
258,315,214290,2,0,P|29:309|-28:327,1,262.5,8|0,0:3|0:0,0:0:0:0:
0,317,214606,2,0,P|219:382|280:378,1,262.5,4|0,0:0|0:0,0:0:0:0:
415,271,214921,6,0,P|521:256|505:362,1,250,4|0,3:1|0:0,0:0:0:0:
443,280,215237,2,0,P|415:165|441:48,1,225,4|0,0:0|0:0,0:0:0:0:
322,292,215553,2,0,P|258:332|132:218,1,225,8|0,0:3|0:0,0:0:0:0:
107,88,215869,1,2,0:0:0:0:
135,94,215921,2,0,P|160:153|125:204,1,100,0|0,0:0|0:0,0:0:0:0:
25,49,216185,2,0,P|71:14|192:15,1,150,4|4,0:0|0:0,0:0:0:0:
378,32,216500,6,0,P|380:91|340:325,1,262.5,4|0,3:2|0:0,0:0:0:0:
350,291,216816,2,0,P|363:233|462:17,1,262.5,8|0,0:3|0:0,0:0:0:0:
443,47,217132,2,0,P|415:99|263:281,1,262.5,4|0,0:0|0:0,0:0:0:0:
47,328,217448,6,0,P|143:278|121:83,1,300,4|4,3:1|0:0,0:0:0:0:
55,66,217816,2,0,P|49:155|69:255,1,175,0|0,0:0|0:0,0:0:0:0:
311,324,218079,2,0,P|345:288|253:298,1,225,8|0,0:3|0:0,0:0:0:0:
468,275,218395,1,2,0:0:0:0:
488,257,218448,2,0,P|494:219|481:139,1,100,0|0,0:0|0:0,0:0:0:0:
123,19,218711,2,0,P|94:75|89:166,1,150,4|0,0:0|0:0,0:0:0:0:
423,349,219027,6,0,P|420:283|395:63,1,262.5,4|0,3:2|0:0,0:0:0:0:
398,87,219342,2,0,P|435:224|486:340,1,262.5,8|0,0:3|0:0,0:0:0:0:
483,335,219658,2,0,P|347:298|221:284,1,262.5,4|0,0:0|0:0,0:0:0:0:
81,349,219974,6,0,P|137:288|34:311,1,262.5,4|0,3:1|0:0,0:0:0:0:
32,305,220290,2,0,P|114:269|18:157,1,262.5,4|0,0:0|0:0,0:0:0:0:
44,151,220606,2,0,P|99:155|198:-2,1,262.5,8|0,0:3|0:3,0:0:0:0:
282,7,220921,1,2,0:0:0:0:
310,25,220974,2,0,P|365:41|426:29,1,100,0|0,0:0|0:0,0:0:0:0:
464,326,221237,2,0,P|386:339|328:384,1,150,4|0,0:0|0:0,0:0:0:0:
30,373,221553,6,0,L|164:132,1,262.5,4|0,3:2|0:0,0:0:0:0:
157,143,221869,2,0,L|30:373,1,262.5,8|0,0:3|0:0,0:0:0:0:
30,373,222185,2,0,L|164:132,1,262.5,4|0,3:2|0:0,0:0:0:0:
121,363,222500,6,0,P|131:308|-12:114,1,300,4|4,3:1|0:0,0:0:0:0:
6,36,222869,2,0,P|61:51|129:40,1,100,0|0,0:0|0:0,0:0:0:0:
110,17,223013,1,8,0:1:0:0:
191,42,223132,2,0,P|240:19|430:33,1,225,8|0,0:3|0:0,0:0:0:0:
466,153,223448,1,8,0:1:0:0:
436,161,223500,2,0,P|378:129|354:83,1,100,2|0,0:0|0:0,0:0:0:0:
32,367,223763,2,0,P|78:292|75:223,1,150,4|0,0:0|0:0,0:0:0:0:
465,371,224079,6,0,P|398:279|394:114,1,262.5,4|0,3:2|0:0,0:0:0:0:
388,135,224395,2,0,P|428:241|390:401,1,262.5,8|0,0:3|0:0,0:0:0:0:
400,384,224711,2,0,P|387:270|467:125,1,262.5,4|0,0:0|0:0,0:0:0:0:
340,317,225027,6,0,P|288:339|196:203,1,250,4|0,3:1|0:0,0:0:0:0:
128,141,225342,2,0,P|144:203|134:320,1,150,4|0,0:0|0:0,0:0:0:0:
100,324,225540,1,8,0:1:0:0:
57,251,225659,2,0,P|44:142|-16:13,1,225,8|0,0:3|0:0,0:0:0:0:
0,329,225974,1,8,0:1:0:0:
15,358,226027,2,0,P|87:365|157:355,1,100,2|0,0:0|0:0,0:0:0:0:
176,25,226290,2,0,P|258:8|350:15,1,150,4|0,0:0|0:0,0:0:0:0:
500,227,226606,6,0,P|378:255|212:255,1,262.5,4|0,3:2|0:0,0:0:0:0:
241,258,226921,2,0,P|366:262|526:305,1,262.5,8|0,0:3|0:0,0:0:0:0:
498,294,227237,2,0,P|378:257|234:174,1,262.5,4|0,0:2|0:0,0:0:0:0:
67,99,227553,6,0,P|128:15|29:80,1,300,4|4,3:1|0:0,0:0:0:0:
6,174,227921,2,0,P|35:224|82:262,1,100,0|0,0:0|0:0,0:0:0:0:
35,298,228066,1,8,0:1:0:0:
118,317,228185,2,0,P|206:278|341:321,1,225,8|0,0:3|0:0,0:0:0:0:
474,234,228500,1,8,0:1:0:0:
453,255,228553,2,0,P|384:246|352:218,1,100,2|0,0:0|0:0,0:0:0:0:
11,80,228816,2,0,P|74:61|155:17,1,150,4|0,0:0|0:0,0:0:0:0:
225,375,229132,6,0,P|192:294|147:120,1,262.5,4|0,3:2|0:0,0:0:0:0:
148,125,229448,2,0,P|169:209|189:388,1,262.5,8|0,0:3|0:0,0:0:0:0:
189,383,229763,2,0,P|251:322|396:215,1,262.5,4|0,3:2|0:0,0:0:0:0:
458,78,230079,6,0,P|408:83|479:41,1,262.5,4|0,3:1|0:0,0:0:0:0:
478,30,230395,2,0,P|379:60|320:38,1,150,4|0,0:0|0:0,0:0:0:0:
302,17,230592,1,8,0:1:0:0:
219,36,230711,2,0,P|131:-3|-31:51,1,262.5,8|0,0:3|0:0,0:0:0:0:
39,117,231027,1,8,0:1:0:0:
78,126,231079,2,0,P|131:118|183:93,1,100,2|0,0:0|0:0,0:0:0:0:
465,302,231342,2,0,P|378:290|309:246,1,150,4|0,0:0|0:0,0:0:0:0:
2,260,231658,6,0,L|272:309,1,262.5,4|0,3:2|0:0,0:0:0:0:
260,306,231974,2,0,L|2:260,1,262.5,8|0,0:3|0:0,0:0:0:0:
2,260,232290,2,0,L|260:306,1,262.5,4|2,0:0|0:0,0:0:0:0:
