osu file format v14

[General]
AudioFilename: audio.mp3
AudioLeadIn: 0
PreviewTime: 110036
Countdown: 0
SampleSet: Soft
StackLeniency: 0.2
Mode: 0
LetterboxInBreaks: 0
WidescreenStoryboard: 1

[Editor]
Bookmarks: 1351,23293,39751,45236,67179,89122,111065,133008,154951,176893,198836,220779,242722,264665,286608
DistanceSpacing: 2.4
BeatDivisor: 4
GridSize: 32
TimelineZoom: 3.199999

[Metadata]
Title:All We Know Ft. Phoebe Ryan (Virtual Riot Remix)
TitleUnicode:All We Know Ft. Phoebe Ryan (Virtual Riot Remix)
Artist:The Chainsmokers
ArtistUnicode:The Chainsmokers
Creator:Sing
Version:handsome x Sing
Source:
Tags:Collab handsome
BeatmapID:1426826
BeatmapSetID:674318

[Difficulty]
HPDrainRate:6
CircleSize:2
OverallDifficulty:7
ApproachRate:9
SliderMultiplier:1.39999990463257
SliderTickRate:1

[Events]
//Background and Video events
0,0,"57286076_p0.jpg",0,0
//Break Periods
2,133349,152206
//Storyboard Layer 0 (Background)
//Storyboard Layer 1 (Fail)
//Storyboard Layer 2 (Pass)
//Storyboard Layer 3 (Foreground)
//Storyboard Sound Samples

[TimingPoints]
1351,342.857142857143,4,2,1,60,1,0
23293,-10000,4,2,1,60,0,0
39751,-10000,4,2,1,60,0,1
45236,-100,4,2,1,60,0,0
78151,-33.3333333333333,4,2,1,60,0,0
89293,-333.333333333333,4,2,1,60,0,0
90322,-222.222222222222,4,2,1,60,0,0
91008,-55.5555555555556,4,2,1,60,0,0
91351,-33.3333333333333,4,2,1,60,0,0
92036,-222.222222222222,4,2,1,60,0,0
93751,-55.5555555555556,4,2,1,60,0,0
94093,-33.3333333333333,4,2,1,60,0,0
94351,-16.6666666666667,4,2,1,60,0,0
94779,-200,4,2,1,60,0,0
95808,-133.333333333333,4,2,1,60,0,0
96493,-33.3333333333333,4,2,1,60,0,0
98036,-333.333333333333,4,2,1,60,0,0
98379,-33.3333333333333,4,2,1,60,0,0
98722,-20,4,2,1,60,0,0
99065,-200,4,2,1,60,0,0
99408,-20,4,2,1,60,0,0
100265,-166.666666666667,4,2,1,60,0,0
101293,-111.111111111111,4,2,1,60,0,0
101979,-27.7777777777778,4,2,1,60,0,0
102322,-33.3333333333333,4,2,1,60,0,0
103008,-111.111111111111,4,2,1,60,0,0
103522,-14.4927536231884,4,2,1,60,0,0
104036,-111.111111111111,4,2,1,60,0,0
104722,-27.7777777777778,4,2,1,60,0,0
105065,-33.3333333333333,4,2,1,60,0,0
105408,-16.6666666666667,4,2,1,60,0,0
105751,-142.857142857143,4,2,1,60,0,0
106779,-95.6022944550669,4,2,1,60,0,0
107465,-23.8095238095238,4,2,1,60,0,0
107808,-33.3333333333333,4,2,1,60,0,0
108322,-25,4,2,1,60,0,0
108665,-16.6666666666667,4,2,1,60,0,0
109351,-133.333333333333,4,2,1,60,0,0
109522,-33.3333333333333,4,2,1,60,0,0
110036,-133.333333333333,4,2,1,60,0,0
110379,-10000,4,2,1,60,0,0
111065,-40,4,2,1,60,0,1
121351,-25,4,2,1,60,0,1
122036,-40,4,2,1,60,0,1
130265,-33.3333333333333,4,2,1,60,0,1
131636,-25,4,2,1,60,0,1
133008,-200,4,2,1,60,0,0
209122,-33.3333333333333,4,2,1,60,0,0
209465,-14.4927536231884,4,2,1,60,0,0
209808,-25,4,2,1,60,0,0
229351,-16.6666666666667,4,2,1,60,0,0
229693,-66.6666666666667,4,2,1,60,0,0
230036,-16.6666666666667,4,2,1,60,0,0
230379,-14.4927536231884,4,2,1,60,0,0
230722,-166.666666666667,4,2,1,60,0,0
231579,-16.6666666666667,4,2,1,60,0,0
232436,-166.666666666667,4,2,1,60,0,0
235179,-25,4,2,1,60,0,0
239979,-25,4,2,1,60,0,0
240322,-16.6666666666667,4,2,1,60,0,0
241008,-133.333333333333,4,2,1,60,0,0
241179,-33.3333333333333,4,2,1,60,0,0
241693,-133.333333333333,4,2,1,60,0,0
242036,-10000,4,2,1,60,0,0
242722,-40,4,2,1,60,0,1
253008,-25,4,2,1,60,0,1
253693,-40,4,2,1,60,0,1
261922,-33.3333333333333,4,2,1,60,0,1
263293,-25,4,2,1,60,0,1
264665,-200,4,2,1,60,0,0
286608,-10,4,2,1,60,0,0
286693,-10000,4,2,1,60,0,0

[Colours]
Combo1 : 89,172,255
Combo2 : 255,146,94
Combo3 : 128,255,255

[HitObjects]
96,352,1351,5,2,0:0:0:0:
66,260,2379,1,2,0:0:0:0:
446,260,4093,5,2,0:0:0:0:
416,352,5122,1,2,0:0:0:0:
80,243,6836,5,2,0:0:0:0:
50,151,7865,1,2,0:0:0:0:
462,151,9579,5,2,0:0:0:0:
432,243,10608,1,2,0:0:0:0:
66,124,12322,5,2,0:0:0:0:
96,32,13351,1,2,0:0:0:0:
416,32,15065,5,2,0:0:0:0:
446,124,16093,1,2,0:0:0:0:
50,233,17808,5,2,0:0:0:0:
80,141,18836,1,2,0:0:0:0:
432,141,20551,5,2,0:0:0:0:
462,233,21579,1,2,0:0:0:0:
96,352,23293,6,0,L|125:360,1,27.9999980926514,2|0,0:0|0:0,0:0:0:0:
66,260,24322,2,0,L|106:242,1,41.9999971389771,2|0,0:0|0:0,0:0:0:0:
416,352,26036,5,2,0:0:0:0:
446,260,26208,1,4,0:3:0:0:
476,168,26379,1,8,0:3:0:0:
476,168,26722,5,2,0:3:0:0:
446,260,26893,1,4,0:3:0:0:
416,352,27065,2,0,L|387:360,1,27.9999980926514,2|0,0:0|0:0,0:0:0:0:
80,243,28093,1,0,0:0:0:0:
80,243,28779,6,0,L|109:251,1,27.9999980926514,2|0,0:0|0:0,0:0:0:0:
50,151,29808,2,0,L|90:133,1,41.9999971389771,2|0,0:0|0:0,0:0:0:0:
432,243,31522,5,2,0:0:0:0:
462,151,31693,1,4,0:3:0:0:
492,59,31865,1,8,0:3:0:0:
492,59,32208,5,2,0:3:0:0:
462,151,32379,1,4,0:3:0:0:
432,243,32551,2,0,L|403:251,1,27.9999980926514,2|0,0:0|0:0,0:0:0:0:
96,32,33579,1,0,0:0:0:0:
96,32,34265,6,0,L|125:24,1,27.9999980926514,2|0,0:0|0:0,0:0:0:0:
66,124,35293,2,0,L|106:142,1,41.9999971389771,2|0,0:0|0:0,0:0:0:0:
416,32,37008,5,2,0:0:0:0:
446,124,37179,1,4,0:3:0:0:
476,216,37351,1,8,0:3:0:0:
476,216,37693,5,2,0:3:0:0:
446,124,37865,1,4,0:3:0:0:
416,32,38036,2,0,L|387:24,1,27.9999980926514,2|0,0:0|0:0,0:0:0:0:
80,141,39065,2,0,L|106:148,1,27.9999980926514,4|4,0:0|1:0,0:0:0:0:
256,192,39836,12,0,44893,0:0:0:0:
476,216,45236,5,2,0:0:0:0:
389,359,45579,1,0,0:0:0:0:
293,336,45751,5,2,0:0:0:0:
197,314,45922,1,0,0:0:0:0:
122,24,46265,5,2,0:0:0:0:
101,336,46608,1,0,0:0:0:0:
446,124,46951,5,2,0:0:0:0:
389,359,47293,1,0,0:0:0:0:
416,32,47465,5,2,0:0:0:0:
36,216,47979,5,2,0:0:0:0:
123,359,48322,1,0,0:0:0:0:
219,336,48493,5,2,0:0:0:0:
315,314,48665,1,0,0:0:0:0:
390,24,49008,5,2,0:0:0:0:
411,336,49351,1,0,0:0:0:0:
66,124,49693,5,2,0:0:0:0:
123,359,50036,1,0,0:0:0:0:
96,32,50208,5,2,0:0:0:0:
476,168,50722,5,2,0:0:0:0:
389,25,51065,1,0,0:0:0:0:
293,48,51236,5,2,0:0:0:0:
197,70,51408,1,0,0:0:0:0:
122,360,51751,5,2,0:0:0:0:
101,48,52093,1,0,0:0:0:0:
446,260,52436,5,2,0:0:0:0:
389,25,52779,1,0,0:0:0:0:
416,352,52951,5,2,0:0:0:0:
36,216,53465,5,2,0:0:0:0:
123,359,53808,1,0,0:0:0:0:
219,336,53979,5,2,0:0:0:0:
315,314,54151,1,0,0:0:0:0:
390,24,54493,5,2,0:0:0:0:
411,336,54836,1,0,0:0:0:0:
66,124,55179,5,2,0:0:0:0:
123,359,55522,1,0,0:0:0:0:
96,32,55693,5,2,0:0:0:0:
476,216,56208,5,2,0:0:0:0:
389,359,56551,1,0,0:0:0:0:
293,336,56722,5,2,0:0:0:0:
197,314,56893,1,0,0:0:0:0:
122,24,57236,5,2,0:0:0:0:
101,336,57579,1,0,0:0:0:0:
446,124,57922,5,2,0:0:0:0:
389,359,58265,1,0,0:0:0:0:
416,32,58436,5,2,0:0:0:0:
36,216,58951,5,2,0:0:0:0:
123,359,59293,1,0,0:0:0:0:
219,336,59465,5,2,0:0:0:0:
315,314,59636,1,0,0:0:0:0:
390,24,59979,5,2,0:0:0:0:
411,336,60322,1,0,0:0:0:0:
66,124,60665,5,2,0:0:0:0:
123,359,61008,1,0,0:0:0:0:
96,32,61179,5,2,0:0:0:0:
476,168,61693,5,2,0:0:0:0:
389,25,62036,1,0,0:0:0:0:
293,48,62208,5,2,0:0:0:0:
197,70,62379,1,0,0:0:0:0:
122,360,62722,5,2,0:0:0:0:
101,48,63065,1,0,0:0:0:0:
446,260,63408,5,2,0:0:0:0:
389,25,63751,1,0,0:0:0:0:
416,352,63922,5,2,0:0:0:0:
36,216,64436,5,2,0:0:0:0:
123,359,64779,1,0,0:0:0:0:
219,336,64951,5,2,0:0:0:0:
315,314,65122,1,0,0:0:0:0:
390,24,65465,5,2,0:0:0:0:
411,336,65808,1,2,0:0:0:0:
411,336,66151,5,2,0:0:0:0:
411,336,66493,5,2,0:0:0:0:
315,314,66665,5,2,0:0:0:0:
411,336,66836,1,2,0:0:0:0:
11,117,67179,5,0,1:0:0:0:
219,336,67522,2,0,P|234:298|237:246,1,69.9999952316285,2|0,0:0|0:0,0:0:0:0:
101,48,67865,5,0,1:0:0:0:
215,173,68036,2,0,P|202:134|170:92,1,69.9999952316285,2|0,0:0|0:0,0:0:0:0:
9,13,68379,1,2,0:0:0:0:
123,359,68551,5,0,1:0:0:0:
9,13,68893,1,2,0:0:0:0:
123,359,69236,5,2,1:2:0:0:
66,186,69408,1,2,0:0:0:0:
9,13,69579,1,2,0:0:0:0:
501,117,69922,5,0,1:0:0:0:
293,336,70265,2,0,P|278:298|275:246,1,69.9999952316285,2|0,0:0|0:0,0:0:0:0:
411,48,70608,5,0,1:0:0:0:
297,173,70779,2,0,P|310:134|342:92,1,69.9999952316285,2|0,0:0|0:0,0:0:0:0:
503,13,71122,1,2,0:0:0:0:
389,359,71294,5,0,1:0:0:0:
503,13,71636,1,2,0:0:0:0:
503,13,71979,5,2,1:2:0:0:
446,186,72150,1,2,0:0:0:0:
389,359,72322,1,2,0:0:0:0:
11,267,72665,5,0,1:0:0:0:
219,48,73008,2,0,P|234:86|237:138,1,69.9999952316285,2|0,0:0|0:0,0:0:0:0:
101,336,73351,5,0,1:0:0:0:
215,211,73522,2,0,P|202:250|170:292,1,69.9999952316285,2|0,0:0|0:0,0:0:0:0:
9,371,73865,1,2,0:0:0:0:
123,25,74037,5,0,1:0:0:0:
9,371,74379,1,2,0:0:0:0:
9,371,74722,5,2,1:2:0:0:
66,198,74894,1,2,0:0:0:0:
123,25,75065,1,2,0:0:0:0:
501,267,75408,5,0,1:0:0:0:
293,48,75751,2,0,P|278:86|275:138,1,69.9999952316285,2|0,0:0|0:0,0:0:0:0:
411,336,76094,5,0,1:0:0:0:
297,211,76265,2,0,P|310:250|342:292,1,69.9999952316285,2|0,0:0|0:0,0:0:0:0:
503,371,76608,1,2,0:0:0:0:
389,25,76780,5,0,1:0:0:0:
503,371,77122,1,2,0:0:0:0:
389,25,77465,5,2,1:2:0:0:
446,198,77636,1,2,0:0:0:0:
503,371,77808,1,2,0:0:0:0:
9,371,78151,6,0,L|257:327,1,209.99999370575,8|0,0:0|0:0,0:0:0:0:
158,59,78493,1,10,0:0:0:0:
215,334,78665,6,0,P|252:234|220:90,1,209.99999370575,2|8,0:0|0:0,0:0:0:0:
0,87,79008,2,0,P|90:138|148:225,1,209.99999370575,2|8,0:0|0:0,0:0:0:0:
354,59,79351,5,2,0:0:0:0:
297,334,79522,6,0,P|259:234|291:90,1,209.99999370575,10|0,0:0|0:0,0:0:0:0:
512,87,79865,2,0,P|421:138|363:225,1,209.99999370575,10|0,0:0|0:0,0:0:0:0:
101,319,80208,5,10,0:0:0:0:
363,225,80379,1,2,0:0:0:0:
503,371,80551,1,10,0:0:0:0:
503,371,80893,6,0,L|255:327,1,209.99999370575,8|0,0:0|0:0,0:0:0:0:
354,59,81236,1,10,0:0:0:0:
297,334,81408,6,0,P|259:234|291:90,1,209.99999370575,2|8,0:0|0:0,0:0:0:0:
512,87,81751,2,0,P|421:138|363:225,1,209.99999370575,2|8,0:0|0:0,0:0:0:0:
158,59,82093,5,2,0:0:0:0:
215,334,82265,6,0,P|252:234|220:90,1,209.99999370575,10|0,0:0|0:0,0:0:0:0:
0,87,82608,2,0,P|90:138|148:225,1,209.99999370575,10|0,0:0|0:0,0:0:0:0:
411,319,82951,5,10,0:0:0:0:
149,225,83122,1,2,0:0:0:0:
9,371,83293,1,10,0:0:0:0:
9,371,83636,5,10,0:0:0:0:
103,95,83808,5,2,1:2:0:0:
103,95,83979,1,2,1:2:0:0:
103,95,84151,1,0,1:0:0:0:
256,320,84322,5,10,0:0:0:0:
256,64,84493,5,2,1:2:0:0:
256,64,84665,1,2,1:2:0:0:
256,64,84836,1,0,1:0:0:0:
503,371,85008,5,10,0:0:0:0:
409,95,85179,5,2,1:2:0:0:
409,95,85351,1,2,1:2:0:0:
409,95,85522,1,0,1:0:0:0:
32,256,85693,5,10,0:0:0:0:
480,256,85865,1,2,1:2:0:0:
177,140,86036,5,2,1:2:0:0:
186,189,86122,1,0,1:0:0:0:
332,140,86208,5,0,1:0:0:0:
323,189,86294,1,0,1:0:0:0:
256,224,86379,5,4,1:0:0:0:
111,99,87751,5,8,0:3:0:0:
384,207,87922,5,4,0:3:0:0:
403,108,88093,1,4,0:3:0:0:
133,213,88265,5,2,0:3:0:0:
479,173,88436,5,8,0:0:0:0:
0,274,88608,1,0,1:0:0:0:
512,274,88779,5,8,0:0:0:0:
24,174,88951,1,8,0:0:0:0:
512,56,89122,5,0,1:0:0:0:
401,356,89293,2,0,L|330:343,1,62.9999937858584,4|8,1:0|0:0,0:0:0:0:
512,56,90151,5,0,1:0:0:0:
401,356,90322,2,0,L|330:343,1,62.9999937858584,4|0,1:0|0:0,0:0:0:0:
512,56,90836,5,0,1:0:0:0:
401,356,91008,2,0,L|330:343,1,62.9999937858584,4|0,1:0|0:0,0:0:0:0:
0,274,91179,5,8,0:0:0:0:
401,66,91351,2,0,P|414:186|534:256,1,209.99999370575,2|0,0:0|0:0,0:0:0:0:
476,242,91608,2,0,P|463:122|343:52,1,209.99999370575,2|0,0:0|0:0,0:0:0:0:
0,56,91865,5,0,1:0:0:0:
111,356,92036,2,0,L|182:343,1,62.9999937858584,4|0,1:0|1:0,0:0:0:0:
400,65,92551,5,8,0:0:0:0:
0,384,92722,1,4,0:3:0:0:
0,56,92893,5,0,1:0:0:0:
111,356,93065,2,0,L|182:343,1,62.9999937858584,4|0,1:0|1:0,0:0:0:0:
0,56,93579,5,0,1:0:0:0:
111,356,93751,2,0,L|182:343,1,62.9999937858584,4|0,1:0|0:0,0:0:0:0:
512,274,93922,5,8,0:0:0:0:
111,66,94093,2,0,P|98:186|-22:256,1,209.99999370575,2|0,0:0|0:0,0:0:0:0:
35,242,94351,1,2,0:0:0:0:
36,242,94436,2,0,P|49:122|169:52,1,209.99999370575
512,0,94608,5,0,1:0:0:0:
152,172,94779,2,0,L|256:192,1,104.999992847443,4|8,1:0|0:0,0:0:0:0:
512,0,95636,5,0,0:0:0:0:
152,172,95808,2,0,L|256:192,1,104.999992847443
512,0,96322,5,0,0:0:0:0:
152,172,96493,2,0,L|256:192,1,104.999992847443
401,356,96665,5,0,0:0:0:0:
191,27,96836,2,0,B|88:0|88:0|-27:76,1,209.99999370575
0,56,97093,2,0,B|102:82|102:82|218:6,1,209.99999370575
512,0,97351,5,0,0:0:0:0:
401,356,97522,1,0,0:0:0:0:
512,0,97693,6,0,P|481:65|421:122,1,104.999996852875
401,356,97865,2,0,P|410:284|389:204,1,104.999996852875
298,127,98036,6,0,L|336:139,1,31.4999968929292
512,0,98379,6,0,P|481:65|421:122,1,104.999996852875
401,356,98551,2,0,P|410:284|389:204,1,104.999996852875
128,20,98722,6,0,P|35:71|-14:193,1,174.999988079071,0|0,2:0|2:0,2:0:0:0:
48,213,98893,2,0,P|28:317|89:433,1,174.999988079071,0|0,2:0|2:0,2:0:0:0:
256,320,99065,6,0,L|250:254,1,52.4999964237214
128,20,99408,6,0,P|35:71|-14:193,1,174.999988079071,0|0,2:0|2:0,2:0:0:0:
48,213,99579,5,0,0:0:0:0:
74,258,99665,1,0,0:0:0:0:
139,316,99751,1,0,0:0:0:0:
238,347,99836,1,0,0:0:0:0:
358,322,99922,1,0,0:0:0:0:
457,222,100008,1,0,0:0:0:0:
473,66,100093,5,0,0:0:0:0:
0,0,100265,2,0,L|43:124,1,125.999987571717
473,66,101122,5,0,0:0:0:0:
0,0,101293,2,0,L|43:124,1,125.999987571717
473,66,101808,5,0,0:0:0:0:
0,0,101979,2,0,L|43:124,1,125.999987571717
401,356,102151,5,0,0:0:0:0:
149,104,102322,2,0,B|198:124|247:96|247:96|249:99|249:99|247:96|247:96|303:54|289:-48,1,209.99999370575
290,8,102579,2,0,B|241:-12|192:16|192:16|190:13|190:13|192:16|192:16|136:58|150:160,1,209.99999370575
473,318,102836,5,0,0:0:0:0:
0,384,103008,2,0,L|43:260,1,125.999987571717
473,66,103522,6,0,B|390:58|333:127|333:127|203:99|203:99|206:96|206:96|203:99|203:99|4:57,1,482.999955121996
473,318,103865,5,0,0:0:0:0:
0,384,104036,2,0,L|43:260,1,125.999987571717
473,318,104551,5,0,0:0:0:0:
0,384,104722,2,0,L|43:260,1,125.999987571717
401,28,104893,5,0,0:0:0:0:
230,284,105065,2,0,B|184:239|184:239|12:270,1,209.99999370575
40,264,105322,1,0,0:0:0:0:
41,265,105408,2,0,B|87:310|87:310|259:279,1,209.99999370575
444,177,105579,5,0,0:0:0:0:
0,56,105751,2,0,L|153:31,1,146.999985500336
375,363,106436,1,0,0:0:0:0:
444,177,106608,5,0,0:0:0:0:
0,56,106779,2,0,L|153:31,1,146.439989309528
444,177,107293,5,0,0:0:0:0:
0,56,107465,2,0,L|153:31,1,146.999985500336
375,363,107636,5,0,0:0:0:0:
512,0,107808,2,0,B|355:39|355:39|310:109,1,209.99999370575
328,79,108065,2,0,B|485:40|485:40|530:-30,1,209.99999370575
16,59,108322,6,0,B|51:17|51:17|149:38|184:274|-23:347,1,419.999971389771
35,318,108665,6,0,P|145:348|238:232,1,209.99999370575
401,28,108836,1,0,0:0:0:0:
35,318,109008,6,0,P|145:348|238:232,1,209.99999370575
401,28,109179,2,0,B|423:120|423:120|433:130|433:130|455:248,1,209.99999370575
423,355,109351,6,0,L|430:310,1,26.2499992132187
342,179,109522,6,0,P|313:278|304:398,2,209.99999370575
182,227,110036,6,0,P|203:260|223:312,1,78.7499976396561
30,342,110379,6,0,L|35:317,1,24.49999833107
0,0,111065,6,0,P|48:172|73:363,2,349.999976158142
170,381,112093,2,0,P|206:209|219:35,1,349.999976158142
71,341,112608,5,0,0:0:0:0:
170,381,112779,2,0,P|206:209|219:35,1,349.999976158142
512,276,113293,5,0,0:0:0:0:
461,358,113465,2,0,P|377:347|270:301,1,174.999988079071
69,114,113808,6,0,P|242:100|400:27,1,349.999976158142
0,0,114322,5,0,0:0:0:0:
464,186,114493,5,0,0:0:0:0:
51,344,114665,1,0,0:0:0:0:
461,358,114836,6,0,P|302:285|129:271,1,349.999976158142
219,35,115351,5,0,0:0:0:0:
51,344,115522,2,0,P|91:190|61:-4,1,349.999976158142
423,355,116036,6,0,P|409:310|374:253,1,87.4999940395356
512,231,116208,2,0,P|473:205|409:184,3,87.4999940395356
245,344,116551,6,0,P|348:291|389:28,2,349.999976158142
42,327,117408,5,0,0:0:0:0:
121,384,117579,2,0,P|172:239|191:1,1,349.999976158142
250,384,118093,5,0,0:0:0:0:
343,343,118265,2,0,P|341:189|277:-40,1,349.999976158142
63,3,118779,5,0,0:0:0:0:
141,61,118951,2,0,P|69:132|-22:115,1,174.999988079071
512,95,119293,6,0,P|304:62|192:190,1,349.999976158142
42,327,119808,5,0,0:0:0:0:
63,3,119979,2,0,B|26:57|39:120|39:120|33:121|33:121|39:120|39:120|58:200|160:219,1,262.499982118607
443,344,120322,6,0,P|334:163|164:159,1,349.999976158142
42,327,120836,5,0,0:0:0:0:
458,0,121008,2,0,P|429:43|401:120,1,87.4999940395356
497,129,121179,2,0,P|502:180|530:257,1,87.4999940395356
443,344,121351,6,0,L|-38:281,1,419.999971389771
42,327,121693,2,0,L|82:148,1,139.999990463257
110,10,121865,1,0,0:0:0:0:
110,10,121951,1,0,0:0:0:0:
175,86,122036,6,0,P|301:81|527:0,2,349.999976158142
429,277,123065,2,0,P|256:250|99:175,1,349.999976158142
0,0,123579,5,0,0:0:0:0:
203,345,123751,2,0,P|180:212|100:-11,1,349.999976158142
203,345,124265,5,0,0:0:0:0:
103,384,124436,2,0,P|63:292|10:218,1,174.999988079071
512,351,124779,6,0,P|333:313|225:130,1,349.999976158142
511,9,125293,1,0,0:0:0:0:
166,30,125465,6,0,B|196:-5|196:-5|249:19|292:122|220:207,1,262.499982118607
0,382,125808,6,0,P|159:345|348:331,1,349.999976158142
476,52,126322,5,0,0:0:0:0:
464,381,126493,2,0,P|427:275|410:96,1,262.499982118607
476,52,126836,5,0,0:0:0:0:
344,330,127008,2,0,P|292:259|263:177,2,174.999988079071
10,10,127522,6,0,B|68:30|93:74|93:74|373:19,2,349.999976158142
103,384,128379,1,0,0:0:0:0:
0,112,128551,2,0,P|34:198|50:318,2,174.999988079071
344,330,129065,5,0,0:0:0:0:
0,365,129236,2,0,L|183:283,1,174.999988079071
464,381,129579,5,0,0:0:0:0:
0,254,129751,2,0,L|183:172,2,174.999988079071
344,330,130265,6,0,P|364:218|427:121,1,209.99999370575
196,239,130608,2,0,P|253:140|345:70,1,209.99999370575
465,333,130951,5,0,0:0:0:0:
0,112,131293,1,0,0:0:0:0:
512,70,131636,6,0,P|445:43|382:-6,1,139.999990463257
382,175,131808,2,0,P|337:118|307:44,1,139.999990463257
0,225,131979,6,0,P|67:198|130:149,1,139.999990463257
130,330,132151,2,0,P|174:273|204:199,1,139.999990463257
499,186,132322,5,0,0:0:0:0:
13,341,132493,1,0,0:0:0:0:
0,112,132665,5,0,0:0:0:0:
465,333,132836,1,0,0:0:0:0:
256,32,133008,5,0,0:0:0:0:
256,192,153236,12,0,154779,0:0:0:0:
47,51,154951,5,0,0:0:0:0:
47,51,155293,1,0,0:0:0:0:
47,333,155636,5,0,0:0:0:0:
187,186,155808,1,0,0:0:0:0:
217,224,155893,1,0,0:0:0:0:
238,268,155979,1,0,0:0:0:0:
250,314,156065,1,0,0:0:0:0:
252,362,156151,1,0,0:0:0:0:
129,272,156322,5,0,0:0:0:0:
146,303,156408,1,0,0:0:0:0:
150,338,156493,1,0,0:0:0:0:
47,51,156665,5,0,0:0:0:0:
47,333,157008,5,0,0:0:0:0:
47,51,157179,5,0,0:0:0:0:
129,112,157351,1,0,0:0:0:0:
146,81,157436,1,0,0:0:0:0:
150,46,157522,1,0,0:0:0:0:
465,51,157693,5,0,0:0:0:0:
465,51,158036,1,0,0:0:0:0:
465,333,158379,5,0,0:0:0:0:
325,186,158551,1,0,0:0:0:0:
296,224,158636,1,0,0:0:0:0:
275,268,158722,1,0,0:0:0:0:
263,314,158808,1,0,0:0:0:0:
261,362,158893,1,0,0:0:0:0:
383,272,159065,5,0,0:0:0:0:
366,303,159151,1,0,0:0:0:0:
362,338,159236,1,0,0:0:0:0:
465,51,159408,5,0,0:0:0:0:
465,333,159751,5,0,0:0:0:0:
465,51,159922,5,0,0:0:0:0:
383,112,160093,1,0,0:0:0:0:
366,81,160179,1,0,0:0:0:0:
362,46,160265,1,0,0:0:0:0:
129,112,160436,5,0,0:0:0:0:
129,112,160779,1,0,0:0:0:0:
450,182,161122,5,0,0:0:0:0:
345,211,161293,1,0,0:0:0:0:
365,251,161379,1,0,0:0:0:0:
397,279,161465,1,0,0:0:0:0:
438,294,161551,1,0,0:0:0:0:
481,291,161636,1,0,0:0:0:0:
383,112,161808,5,0,0:0:0:0:
411,92,161893,1,0,0:0:0:0:
445,84,161979,1,0,0:0:0:0:
129,112,162151,5,0,0:0:0:0:
450,182,162493,5,0,0:0:0:0:
129,112,162665,5,0,0:0:0:0:
196,42,162836,1,0,0:0:0:0:
168,22,162922,1,0,0:0:0:0:
134,14,163008,1,0,0:0:0:0:
383,272,163179,5,0,0:0:0:0:
383,272,163522,1,0,0:0:0:0:
62,202,163865,5,0,0:0:0:0:
168,174,164036,1,0,0:0:0:0:
148,134,164122,1,0,0:0:0:0:
116,106,164208,1,0,0:0:0:0:
75,91,164293,1,0,0:0:0:0:
32,94,164379,1,0,0:0:0:0:
129,272,164551,5,0,0:0:0:0:
101,292,164636,1,0,0:0:0:0:
67,300,164722,1,0,0:0:0:0:
383,272,164893,5,0,0:0:0:0:
62,202,165236,5,0,0:0:0:0:
383,272,165408,5,0,0:0:0:0:
316,342,165579,1,0,0:0:0:0:
344,362,165665,1,0,0:0:0:0:
378,370,165751,1,0,0:0:0:0:
47,333,165922,5,0,0:0:0:0:
47,333,166265,1,0,0:0:0:0:
47,51,166608,5,0,0:0:0:0:
187,198,166779,1,0,0:0:0:0:
216,160,166865,1,0,0:0:0:0:
237,116,166951,1,0,0:0:0:0:
249,70,167036,1,0,0:0:0:0:
251,22,167122,1,0,0:0:0:0:
129,112,167293,5,0,0:0:0:0:
146,81,167379,1,0,0:0:0:0:
150,46,167465,1,0,0:0:0:0:
47,333,167636,5,0,0:0:0:0:
47,51,167979,5,0,0:0:0:0:
47,333,168151,5,0,0:0:0:0:
129,272,168322,1,0,0:0:0:0:
146,303,168408,1,0,0:0:0:0:
150,338,168493,1,0,0:0:0:0:
465,333,168665,5,0,0:0:0:0:
465,333,169008,1,0,0:0:0:0:
465,51,169351,5,0,0:0:0:0:
325,198,169522,1,0,0:0:0:0:
295,160,169608,1,0,0:0:0:0:
274,116,169693,1,0,0:0:0:0:
262,70,169779,1,0,0:0:0:0:
260,22,169865,1,0,0:0:0:0:
383,112,170036,5,0,0:0:0:0:
366,81,170122,1,0,0:0:0:0:
362,46,170208,1,0,0:0:0:0:
465,333,170379,5,0,0:0:0:0:
465,51,170722,5,0,0:0:0:0:
465,333,170893,5,0,0:0:0:0:
383,272,171065,1,0,0:0:0:0:
366,303,171151,1,0,0:0:0:0:
362,338,171236,1,0,0:0:0:0:
129,272,171408,5,0,0:0:0:0:
129,272,171751,1,0,0:0:0:0:
450,202,172093,5,0,0:0:0:0:
344,173,172265,1,0,0:0:0:0:
364,133,172351,1,0,0:0:0:0:
396,105,172436,1,0,0:0:0:0:
437,90,172522,1,0,0:0:0:0:
480,93,172608,1,0,0:0:0:0:
383,272,172779,5,0,0:0:0:0:
411,292,172865,1,0,0:0:0:0:
445,300,172951,1,0,0:0:0:0:
129,272,173122,5,0,0:0:0:0:
450,202,173465,5,0,0:0:0:0:
129,272,173636,5,0,0:0:0:0:
196,342,173808,1,0,0:0:0:0:
168,362,173893,1,0,0:0:0:0:
134,370,173979,1,0,0:0:0:0:
383,112,174151,5,0,0:0:0:0:
383,112,174493,1,0,0:0:0:0:
62,182,174836,5,0,0:0:0:0:
167,210,175008,1,0,0:0:0:0:
147,250,175093,1,0,0:0:0:0:
115,278,175179,1,0,0:0:0:0:
74,293,175265,1,0,0:0:0:0:
31,290,175351,1,0,0:0:0:0:
129,112,175522,5,0,0:0:0:0:
101,92,175608,1,0,0:0:0:0:
67,84,175693,1,0,0:0:0:0:
383,112,175865,5,0,0:0:0:0:
277,151,176036,5,0,0:0:0:0:
274,99,176122,1,0,0:0:0:0:
294,50,176208,1,0,0:0:0:0:
333,16,176293,1,0,0:0:0:0:
383,1,176379,1,0,0:0:0:0:
382,222,176551,5,0,0:0:0:0:
471,173,176636,1,0,0:0:0:0:
489,73,176722,1,0,0:0:0:0:
62,182,176893,5,0,0:0:0:0:
62,182,177236,1,0,0:0:0:0:
223,340,177579,5,0,0:0:0:0:
250,245,177751,1,0,0:0:0:0:
277,151,177922,1,0,0:0:0:0:
271,130,178008,1,0,0:0:0:0:
265,109,178093,1,0,0:0:0:0:
362,227,178265,5,0,0:0:0:0:
389,133,178436,1,0,0:0:0:0:
383,112,178522,1,0,0:0:0:0:
377,91,178608,1,0,0:0:0:0:
111,358,178951,5,0,0:0:0:0:
138,263,179122,1,0,0:0:0:0:
165,169,179293,1,0,0:0:0:0:
159,148,179379,1,0,0:0:0:0:
153,127,179465,1,0,0:0:0:0:
62,182,179636,5,0,0:0:0:0:
62,182,179979,1,0,0:0:0:0:
223,24,180322,5,0,0:0:0:0:
250,119,180493,1,0,0:0:0:0:
277,213,180665,1,0,0:0:0:0:
271,234,180751,1,0,0:0:0:0:
265,255,180836,1,0,0:0:0:0:
474,155,181008,5,0,0:0:0:0:
501,249,181179,1,0,0:0:0:0:
495,270,181265,1,0,0:0:0:0:
489,291,181351,1,0,0:0:0:0:
389,231,181522,5,0,0:0:0:0:
383,252,181608,1,0,0:0:0:0:
377,273,181693,1,0,0:0:0:0:
138,101,181865,5,0,0:0:0:0:
165,195,182036,1,0,0:0:0:0:
159,216,182122,1,0,0:0:0:0:
153,237,182208,1,0,0:0:0:0:
450,182,182379,5,0,0:0:0:0:
450,182,182722,1,0,0:0:0:0:
289,340,183065,5,0,0:0:0:0:
262,245,183236,1,0,0:0:0:0:
235,151,183408,1,0,0:0:0:0:
241,130,183493,1,0,0:0:0:0:
247,109,183579,1,0,0:0:0:0:
150,227,183751,5,0,0:0:0:0:
123,133,183922,1,0,0:0:0:0:
129,112,184008,1,0,0:0:0:0:
135,91,184093,1,0,0:0:0:0:
401,358,184436,5,0,0:0:0:0:
374,263,184608,1,0,0:0:0:0:
347,169,184779,1,0,0:0:0:0:
353,148,184865,1,0,0:0:0:0:
359,127,184951,1,0,0:0:0:0:
450,182,185122,5,0,0:0:0:0:
450,182,185465,1,0,0:0:0:0:
289,24,185808,5,0,0:0:0:0:
262,119,185979,1,0,0:0:0:0:
235,213,186151,1,0,0:0:0:0:
241,234,186236,1,0,0:0:0:0:
247,255,186322,1,0,0:0:0:0:
38,155,186493,5,0,0:0:0:0:
11,249,186665,1,0,0:0:0:0:
17,270,186751,1,0,0:0:0:0:
23,291,186836,1,0,0:0:0:0:
123,231,187008,5,0,0:0:0:0:
129,252,187093,1,0,0:0:0:0:
135,273,187179,1,0,0:0:0:0:
374,101,187351,5,0,0:0:0:0:
347,195,187522,1,0,0:0:0:0:
353,216,187608,1,0,0:0:0:0:
359,237,187693,1,0,0:0:0:0:
62,202,187865,5,0,0:0:0:0:
62,202,188208,1,0,0:0:0:0:
223,44,188551,5,0,0:0:0:0:
250,139,188722,1,0,0:0:0:0:
277,233,188893,1,0,0:0:0:0:
271,254,188979,1,0,0:0:0:0:
265,275,189065,1,0,0:0:0:0:
362,157,189236,5,0,0:0:0:0:
389,251,189408,1,0,0:0:0:0:
383,272,189493,1,0,0:0:0:0:
377,293,189579,1,0,0:0:0:0:
111,26,189922,5,0,0:0:0:0:
138,121,190093,1,0,0:0:0:0:
165,215,190265,1,0,0:0:0:0:
159,236,190351,1,0,0:0:0:0:
153,257,190436,1,0,0:0:0:0:
62,202,190608,5,0,0:0:0:0:
62,202,190951,1,0,0:0:0:0:
223,360,191293,5,0,0:0:0:0:
250,265,191465,1,0,0:0:0:0:
277,171,191636,1,0,0:0:0:0:
271,150,191722,1,0,0:0:0:0:
265,129,191808,1,0,0:0:0:0:
474,229,191979,5,0,0:0:0:0:
501,135,192151,1,0,0:0:0:0:
495,114,192236,1,0,0:0:0:0:
489,93,192322,1,0,0:0:0:0:
389,153,192493,5,0,0:0:0:0:
383,132,192579,1,0,0:0:0:0:
377,111,192665,1,0,0:0:0:0:
138,283,192836,5,0,0:0:0:0:
165,189,193008,1,0,0:0:0:0:
159,168,193093,1,0,0:0:0:0:
153,147,193179,1,0,0:0:0:0:
450,202,193351,5,0,0:0:0:0:
450,202,193693,1,0,0:0:0:0:
289,44,194036,5,0,0:0:0:0:
262,139,194208,1,0,0:0:0:0:
235,233,194379,1,0,0:0:0:0:
241,254,194465,1,0,0:0:0:0:
247,275,194551,1,0,0:0:0:0:
150,157,194722,5,0,0:0:0:0:
123,251,194893,1,0,0:0:0:0:
129,272,194979,1,0,0:0:0:0:
135,293,195065,1,0,0:0:0:0:
401,26,195408,5,0,0:0:0:0:
374,121,195579,1,0,0:0:0:0:
347,215,195751,1,0,0:0:0:0:
353,236,195836,1,0,0:0:0:0:
359,257,195922,1,0,0:0:0:0:
450,202,196093,5,0,0:0:0:0:
450,202,196436,1,0,0:0:0:0:
289,360,196779,5,0,0:0:0:0:
262,265,196951,1,0,0:0:0:0:
235,171,197122,1,0,0:0:0:0:
241,150,197208,1,0,0:0:0:0:
247,129,197293,1,0,0:0:0:0:
38,229,197465,5,0,0:0:0:0:
11,135,197636,1,0,0:0:0:0:
17,114,197722,1,0,0:0:0:0:
23,93,197808,1,0,0:0:0:0:
149,276,197979,5,0,0:0:0:0:
143,241,198065,1,0,0:0:0:0:
137,207,198151,1,0,0:0:0:0:
131,172,198236,1,0,0:0:0:0:
125,138,198322,1,0,0:0:0:0:
289,360,198493,5,0,0:0:0:0:
262,265,198579,1,0,0:0:0:0:
235,171,198665,1,0,0:0:0:0:
512,62,198836,5,0,0:0:0:0:
512,62,199351,1,0,0:0:0:0:
512,62,199865,1,0,0:0:0:0:
512,62,200551,5,0,0:0:0:0:
486,161,201065,1,0,0:0:0:0:
385,356,201579,5,0,0:0:0:0:
385,356,202093,1,0,0:0:0:0:
385,356,202608,1,0,0:0:0:0:
385,356,203293,5,0,0:0:0:0:
359,257,203808,1,0,0:0:0:0:
261,72,204322,5,0,0:0:0:0:
261,72,204836,1,0,0:0:0:0:
261,72,205351,1,0,0:0:0:0:
261,72,206036,5,0,0:0:0:0:
235,171,206551,1,0,0:0:0:0:
149,276,207065,5,0,0:0:0:0:
149,276,207579,1,0,0:0:0:0:
149,276,208093,1,0,0:0:0:0:
149,276,208779,6,0,L|96:263,1,52.4999964237214
29,183,209122,6,0,P|16:125|-10:60,1,104.999996852875
106,371,209293,2,0,P|133:318|155:251,1,104.999996852875
215,53,209465,6,0,P|141:146|28:182,1,241.499977560998
315,0,209636,2,0,P|318:118|254:219,1,241.499977560998
0,345,209808,6,0,L|325:307,1,279.999980926514
449,68,210151,1,0,0:0:0:0:
512,345,210322,2,0,P|450:208|429:63,1,279.999980926514
345,384,210665,2,0,P|320:235|337:90,1,279.999980926514
512,202,211008,5,0,0:0:0:0:
278,312,211179,1,0,0:0:0:0:
299,54,211522,1,0,0:0:0:0:
512,202,211865,5,0,0:0:0:0:
278,312,212036,1,0,0:0:0:0:
299,54,212208,1,0,0:0:0:0:
512,345,212551,6,0,L|187:307,1,279.999980926514
63,68,212893,1,0,0:0:0:0:
0,345,213065,2,0,P|62:208|83:63,1,279.999980926514
167,384,213408,2,0,P|191:235|174:90,1,279.999980926514
0,202,213751,5,0,0:0:0:0:
234,312,213922,1,0,0:0:0:0:
213,54,214265,1,0,0:0:0:0:
0,202,214608,5,0,0:0:0:0:
234,312,214779,1,0,0:0:0:0:
213,54,214951,1,0,0:0:0:0:
0,345,215293,5,0,0:0:0:0:
82,80,215465,5,0,0:0:0:0:
100,178,215636,1,0,0:0:0:0:
119,277,215808,1,0,0:0:0:0:
259,348,215979,5,0,0:0:0:0:
256,32,216151,5,0,0:0:0:0:
256,128,216322,1,0,0:0:0:0:
256,224,216493,1,0,0:0:0:0:
512,345,216665,5,0,0:0:0:0:
430,80,216836,5,0,0:0:0:0:
412,178,217008,1,0,0:0:0:0:
393,277,217179,1,0,0:0:0:0:
4,232,217351,5,0,0:0:0:0:
508,232,217522,1,0,0:0:0:0:
177,140,217693,5,0,0:0:0:0:
186,189,217779,1,0,0:0:0:0:
332,140,217865,5,0,0:0:0:0:
323,189,217951,1,0,0:0:0:0:
256,224,218036,5,0,0:0:0:0:
100,178,219408,5,0,0:0:0:0:
393,277,219579,5,0,0:0:0:0:
412,178,219751,1,0,0:0:0:0:
119,277,219922,5,0,0:0:0:0:
508,232,220093,5,0,0:0:0:0:
0,345,220265,1,0,0:0:0:0:
512,345,220436,5,0,0:0:0:0:
4,232,220608,1,0,0:0:0:0:
318,23,220779,5,0,0:0:0:0:
512,345,220951,1,0,0:0:0:0:
266,217,221122,1,0,0:0:0:0:
292,120,221293,1,0,0:0:0:0:
0,345,221465,6,0,B|59:339|59:339|118:309|118:309|153:332|153:332|453:314,1,419.999971389771
456,38,221808,5,0,0:0:0:0:
119,277,221979,1,0,0:0:0:0:
482,135,222151,1,0,0:0:0:0:
508,232,222322,1,0,0:0:0:0:
16,207,222493,5,0,0:0:0:0:
405,316,222665,1,0,0:0:0:0:
145,0,222836,5,0,0:0:0:0:
16,207,223008,1,0,0:0:0:0:
343,30,223179,1,0,0:0:0:0:
244,15,223351,1,0,0:0:0:0:
405,316,223522,5,0,0:0:0:0:
4,232,223693,1,0,0:0:0:0:
367,138,223865,1,0,0:0:0:0:
429,218,224036,1,0,0:0:0:0:
79,384,224208,6,0,P|89:304|133:202,1,139.999990463257
4,232,224379,2,0,P|40:160|116:79,1,139.999990463257
455,39,224551,5,0,0:0:0:0:
496,379,224722,1,0,0:0:0:0:
399,123,224893,1,0,0:0:0:0:
429,218,225065,1,0,0:0:0:0:
351,29,225236,5,0,0:0:0:0:
305,287,225408,1,0,0:0:0:0:
132,18,225579,5,0,0:0:0:0:
208,380,225751,1,0,0:0:0:0:
208,380,225836,1,0,0:0:0:0:
208,380,225922,2,0,P|123:346|32:341,1,139.999990463257
305,287,226093,2,0,P|236:225|152:190,1,139.999990463257
0,134,226265,5,0,0:0:0:0:
30,229,226436,1,0,0:0:0:0:
132,18,226608,1,0,0:0:0:0:
60,325,226779,1,0,0:0:0:0:
252,83,226951,6,0,P|94:77|-24:-26,1,279.999980926514
237,374,227293,5,0,0:0:0:0:
512,141,227465,1,0,0:0:0:0:
336,357,227636,1,0,0:0:0:0:
435,342,227808,1,0,0:0:0:0:
400,34,227979,5,0,0:0:0:0:
457,360,228151,1,0,0:0:0:0:
349,136,228322,5,0,0:0:0:0:
336,357,228493,1,0,0:0:0:0:
272,217,228665,5,0,0:0:0:0:
226,338,228836,1,0,0:0:0:0:
0,134,229008,6,0,P|64:52|83:-3,1,139.999990463257
162,165,229179,2,0,P|176:61|165:4,1,139.999990463257
425,384,229351,6,0,P|340:343|181:349,1,209.99999370575
512,304,229522,2,0,P|458:225|318:151,1,209.99999370575
58,368,229693,6,0,B|92:274|48:307|76:202,1,157.499995279312
379,58,230036,6,0,L|130:21,1,209.99999370575
379,326,230208,2,0,L|130:363,1,209.99999370575
139,85,230379,6,0,L|425:52,1,241.499977560998
139,299,230551,2,0,L|425:332,1,241.499977560998
512,196,230722,6,0,L|438:189,1,62.9999937858584
449,190,231065,5,0,0:0:0:0:
423,235,231151,1,0,0:0:0:0:
358,293,231236,1,0,0:0:0:0:
259,324,231322,1,0,0:0:0:0:
139,299,231408,1,0,0:0:0:0:
40,199,231493,1,0,0:0:0:0:
24,43,231579,2,0,P|69:91|30:245,1,209.99999370575
73,384,231751,5,0,0:0:0:0:
139,299,231922,1,0,0:0:0:0:
501,372,232093,1,0,0:0:0:0:
106,196,232265,1,0,0:0:0:0:
383,379,232436,6,0,L|401:312,1,62.9999937858584
315,38,232779,5,0,0:0:0:0:
272,360,232951,1,0,0:0:0:0:
509,38,233122,1,0,0:0:0:0:
412,0,233293,1,0,0:0:0:0:
177,281,233465,5,0,0:0:0:0:
501,372,233636,1,0,0:0:0:0:
0,384,233808,5,0,0:0:0:0:
213,0,233979,1,0,0:0:0:0:
235,98,234151,1,0,0:0:0:0:
258,195,234322,1,0,0:0:0:0:
509,38,234493,5,0,0:0:0:0:
162,171,234665,1,0,0:0:0:0:
501,372,234836,1,0,0:0:0:0:
477,264,235008,1,0,0:0:0:0:
0,58,235179,6,0,B|47:10|47:10|208:99|160:297|54:346,1,419.999971389771
0,384,235522,5,0,0:0:0:0:
90,103,235693,1,0,0:0:0:0:
0,384,235865,1,0,0:0:0:0:
258,195,236036,5,0,0:0:0:0:
0,261,236208,1,0,0:0:0:0:
383,379,236379,1,0,0:0:0:0:
213,0,236551,5,0,0:0:0:0:
331,288,236722,2,0,P|362:228|373:128,1,139.999990463257
398,362,236893,2,0,P|447:316|492:226,3,139.999990463257
258,195,237236,5,0,0:0:0:0:
287,87,237408,1,0,0:0:0:0:
501,372,237579,1,0,0:0:0:0:
378,22,237751,1,0,0:0:0:0:
236,339,237922,6,0,P|174:316|61:315,1,139.999990463257
132,193,238093,2,0,P|66:204|-31:259,1,139.999990463257
398,362,238265,5,0,0:0:0:0:
437,253,238436,1,0,0:0:0:0:
0,261,238608,5,0,0:0:0:0:
54,115,238779,1,0,0:0:0:0:
176,18,238951,1,0,0:0:0:0:
330,0,239122,1,0,0:0:0:0:
473,61,239293,5,0,0:0:0:0:
423,328,239465,1,0,0:0:0:0:
157,278,239636,1,0,0:0:0:0:
207,10,239808,1,0,0:0:0:0:
496,59,239979,6,0,B|461:17|461:17|363:38|328:274|535:347,1,419.999971389771
477,318,240322,6,0,P|367:348|274:232,1,209.99999370575
111,28,240493,1,0,0:0:0:0:
477,318,240665,6,0,P|367:348|274:232,1,209.99999370575
111,28,240836,2,0,B|89:120|89:120|79:130|79:130|57:248,1,209.99999370575
89,355,241008,6,0,L|82:310,1,26.2499992132187
170,179,241179,6,0,P|199:278|208:398,2,209.99999370575
330,227,241693,6,0,P|309:260|289:312,1,78.7499976396561
482,342,242036,6,0,L|477:317,1,24.49999833107
512,0,242722,6,0,P|464:172|439:363,2,349.999976158142
342,381,243751,2,0,P|306:209|293:35,1,349.999976158142
441,341,244265,5,0,0:0:0:0:
342,381,244436,2,0,P|306:209|293:35,1,349.999976158142
0,276,244951,5,0,0:0:0:0:
51,358,245122,2,0,P|135:347|242:301,1,174.999988079071
443,114,245465,6,0,P|270:100|112:27,1,349.999976158142
512,0,245979,5,0,0:0:0:0:
48,186,246151,5,0,0:0:0:0:
461,344,246322,1,0,0:0:0:0:
51,358,246493,6,0,P|210:285|383:271,1,349.999976158142
293,35,247008,5,0,0:0:0:0:
461,344,247179,2,0,P|421:190|451:-4,1,349.999976158142
89,355,247693,6,0,P|103:310|138:253,1,87.4999940395356
0,231,247865,2,0,P|39:205|103:184,3,87.4999940395356
267,344,248208,6,0,P|164:291|123:28,2,349.999976158142
470,327,249065,5,0,0:0:0:0:
391,384,249236,2,0,P|340:239|321:1,1,349.999976158142
262,384,249751,5,0,0:0:0:0:
169,343,249922,2,0,P|171:189|235:-40,1,349.999976158142
449,3,250436,5,0,0:0:0:0:
371,61,250608,2,0,P|443:132|534:115,1,174.999988079071
0,95,250951,6,0,P|208:62|320:190,1,349.999976158142
470,327,251465,5,0,0:0:0:0:
449,3,251636,2,0,B|486:57|473:120|473:120|479:121|479:121|473:120|473:120|454:200|352:219,1,262.499982118607
69,344,251979,6,0,P|178:163|348:159,1,349.999976158142
470,327,252493,5,0,0:0:0:0:
54,0,252665,2,0,P|83:43|111:120,1,87.4999940395356
15,129,252836,2,0,P|10:180|-18:257,1,87.4999940395356
69,344,253008,6,0,L|550:281,1,419.999971389771
470,327,253351,2,0,L|430:148,1,139.999990463257
402,10,253522,1,0,0:0:0:0:
402,10,253608,1,0,0:0:0:0:
337,86,253693,6,0,P|211:81|-15:0,2,349.999976158142
83,277,254722,2,0,P|256:250|413:175,1,349.999976158142
512,0,255236,5,0,0:0:0:0:
309,345,255408,2,0,P|332:212|412:-11,1,349.999976158142
309,345,255922,5,0,0:0:0:0:
409,384,256093,2,0,P|449:292|502:218,1,174.999988079071
0,351,256436,6,0,P|179:313|287:130,1,349.999976158142
1,9,256951,1,0,0:0:0:0:
346,30,257122,6,0,B|316:-5|316:-5|263:19|220:122|292:207,1,262.499982118607
512,382,257465,6,0,P|353:345|164:331,1,349.999976158142
36,52,257979,5,0,0:0:0:0:
48,381,258151,2,0,P|85:275|102:96,1,262.499982118607
36,52,258493,5,0,0:0:0:0:
168,330,258665,2,0,P|220:259|249:177,2,174.999988079071
502,10,259179,6,0,B|444:30|419:74|419:74|139:19,2,349.999976158142
409,384,260036,1,0,0:0:0:0:
512,112,260208,2,0,P|478:198|462:318,2,174.999988079071
168,330,260722,5,0,0:0:0:0:
512,365,260893,2,0,L|329:283,1,174.999988079071
48,381,261236,5,0,0:0:0:0:
512,254,261408,2,0,L|329:172,2,174.999988079071
168,330,261922,6,0,P|148:218|85:121,1,209.99999370575
316,239,262265,2,0,P|259:140|167:70,1,209.99999370575
47,333,262608,5,0,0:0:0:0:
512,112,262951,1,0,0:0:0:0:
0,70,263293,6,0,P|67:43|130:-6,1,139.999990463257
130,175,263465,2,0,P|175:118|205:44,1,139.999990463257
512,225,263636,6,0,P|445:198|382:149,1,139.999990463257
382,330,263808,2,0,P|338:273|308:199,1,139.999990463257
13,186,263979,5,0,0:0:0:0:
499,341,264151,1,0,0:0:0:0:
512,112,264322,5,0,0:0:0:0:
47,333,264493,1,0,0:0:0:0:
256,32,264665,5,0,0:0:0:0:
