osu file format v14

[General]
AudioFilename: audio.mp3
AudioLeadIn: 0
PreviewTime: 193965
Countdown: 0
SampleSet: None
StackLeniency: 0.7
Mode: 2
LetterboxInBreaks: 0
WidescreenStoryboard: 0

[Editor]
Bookmarks: 8140,63188,81828,119110,157554,177360,214642,233282
DistanceSpacing: 0.5
BeatDivisor: 4
GridSize: 8
TimelineZoom: 2.5

[Metadata]
Title:Something Just Like This
TitleUnicode:Something Just Like This
Artist:The Chainsmokers & Coldplay
ArtistUnicode:The Chainsmokers & Coldplay
Creator:lulu lemon
Version:Superhuman Gift
Source:
Tags:memories do not open paris closer andrew taggart alex pall edm electronic pop electropop dancepop
BeatmapID:1571392
BeatmapSetID:745351

[Difficulty]
HPDrainRate:7
CircleSize:4.5
OverallDifficulty:9.5
ApproachRate:9.5
SliderMultiplier:1.9
SliderTickRate:2

[Events]
//Background and Video events
0,0,"Wallpaper-Space-006.jpg",0,0
//Break Periods
2,140279,157029
//Storyboard Layer 0 (Background)
//Storyboard Layer 1 (Fail)
//Storyboard Layer 2 (Pass)
//Storyboard Layer 3 (Foreground)
//Storyboard Sound Samples

[TimingPoints]
276,582.5242718447,4,2,1,20,1,0
64353,291.26213592233,4,2,1,20,1,0
65518,-83.3333333333333,4,2,1,50,0,0
84158,582.5242718447,4,2,1,20,1,0
84158,-100,4,2,1,50,0,0
119109,291.26213592233,4,2,1,20,1,0
121439,-83.3333333333333,4,2,1,20,0,0
140079,582.5242718447,4,2,1,20,1,0
177363,-100,4,2,1,50,0,0
177509,-100,4,2,1,10,0,0
177654,-100,4,2,1,50,0,0
177800,-100,4,2,1,10,0,0
177945,-100,4,2,1,50,0,0
178091,-100,4,2,1,10,0,0
178236,-100,4,2,1,50,0,0
178382,-100,4,2,1,10,0,0
178527,-100,4,2,1,50,0,0
178674,-100,4,2,1,10,0,0
178819,-100,4,2,1,50,0,0
179256,-100,4,2,1,10,0,0
179401,-100,4,2,1,50,0,0
179839,-100,4,2,1,10,0,0
179984,-100,4,2,1,50,0,0
180130,-100,4,2,1,10,0,0
180275,-100,4,2,1,50,0,0
180421,-100,4,2,1,10,0,0
180566,-100,4,2,1,50,0,0
180712,-100,4,2,1,10,0,0
180857,-100,4,2,1,50,0,0
181004,-100,4,2,1,10,0,0
181149,-100,4,2,1,50,0,0
181295,-100,4,2,1,10,0,0
181440,-100,4,2,1,50,0,0
181877,-100,4,2,1,10,0,0
182022,-100,4,2,1,50,0,0
182169,-100,4,2,1,10,0,0
182314,-100,4,2,1,50,0,0
182460,-100,4,2,1,10,0,0
182605,-100,4,2,1,50,0,0
182751,-100,4,2,1,10,0,0
182896,-100,4,2,1,50,0,0
183042,-100,4,2,1,10,0,0
183187,-100,4,2,1,50,0,0
183334,-100,4,2,1,10,0,0
183479,-100,4,2,1,50,0,0
184499,-100,4,2,1,10,0,0
184644,-100,4,2,1,50,0,0
185664,-100,4,2,1,10,0,0
185809,-100,4,2,1,50,0,0
186829,-100,4,2,1,10,0,0
186974,-100,4,2,1,50,0,0
187120,-100,4,2,1,10,0,0
187265,-100,4,2,1,50,0,0
187411,-100,4,2,1,10,0,0
187556,-100,4,2,1,50,0,0
187703,-100,4,2,1,10,0,0
187848,-100,4,2,1,50,0,0
187994,-100,4,2,1,10,0,0
188139,-100,4,2,1,50,0,0
188576,-100,4,2,1,10,0,0
188721,-100,4,2,1,50,0,0
189450,-100,4,2,1,10,0,0
189595,-100,4,2,1,50,0,0
189742,-100,4,2,1,10,0,0
189887,-100,4,2,1,50,0,0
190033,-100,4,2,1,10,0,0
190178,-100,4,2,1,50,0,0
190324,-100,4,2,1,10,0,0
190469,-100,4,2,1,50,0,0
190615,-100,4,2,1,10,0,0
190760,-100,4,2,1,50,0,0
191343,-100,4,2,1,50,0,0
191489,-100,4,2,1,10,0,0
191634,-100,4,2,1,50,0,0
191780,-100,4,2,1,10,0,0
191925,-100,4,2,1,50,0,0
192072,-100,4,2,1,10,0,0
192217,-100,4,2,1,50,0,0
192363,-100,4,2,1,10,0,0
192508,-100,4,2,1,50,0,0
192800,-100,4,2,1,55,0,0
193091,-100,4,2,1,60,0,0
193382,-100,4,2,1,65,0,0
193674,-100,4,2,1,70,0,0
193962,291.26213592233,4,2,1,20,1,0
193965,-83.3333333333333,4,2,1,75,0,0
194256,-83.3333333333333,4,2,1,80,0,0
194547,-83.3333333333333,4,2,1,85,0,0
194839,-83.3333333333333,4,2,1,90,0,0

[Colours]
Combo1 : 64,223,100
Combo2 : 105,176,255
Combo3 : 148,236,138
Combo4 : 63,119,252

[HitObjects]
152,120,7994,6,0,L|144:184,1,47.5
296,64,8431,1,0,0:0:0:0:
365,125,8722,1,0,0:0:0:0:
376,217,9013,1,0,0:0:0:0:
323,293,9304,1,0,0:0:0:0:
160,288,9596,2,0,P|96:248|176:216,1,190
344,264,10470,1,0,0:0:0:0:
152,120,10761,6,0,L|136:224,1,95
272,176,11343,1,0,0:0:0:0:
128,184,11635,1,0,0:0:0:0:
320,168,11926,2,0,B|448:168|448:168|472:264,1,190
184,120,12800,2,0,L|176:136,1,15.8333333333333
336,56,13091,5,0,0:0:0:0:
421,91,13382,1,0,0:0:0:0:
454,177,13673,1,0,0:0:0:0:
415,261,13964,1,0,0:0:0:0:
328,296,14256,2,0,P|400:280|328:216,1,190
184,120,15130,2,0,L|176:136,1,15.8333333333333
336,56,15421,5,0,0:0:0:0:
421,91,15712,1,0,0:0:0:0:
454,177,16003,1,0,0:0:0:0:
304,184,16294,1,0,0:0:0:0:
456,192,16586,2,0,B|328:192|328:192|392:144,1,190
234,133,17460,1,0,0:0:0:0:
413,111,17751,6,0,L|285:110,1,95
433,160,18334,1,0,0:0:0:0:
243,168,18625,1,0,0:0:0:0:
400,159,18916,2,0,P|441:124|389:89,1,95
335,125,19353,2,0,L|452:128,1,95
430,69,19790,1,0,0:0:0:0:
242,64,20081,5,0,0:0:0:0:
155,96,20372,1,0,0:0:0:0:
124,182,20663,1,0,0:0:0:0:
170,262,20954,1,0,0:0:0:0:
347,244,21246,2,0,L|241:240,1,95
308,180,21683,2,0,L|405:183,1,95
403,116,22120,1,0,0:0:0:0:
109,116,22703,5,0,0:0:0:0:
239,115,22994,2,0,L|367:114,1,95
193,174,23576,1,0,0:0:0:0:
279,188,23868,1,0,0:0:0:0:
135,253,24159,1,0,0:0:0:0:
266,270,24450,1,0,0:0:0:0:
97,243,24742,2,0,L|95:142,1,95
297,186,25324,2,0,L|186:189,1,95
368,163,25907,2,0,P|403:130|338:76,1,142.5
273,77,26489,6,0,P|238:110|278:142,1,95
386,209,27072,2,0,L|481:221,2,95
223,204,27945,1,0,0:0:0:0:
448,53,28237,6,0,P|471:146|425:251,1,190
243,246,29110,1,0,0:0:0:0:
429,235,29402,2,0,L|454:120,1,95
277,197,29984,2,0,L|379:153,1,95
213,126,30567,2,0,B|86:129|86:129|121:158,1,142.5
183,180,31149,6,0,L|302:178,1,95
136,69,31732,1,0,0:0:0:0:
215,115,32023,1,0,0:0:0:0:
239,205,32314,1,0,0:0:0:0:
192,285,32605,1,0,0:0:0:0:
380,287,32897,6,0,L|401:185,1,95
256,159,33479,1,0,0:0:0:0:
426,168,33771,1,0,0:0:0:0:
277,120,34062,2,0,L|254:239,1,95
430,228,34644,2,0,L|330:224,1,95
115,167,35227,6,0,P|52:185|131:201,1,190
346,211,36101,1,0,0:0:0:0:
173,216,36392,2,0,L|155:103,1,95
311,90,36975,2,0,L|426:91,1,95
171,63,37557,5,0,0:0:0:0:
95,113,37848,1,0,0:0:0:0:
101,203,38139,1,0,0:0:0:0:
297,245,38430,1,0,0:0:0:0:
173,201,38722,2,0,L|156:90,1,95
302,195,39305,2,0,L|424:188,1,95
214,66,39887,5,0,0:0:0:0:
101,138,40178,1,0,0:0:0:0:
247,157,40470,1,0,0:0:0:0:
116,168,40761,1,0,0:0:0:0:
336,171,41052,2,0,L|368:63,1,95
200,110,41635,2,0,L|81:107,1,95
326,95,42217,2,0,L|329:205,1,95
287,191,42654,1,0,0:0:0:0:
80,64,43091,5,0,0:0:0:0:
170,78,43382,1,0,0:0:0:0:
210,160,43673,1,0,0:0:0:0:
165,240,43964,1,0,0:0:0:0:
74,249,44256,1,0,0:0:0:0:
284,248,44547,2,0,L|296:231,1,11.875
68,70,45130,5,0,0:0:0:0:
167,98,45421,1,0,0:0:0:0:
277,83,45712,1,0,0:0:0:0:
117,124,46004,1,0,0:0:0:0:
246,126,46295,1,0,0:0:0:0:
65,130,46586,1,0,0:0:0:0:
418,74,46877,5,0,0:0:0:0:
419,75,47169,1,0,0:0:0:0:
422,72,47460,1,0,0:0:0:0:
427,140,47751,5,0,0:0:0:0:
283,141,47897,1,0,0:0:0:0:
165,141,48042,1,0,0:0:0:0:
165,141,48334,1,0,0:0:0:0:
283,141,48479,1,0,0:0:0:0:
427,140,48625,1,0,0:0:0:0:
424,95,48916,1,0,0:0:0:0:
226,96,49208,5,0,0:0:0:0:
147,152,49499,1,0,0:0:0:0:
274,194,49790,1,0,0:0:0:0:
154,253,50081,1,0,0:0:0:0:
272,253,50226,1,0,0:0:0:0:
395,253,50373,1,0,0:0:0:0:
394,239,50664,5,0,0:0:0:0:
271,239,50809,1,0,0:0:0:0:
153,239,50956,1,0,0:0:0:0:
271,239,51101,1,0,0:0:0:0:
153,223,51246,2,0,L|150:138,1,47.5
460,95,51538,5,0,0:0:0:0:
446,149,51829,1,0,0:0:0:0:
424,214,52120,1,0,0:0:0:0:
252,216,52411,5,0,0:0:0:0:
371,220,52557,1,0,0:0:0:0:
252,216,52703,1,0,0:0:0:0:
420,117,52994,1,0,0:0:0:0:
301,121,53140,1,0,0:0:0:0:
420,117,53286,1,0,0:0:0:0:
408,132,53576,1,0,0:0:0:0:
104,132,53868,5,0,0:0:0:0:
232,116,54159,1,0,0:0:0:0:
81,129,54450,2,0,L|78:249,1,95
262,181,55033,2,0,L|146:177,1,95
326,166,55615,2,0,L|438:164,1,95
60,78,56198,5,0,0:0:0:0:
59,81,56489,1,0,0:0:0:0:
59,82,56780,1,0,0:0:0:0:
90,163,57072,1,0,0:0:0:0:
208,163,57217,1,0,0:0:0:0:
331,163,57364,1,0,0:0:0:0:
211,222,57654,5,0,0:0:0:0:
350,225,57800,1,0,0:0:0:0:
211,222,57946,1,0,0:0:0:0:
423,165,58237,1,0,0:0:0:0:
60,78,58528,5,0,0:0:0:0:
59,81,58819,1,0,0:0:0:0:
59,82,59110,1,0,0:0:0:0:
228,151,59402,5,0,0:0:0:0:
109,155,59548,1,0,0:0:0:0:
228,151,59694,1,0,0:0:0:0:
393,162,59984,5,0,0:0:0:0:
274,166,60130,1,0,0:0:0:0:
393,162,60276,1,0,0:0:0:0:
274,166,60421,1,0,0:0:0:0:
443,169,60567,2,0,L|446:88,1,47.5
86,86,60858,5,0,0:0:0:0:
89,106,61149,1,0,0:0:0:0:
245,72,61441,1,0,0:0:0:0:
242,123,61732,1,0,0:0:0:0:
408,96,62023,5,0,0:0:0:0:
408,150,62314,1,0,0:0:0:0:
142,109,62606,1,0,0:0:0:0:
140,141,62897,1,0,0:0:0:0:
322,152,63188,5,0,0:0:0:0:
114,169,63479,2,0,L|113:45,1,95
331,105,64062,1,0,0:0:0:0:
124,120,64353,5,0,0:0:0:0:
388,123,64498,2,0,L|401:191,2,47.5
118,126,64789,1,0,0:0:0:0:
434,124,64935,1,0,0:0:0:0:
349,134,65081,1,0,0:0:0:0:
435,147,65226,1,0,0:0:0:0:
350,157,65372,1,0,0:0:0:0:
95,51,65518,6,0,B|99:330|99:330|93:229,1,341.999989562989
386,38,66100,2,0,L|461:170,1,113.999996520996
187,107,66391,2,0,L|50:105,1,113.999996520996
417,51,66683,6,0,B|413:330|413:330|416:218,1,341.999989562989
167,138,67265,2,0,L|18:116,1,113.999996520996
278,230,67556,2,0,L|113:216,1,113.999996520996
411,39,67848,6,0,P|478:84|369:285,1,341.999989562989
88,63,68430,2,0,L|81:220,1,113.999996520996
298,190,68721,2,0,L|176:179,1,113.999996520996
399,75,69013,2,0,L|427:204,1,113.999996520996
171,88,69304,2,0,L|37:87,1,113.999996520996
282,139,69595,2,0,L|136:136,1,113.999996520996
375,65,69886,2,0,L|506:72,1,113.999996520996
54,26,70178,6,0,L|56:372,1,341.999989562989
461,132,70760,2,0,L|317:116,1,113.999996520996
39,134,71052,2,0,L|160:123,1,113.999996520996
419,27,71343,6,0,L|430:368,1,341.999989562989
168,114,71925,2,0,L|26:109,1,113.999996520996
400,109,72217,2,0,L|400:244,1,113.999996520996
129,53,72508,2,0,P|46:88|159:241,1,341.999989562989
423,64,73090,6,0,L|463:209,1,113.999996520996
193,139,73382,2,0,L|65:145,1,113.999996520996
411,136,73673,1,0,0:0:0:0:
156,142,73819,2,0,L|103:188,2,56.9999982604981
404,136,74110,1,0,0:0:0:0:
64,71,74255,2,0,L|63:194,1,113.999996520996
290,150,74547,2,0,L|161:149,1,113.999996520996
455,31,74838,6,0,L|469:386,1,341.999989562989
147,92,75420,2,0,L|12:90,1,113.999996520996
360,94,75712,2,0,L|496:86,1,113.999996520996
135,51,76003,2,0,P|80:105|177:319,1,341.999989562989
441,229,76586,2,0,L|440:95,1,113.999996520996
235,178,76877,2,0,L|364:125,1,113.999996520996
106,41,77168,6,0,P|63:81|179:327,1,341.999989562989
456,112,77751,2,0,L|328:128,1,113.999996520996
89,121,78042,2,0,L|117:261,1,113.999996520996
421,96,78333,2,0,L|451:222,1,113.999996520996
238,181,78624,2,0,L|383:172,1,113.999996520996
148,133,78916,2,0,L|23:137,1,113.999996520996
364,140,79207,2,0,L|491:135,1,113.999996520996
156,55,79498,6,0,P|81:82|169:262,1,341.999989562989
434,110,80081,2,0,L|446:242,1,113.999996520996
138,109,80372,2,0,L|124:232,1,113.999996520996
374,49,80663,6,0,P|446:75|310:173,1,341.999989562989
74,69,81246,2,0,L|65:200,1,113.999996520996
439,73,81537,2,0,L|440:197,1,113.999996520996
99,37,81828,2,0,L|85:378,1,341.999989562989
381,70,82411,6,0,L|434:190,1,113.999996520996
215,77,82702,2,0,L|168:199,1,113.999996520996
339,83,82993,2,0,L|354:217,1,113.999996520996
275,87,83285,2,0,L|276:210,1,113.999996520996
346,233,83576,1,0,0:0:0:0:
246,165,83867,1,0,0:0:0:0:
451,153,84158,6,0,L|460:50,1,95
263,84,84740,1,0,0:0:0:0:
445,156,85031,2,0,L|330:155,1,95
158,195,85614,2,0,L|267:192,1,95
118,120,86196,1,0,0:0:0:0:
397,84,86488,6,0,P|464:98|387:118,1,190
223,102,87361,1,0,0:0:0:0:
408,61,87653,1,0,0:0:0:0:
479,116,87944,1,0,0:0:0:0:
465,205,88235,1,0,0:0:0:0:
379,235,88526,1,0,0:0:0:0:
92,100,88818,6,0,P|51:134|135:249,1,190
268,223,89691,1,0,0:0:0:0:
115,134,89983,1,0,0:0:0:0:
258,114,90274,1,0,0:0:0:0:
151,78,90565,1,0,0:0:0:0:
335,70,90857,1,0,0:0:0:0:
63,60,91148,6,0,L|39:290,1,190
249,210,92022,1,0,0:0:0:0:
58,211,92313,2,0,L|62:110,1,95
219,148,92895,1,0,0:0:0:0:
77,151,93187,1,0,0:0:0:0:
377,105,93478,6,0,P|411:141|363:269,1,190
187,271,94352,1,0,0:0:0:0:
408,278,94643,2,0,L|417:157,1,95
256,198,95225,1,0,0:0:0:0:
120,202,95517,1,0,0:0:0:0:
316,78,95808,2,0,P|371:84|290:216,1,285
99,87,97701,6,0,L|94:175,1,47.5
253,79,98138,1,0,0:0:0:0:
245,118,98429,1,0,0:0:0:0:
414,69,98721,1,0,0:0:0:0:
389,135,99012,1,0,0:0:0:0:
192,81,99303,2,0,L|212:202,1,95
425,100,99886,1,0,0:0:0:0:
459,156,100177,1,0,0:0:0:0:
114,115,100468,2,0,L|121:131,1,11.875
342,126,101051,5,0,0:0:0:0:
156,120,101342,1,0,0:0:0:0:
340,63,101633,1,0,0:0:0:0:
419,105,101924,1,0,0:0:0:0:
338,188,102215,1,0,0:0:0:0:
487,239,102506,1,0,0:0:0:0:
111,92,102798,6,0,L|106:176,1,47.5
215,94,103090,2,0,L|210:163,1,47.5
433,95,103381,2,0,L|426:159,1,47.5
301,112,103672,2,0,L|433:115,1,95
211,143,104255,2,0,L|338:140,1,95
120,91,104837,1,0,0:0:0:0:
378,67,105128,6,0,P|424:76|370:107,1,142.5
276,120,105711,2,0,L|198:118,1,47.5
94,125,106002,2,0,L|91:186,1,47.5
363,116,106293,2,0,L|336:166,1,47.5
199,121,106585,2,0,L|225:184,1,47.5
368,122,106876,2,0,L|398:194,1,47.5
104,95,107167,2,0,L|1:160,1,95
289,122,107750,1,0,0:0:0:0:
125,114,108041,2,0,L|114:226,1,95
410,121,108624,6,0,L|427:200,1,47.5
274,125,108915,2,0,L|289:190,1,47.5
153,133,109206,2,0,L|201:176,1,47.5
378,126,109497,2,0,L|367:196,1,47.5
185,76,109789,6,0,P|129:119|206:196,1,190
448,152,110662,1,0,0:0:0:0:
271,129,110954,2,0,L|253:205,1,47.5
350,131,111245,2,0,L|413:130,1,47.5
119,60,111536,2,0,P|75:107|150:155,1,142.5
446,79,112119,6,0,L|471:145,1,47.5
341,84,112410,2,0,L|279:84,1,47.5
189,141,112701,2,0,L|164:207,1,47.5
294,146,112992,2,0,L|356:146,1,47.5
127,48,113284,5,0,0:0:0:0:
82,56,113429,1,0,0:0:0:0:
62,97,113575,1,0,0:0:0:0:
84,138,113720,1,0,0:0:0:0:
194,149,113866,2,0,L|261:152,1,47.5
131,169,114157,2,0,L|75:169,1,47.5
445,126,114449,6,0,L|462:181,1,47.5
323,131,114740,2,0,L|321:199,1,47.5
190,178,115031,2,0,L|189:131,1,47.5
52,171,115322,2,0,L|67:126,1,47.5
320,57,115614,5,0,0:0:0:0:
363,62,115759,1,0,0:0:0:0:
362,106,115905,1,0,0:0:0:0:
319,111,116050,1,0,0:0:0:0:
214,186,116196,1,0,0:0:0:0:
261,186,116341,1,0,0:0:0:0:
309,186,116487,1,0,0:0:0:0:
356,186,116632,1,0,0:0:0:0:
101,92,116779,6,0,L|93:154,1,47.5
226,96,117070,2,0,L|296:94,1,47.5
101,92,117361,2,0,L|93:154,1,47.5
273,94,117652,2,0,L|226:96,1,47.5
459,75,117944,6,0,L|469:141,1,47.5
331,112,118235,2,0,L|269:111,1,47.5
158,109,118526,2,0,L|136:161,1,47.5
295,160,118818,2,0,L|242:159,1,47.5
440,60,119109,2,0,L|451:350,1,285
115,88,119691,6,0,L|102:212,1,95
377,123,119982,2,0,L|499:124,1,95
107,120,120273,1,0,0:0:0:0:
415,111,120419,2,0,L|447:152,2,47.5
107,120,120710,1,0,0:0:0:0:
436,97,120856,2,0,L|436:224,1,95
225,163,121147,2,0,L|354:158,1,95
88,46,121439,6,0,L|82:301,1,227.999993041992
185,276,121875,1,0,0:0:0:0:
398,212,122021,2,0,L|497:127,1,113.999996520996
215,173,122312,2,0,L|87:179,1,113.999996520996
424,47,122603,6,0,P|461:121|390:275,1,227.999993041992
327,259,123040,1,0,0:0:0:0:
82,65,123186,2,0,L|75:223,1,113.999996520996
315,140,123477,2,0,L|158:138,1,113.999996520996
464,22,123769,2,0,L|481:370,1,341.999989562989
156,126,124351,6,0,L|21:125,1,113.999996520996
296,179,124642,2,0,L|151:179,1,113.999996520996
445,70,124933,2,0,L|474:201,1,113.999996520996
244,148,125225,2,0,L|114:147,1,113.999996520996
360,141,125516,2,0,L|502:138,1,113.999996520996
203,99,125807,1,0,0:0:0:0:
313,100,125953,1,0,0:0:0:0:
85,50,126098,6,0,L|75:294,1,227.999993041992
177,277,126535,1,0,0:0:0:0:
407,174,126681,2,0,L|509:92,1,113.999996520996
151,155,126972,2,0,L|19:149,1,113.999996520996
401,47,127263,6,0,P|462:108|364:178,1,227.999993041992
284,182,127700,1,0,0:0:0:0:
50,82,127846,2,0,L|42:235,1,113.999996520996
254,82,128137,2,0,L|255:222,1,113.999996520996
467,67,128429,6,0,L|468:312,1,227.999993041992
367,296,128866,1,0,0:0:0:0:
124,116,129011,2,0,L|25:212,1,113.999996520996
383,121,129303,2,0,L|503:120,1,113.999996520996
88,121,129594,1,0,0:0:0:0:
218,120,129740,2,0,L|264:176,2,56.9999982604981
88,121,130031,1,0,0:0:0:0:
408,66,130176,6,0,L|437:97,1,28.4999991302491
338,97,130322,6,0,L|350:138,1,28.4999991302491
263,100,130468,6,0,L|253:145,1,28.4999991302491
189,91,130613,6,0,L|154:124,1,28.4999991302491
424,52,130759,6,0,P|479:103|388:233,1,227.999993041992
333,232,131196,1,0,0:0:0:0:
91,84,131342,2,0,L|58:200,1,113.999996520996
340,92,131633,2,0,L|366:211,1,113.999996520996
116,48,131924,6,0,P|53:84|156:166,1,227.999993041992
218,180,132361,1,0,0:0:0:0:
450,105,132507,2,0,L|311:104,1,113.999996520996
81,98,132798,2,0,L|78:230,1,113.999996520996
404,43,133089,6,0,P|475:72|377:243,1,341.999989562989
116,85,133672,2,0,L|79:220,1,113.999996520996
363,108,133963,2,0,L|482:104,1,113.999996520996
125,99,134254,2,0,L|98:224,1,113.999996520996
306,165,134545,2,0,L|174:172,1,113.999996520996
460,83,134837,2,0,L|463:232,1,113.999996520996
202,123,135128,2,0,L|76:137,1,113.999996520996
431,49,135419,6,0,L|439:323,1,227.999993041992
335,278,135856,1,0,0:0:0:0:
49,76,136002,2,0,L|39:234,1,113.999996520996
245,72,136293,2,0,L|245:213,1,113.999996520996
461,47,136584,6,0,P|503:124|431:269,1,227.999993041992
359,256,137021,1,0,0:0:0:0:
156,107,137167,2,0,L|15:110,1,113.999996520996
284,178,137458,2,0,L|134:183,1,113.999996520996
422,48,137749,6,0,P|457:139|466:180,1,113.999996520996
168,57,138041,2,0,P|114:96|82:173,1,113.999996520996
330,101,138332,2,0,L|473:92,1,113.999996520996
147,106,138623,2,0,L|107:240,1,113.999996520996
428,136,138914,1,0,0:0:0:0:
155,116,139060,2,0,L|118:189,2,56.9999982604981
415,120,139351,1,0,0:0:0:0:
176,58,139497,5,0,0:0:0:0:
90,125,139642,1,0,0:0:0:0:
106,233,139788,1,0,0:0:0:0:
207,274,139933,1,0,0:0:0:0:
435,202,140079,5,0,0:0:0:0:
213,65,157554,5,0,0:0:0:0:
296,136,157845,1,0,0:0:0:0:
223,208,158137,1,0,0:0:0:0:
87,215,158428,1,0,0:0:0:0:
439,243,158719,6,0,L|455:43,1,190
240,114,159593,1,0,0:0:0:0:
439,87,159884,2,0,L|438:203,1,95
271,153,160467,2,0,L|166:155,1,95
376,73,161049,2,0,P|425:120|356:141,1,142.5
299,153,161632,5,0,0:0:0:0:
277,81,161923,1,0,0:0:0:0:
98,102,162214,1,0,0:0:0:0:
265,144,162506,1,0,0:0:0:0:
145,213,162797,1,0,0:0:0:0:
430,172,163088,1,0,0:0:0:0:
71,201,163379,6,0,L|59:71,1,95
431,229,163962,2,0,L|443:107,1,95
236,62,164545,1,0,0:0:0:0:
152,89,164836,1,0,0:0:0:0:
159,177,165127,1,0,0:0:0:0:
351,191,165418,1,0,0:0:0:0:
109,67,165710,6,0,P|70:109|149:226,1,190
399,166,166583,1,0,0:0:0:0:
202,88,166875,1,0,0:0:0:0:
309,146,167166,1,0,0:0:0:0:
169,188,167457,1,0,0:0:0:0:
439,162,167748,1,0,0:0:0:0:
66,78,168040,6,0,L|56:287,1,190
297,205,168913,1,0,0:0:0:0:
82,222,169205,2,0,L|85:93,1,95
278,166,169787,1,0,0:0:0:0:
64,167,170079,1,0,0:0:0:0:
477,42,170370,6,0,L|485:254,1,190
298,163,171244,1,0,0:0:0:0:
69,173,171535,2,0,L|203:174,1,95
390,171,172117,2,0,L|498:158,1,95
169,95,172700,6,0,L|65:112,1,95
153,148,173137,1,0,0:0:0:0:
424,119,173574,1,0,0:0:0:0:
67,72,173865,6,0,L|66:194,1,95
237,136,174447,1,0,0:0:0:0:
54,144,174739,1,0,0:0:0:0:
413,135,175030,2,0,L|430:129,1,11.875
223,57,175612,5,0,0:0:0:0:
144,99,175903,1,0,0:0:0:0:
159,186,176194,1,0,0:0:0:0:
246,201,176485,1,0,0:0:0:0:
120,216,176778,1,0,0:0:0:0:
373,153,177069,1,0,0:0:0:0:
87,63,177360,6,0,L|84:137,1,47.5
194,66,177651,2,0,L|189:117,1,47.5
295,68,177943,2,0,L|291:131,1,47.5
182,88,178234,2,0,L|124:88,1,47.5
281,76,178525,2,0,L|280:129,1,47.5
135,150,178816,1,0,0:0:0:0:
364,97,179108,6,0,L|300:99,1,47.5
195,105,179399,1,0,0:0:0:0:
475,84,179690,6,0,L|472:147,1,47.5
359,119,179981,2,0,L|306:119,1,47.5
193,120,180273,2,0,L|129:115,1,47.5
292,163,180564,2,0,L|351:161,1,47.5
187,165,180855,2,0,L|135:191,1,47.5
261,175,181146,2,0,L|316:173,1,47.5
179,156,181438,1,0,0:0:0:0:
383,103,181729,2,0,L|435:101,1,47.5
80,88,182020,6,0,L|66:153,1,47.5
179,93,182312,2,0,L|165:150,1,47.5
292,95,182603,2,0,L|268:144,1,47.5
392,106,182894,2,0,L|461:115,1,47.5
276,113,183185,2,0,L|234:168,1,47.5
478,118,183477,5,0,0:0:0:0:
485,150,183768,1,0,0:0:0:0:
484,151,184059,1,0,0:0:0:0:
282,152,184350,6,0,L|343:154,1,47.5
476,143,184642,1,0,0:0:0:0:
471,119,184933,1,0,0:0:0:0:
240,120,185224,5,0,0:0:0:0:
430,150,185515,2,0,L|357:149,1,47.5
238,145,185807,1,0,0:0:0:0:
430,96,186098,1,0,0:0:0:0:
424,98,186389,1,0,0:0:0:0:
74,62,186680,6,0,L|76:128,1,47.5
197,94,186972,2,0,L|266:93,1,47.5
88,112,187263,2,0,L|86:172,1,47.5
210,159,187554,2,0,L|280:156,1,47.5
418,116,187845,2,0,L|361:118,1,47.5
206,123,188137,5,0,0:0:0:0:
418,116,188428,2,0,L|361:118,1,47.5
206,123,188720,1,0,0:0:0:0:
201,151,189011,1,0,0:0:0:0:
445,106,189302,6,0,L|383:108,1,47.5
283,111,189593,2,0,L|231:109,1,47.5
93,117,189884,2,0,L|155:112,1,47.5
292,121,190176,2,0,L|344:124,1,47.5
197,132,190467,2,0,L|149:180,1,47.5
279,175,190758,5,0,0:0:0:0:
76,138,191049,1,0,0:0:0:0:
432,83,191341,6,0,L|433:148,1,47.5
307,92,191632,2,0,L|282:140,1,47.5
101,90,191923,2,0,L|100:155,1,47.5
214,99,192214,2,0,L|239:147,1,47.5
68,82,192506,6,0,L|58:161,1,47.5
226,81,192797,2,0,L|240:134,1,47.5
64,85,193088,2,0,L|51:139,1,47.5
345,87,193379,2,0,L|361:142,1,47.5
263,104,193671,2,0,L|192:103,1,47.5
389,78,193962,6,0,L|431:198,1,95
79,76,194253,2,0,L|23:199,1,113.999996520996
351,98,194544,2,0,L|480:198,1,113.999996520996
82,107,194835,1,0,0:0:0:0:
400,104,194981,2,0,L|448:163,2,56.9999982604981
119,93,195272,1,0,0:0:0:0:
408,66,195418,6,0,L|437:97,1,28.4999991302491
156,163,195564,6,0,L|168:204,1,28.4999991302491
409,175,195710,6,0,L|399:220,1,28.4999991302491
115,52,195855,6,0,L|80:85,1,28.4999991302491
444,55,196000,6,0,L|451:181,1,113.999996520996
198,159,196292,1,0,0:0:0:0:
447,175,196437,1,0,0:0:0:0:
194,152,196583,2,0,L|112:54,1,113.999996520996
448,115,196874,2,0,L|334:112,1,113.999996520996
65,49,197165,6,0,L|64:183,1,113.999996520996
271,168,197457,1,0,0:0:0:0:
67,189,197602,1,0,0:0:0:0:
437,73,197748,2,0,L|437:200,1,113.999996520996
215,156,198039,2,0,L|342:159,1,113.999996520996
53,58,198330,6,0,L|54:180,1,113.999996520996
284,160,198622,1,0,0:0:0:0:
66,193,198767,1,0,0:0:0:0:
351,87,198913,6,0,L|473:84,1,113.999996520996
131,167,199204,2,0,L|8:176,1,113.999996520996
414,108,199495,2,0,L|438:234,1,113.999996520996
233,151,199787,2,0,L|352:150,1,113.999996520996
92,85,200078,2,0,L|74:212,1,113.999996520996
293,106,200369,2,0,L|180:106,1,113.999996520996
462,58,200661,6,0,L|474:202,1,113.999996520996
231,190,200952,1,0,0:0:0:0:
472,189,201097,1,0,0:0:0:0:
170,108,201243,2,0,L|31:102,1,113.999996520996
293,195,201534,2,0,L|150:189,1,113.999996520996
445,62,201826,6,0,L|444:199,1,113.999996520996
235,212,202117,1,0,0:0:0:0:
448,208,202262,1,0,0:0:0:0:
170,157,202408,2,0,L|85:60,1,113.999996520996
365,140,202699,2,0,L|504:137,1,113.999996520996
92,49,202991,6,0,P|47:102|144:328,1,341.999989562989
468,73,203573,2,0,L|473:238,1,113.999996520996
254,67,203864,2,0,L|255:231,1,113.999996520996
30,88,204156,1,0,0:0:0:0:
402,87,204301,2,0,L|398:174,2,56.9999982604981
309,89,204593,1,0,0:0:0:0:
438,72,204738,2,0,L|431:208,1,113.999996520996
223,167,205029,2,0,L|339:164,1,113.999996520996
51,59,205321,6,0,L|53:197,1,113.999996520996
189,177,205612,1,0,0:0:0:0:
322,175,205758,1,0,0:0:0:0:
70,65,205903,2,0,L|192:64,1,113.999996520996
478,140,206195,2,0,L|326:140,1,113.999996520996
63,60,206486,6,0,L|60:192,1,113.999996520996
274,174,206777,1,0,0:0:0:0:
74,178,206923,1,0,0:0:0:0:
398,76,207068,2,0,L|400:242,1,113.999996520996
174,134,207360,2,0,L|40:123,1,113.999996520996
463,49,207651,6,0,L|464:194,1,113.999996520996
355,166,207942,1,0,0:0:0:0:
244,165,208088,1,0,0:0:0:0:
461,46,208233,6,0,L|470:177,1,113.999996520996
235,106,208525,2,0,L|364:106,1,113.999996520996
138,168,208816,2,0,L|0:166,1,113.999996520996
404,58,209107,2,0,L|415:197,1,113.999996520996
73,56,209398,2,0,L|49:183,1,113.999996520996
289,137,209690,2,0,L|173:137,1,113.999996520996
456,56,209981,6,0,L|456:184,1,113.999996520996
230,174,210272,1,0,0:0:0:0:
459,197,210418,1,0,0:0:0:0:
169,89,210563,2,0,L|51:155,1,113.999996520996
451,95,210855,2,0,L|339:190,1,113.999996520996
62,55,211146,6,0,L|70:214,1,113.999996520996
188,176,211437,1,0,0:0:0:0:
316,179,211583,1,0,0:0:0:0:
53,51,211728,2,0,L|43:183,1,113.999996520996
368,107,212020,2,0,L|498:52,1,113.999996520996
64,57,212311,6,0,L|61:198,1,113.999996520996
336,185,212602,1,0,0:0:0:0:
73,196,212748,1,0,0:0:0:0:
367,103,212894,2,0,L|496:85,1,113.999996520996
226,177,213185,2,0,L|370:163,1,113.999996520996
56,112,213476,1,0,0:0:0:0:
352,116,213622,2,0,L|425:114,2,56.9999982604981
63,120,213913,1,0,0:0:0:0:
408,66,214059,6,0,L|437:97,1,28.4999991302491
338,97,214205,6,0,L|350:138,1,28.4999991302491
263,100,214351,6,0,L|253:145,1,28.4999991302491
189,91,214496,6,0,L|154:124,1,28.4999991302491
447,58,214641,6,0,L|443:223,1,113.999996520996
325,169,214932,1,0,0:0:0:0:
210,171,215078,1,0,0:0:0:0:
456,52,215224,2,0,L|464:205,1,113.999996520996
91,59,215515,2,0,L|73:176,1,113.999996520996
460,124,215806,5,0,0:0:0:0:
346,129,215951,1,0,0:0:0:0:
460,124,216097,1,0,0:0:0:0:
346,129,216242,1,0,0:0:0:0:
52,124,216389,5,0,0:0:0:0:
165,129,216534,1,0,0:0:0:0:
52,124,216680,1,0,0:0:0:0:
165,129,216825,1,0,0:0:0:0:
458,55,216971,6,0,L|442:187,1,113.999996520996
212,171,217262,1,0,0:0:0:0:
444,186,217408,1,0,0:0:0:0:
98,55,217554,2,0,L|71:174,1,113.999996520996
302,149,217845,2,0,L|171:145,1,113.999996520996
460,63,218136,6,0,L|373:144,3,113.999996520996
73,66,218719,2,0,L|48:212,1,113.999996520996
442,60,219010,2,0,L|460:214,1,113.999996520996
76,62,219301,6,0,L|78:191,1,113.999996520996
211,182,219593,1,0,0:0:0:0:
335,183,219738,1,0,0:0:0:0:
76,56,219884,6,0,L|21:196,1,113.999996520996
294,133,220175,2,0,L|147:136,1,113.999996520996
433,56,220466,5,0,0:0:0:0:
342,115,220611,1,0,0:0:0:0:
356,222,220757,1,0,0:0:0:0:
459,255,220902,1,0,0:0:0:0:
79,56,221049,5,0,0:0:0:0:
169,115,221194,1,0,0:0:0:0:
155,222,221340,1,0,0:0:0:0:
52,255,221485,1,0,0:0:0:0:
448,83,221631,6,0,L|290:129,3,113.999996520996
51,56,222214,2,0,L|53:182,1,113.999996520996
298,160,222505,2,0,L|163:156,1,113.999996520996
404,56,222796,1,0,0:0:0:0:
456,62,222868,1,0,0:0:0:0:
461,114,222941,1,0,0:0:0:0:
411,131,223014,1,0,0:0:0:0:
147,99,223088,6,0,L|17:114,1,113.999996520996
294,163,223379,2,0,L|148:176,1,113.999996520996
479,239,223670,2,0,L|336:247,1,113.999996520996
46,58,223962,6,0,L|48:190,1,113.999996520996
299,166,224253,1,0,0:0:0:0:
61,225,224398,1,0,0:0:0:0:
402,78,224544,2,0,L|478:190,1,113.999996520996
165,130,224835,2,0,L|40:126,1,113.999996520996
415,83,225127,6,0,L|298:125,2,113.999996520996
341,160,225563,1,0,0:0:0:0:
276,238,225708,1,0,0:0:0:0:
357,300,225854,1,0,0:0:0:0:
85,86,226000,2,0,L|72:230,1,113.999996520996
457,129,226292,6,0,L|323:132,3,113.999996520996
55,75,226874,2,0,L|73:208,1,113.999996520996
307,158,227165,2,0,L|172:159,1,113.999996520996
439,78,227457,2,0,L|455:195,1,113.999996520996
160,70,227748,2,0,L|112:184,1,113.999996520996
375,121,228039,2,0,L|490:114,1,113.999996520996
227,185,228330,2,0,L|383:182,1,113.999996520996
118,47,228622,5,0,0:0:0:0:
22,99,228767,1,0,0:0:0:0:
17,209,228913,1,0,0:0:0:0:
107,270,229058,1,0,0:0:0:0:
435,133,229204,2,0,L|468:246,1,113.999996520996
105,112,229495,2,0,L|70:234,1,113.999996520996
394,47,229787,5,0,0:0:0:0:
489,99,229932,1,0,0:0:0:0:
494,209,230078,1,0,0:0:0:0:
404,270,230223,1,0,0:0:0:0:
69,78,230369,2,0,L|63:204,1,113.999996520996
292,167,230661,2,0,L|170:168,1,113.999996520996
467,47,230952,6,0,L|472:174,1,113.999996520996
350,163,231243,2,0,L|223:163,1,113.999996520996
118,51,231534,2,0,L|112:195,1,113.999996520996
375,102,231826,2,0,L|499:105,1,113.999996520996
145,59,232117,1,0,0:0:0:0:
96,80,232189,1,0,0:0:0:0:
102,133,232262,1,0,0:0:0:0:
154,143,232335,1,0,0:0:0:0:
226,145,232408,6,0,L|340:150,1,113.999996520996
197,184,232699,2,0,L|123:284,1,113.999996520996
279,182,232991,2,0,L|311:306,1,113.999996520996
193,294,233282,1,0,0:0:0:0:
