osu file format v14

[General]
AudioFilename: audio.mp3
AudioLeadIn: 0
PreviewTime: 63188
Countdown: 0
SampleSet: Soft
StackLeniency: 0.3
Mode: 0
LetterboxInBreaks: 0
StoryFireInFront: 0
WidescreenStoryboard: 0

[Editor]
DistanceSpacing: 0.3
BeatDivisor: 8
GridSize: 32
TimelineZoom: 1.1

[Metadata]
Title:Something Just Like This
TitleUnicode:Something Just Like This
Artist:The Chainsmokers & Coldplay
ArtistUnicode:The Chainsmokers & Coldplay
Creator:handsome
Version:Regou's Insane
Source:
Tags:memories do not open paris closer andrew taggart alex pall edm electronic pop electropop dancepop fanzhen0019 regou plaudible
BeatmapID:1312787
BeatmapSetID:611301

[Difficulty]
HPDrainRate:5
CircleSize:4
OverallDifficulty:7.5
ApproachRate:8.6
SliderMultiplier:3.399999904633
SliderTickRate:1

[Events]
//Background and Video events
0,0,"bg.jpg",0,0
//Break Periods
2,140573,148743
2,149602,158063
//Storyboard Layer 0 (Background)
//Storyboard Layer 1 (Fail)
//Storyboard Layer 2 (Pass)
//Storyboard Layer 3 (Foreground)
//Storyboard Sound Samples

[TimingPoints]
276,582.5242718447,4,2,1,20,1,0
9596,-400,4,2,1,20,0,0
18916,-400,4,2,1,30,0,0
19016,-400,4,2,1,30,0,0
28237,-400,4,2,1,50,0,0
44547,-400,4,2,1,40,0,0
63771,-200,4,2,1,50,0,0
64062,-100,4,2,1,55,0,0
64353,-100,4,2,1,60,0,0
64936,-200,4,2,1,60,0,0
65518,-100,4,2,1,80,0,0
66101,-200,4,2,1,80,0,0
66683,-100,4,2,1,80,0,0
67266,-200,4,2,1,80,0,0
67848,-100,4,2,1,80,0,0
68431,-100,4,2,1,80,0,0
69596,-100,4,2,1,80,0,0
70178,-100,4,2,1,80,0,0
70761,-200,4,2,1,80,0,0
71343,-100,4,2,1,80,0,0
71926,-200,4,2,1,80,0,0
72509,-100,4,2,1,80,0,0
73091,-200,4,2,1,80,0,0
73674,-100,4,2,1,80,0,0
74839,-100,4,2,1,80,0,0
75421,-200,4,2,1,80,0,0
76004,-100,4,2,1,80,0,0
76586,-200,4,2,1,80,0,0
77169,-100,4,2,1,80,0,0
77751,-100,4,2,1,80,0,0
79499,-100,4,2,1,80,0,0
80081,-100,4,2,1,80,0,0
80664,-100,4,2,1,80,0,0
81246,-100,4,2,1,80,0,0
81829,-100,4,2,1,80,0,0
82411,-100,4,2,1,80,0,0
82703,-200,4,2,1,70,0,0
82994,-100,4,2,1,60,0,0
83285,-200,4,2,1,50,0,0
83576,-200,4,2,1,40,0,0
83868,-200,4,2,1,30,0,0
84159,-200,4,2,1,40,0,0
93479,-200,4,2,1,50,0,0
102800,-200,4,2,1,60,0,0
111101,-100,4,2,1,60,0,0
112120,-200,4,2,1,60,0,0
120858,-100,4,2,1,80,0,0
122023,-200,4,2,1,80,0,0
122606,-100,4,2,1,80,0,0
122897,-100,4,2,1,80,0,0
123188,-200,4,2,1,80,0,0
123771,-100,4,2,1,80,0,0
124062,-100,4,2,1,80,0,0
124353,-100,4,2,1,80,0,0
126101,-100,4,2,1,80,0,0
126683,-200,4,2,1,80,0,0
127266,-100,4,2,1,80,0,0
127557,-100,4,2,1,80,0,0
127848,-200,4,2,1,80,0,0
128431,-100,4,2,1,80,0,0
128722,-100,4,2,1,80,0,0
129013,-200,4,2,1,80,0,0
129596,-100,4,2,1,80,0,0
130761,-100,4,2,1,80,0,0
131343,-200,4,2,1,80,0,0
131926,-100,4,2,1,80,0,0
132217,-100,4,2,1,80,0,0
132508,-200,4,2,1,80,0,0
133091,-100,4,2,1,80,0,0
133382,-100,4,2,1,80,0,0
133673,-100,4,2,1,80,0,0
135421,-100,4,2,1,80,0,0
136003,-100,4,2,1,80,0,0
136877,-100,4,2,1,80,0,0
137168,-100,4,2,1,80,0,0
138042,-100,4,2,1,80,0,0
138333,-100,4,2,1,80,0,0
138625,-100,4,2,1,80,0,0
138916,-100,4,2,1,80,0,0
139499,-100,4,2,1,60,0,0
139790,-100,4,2,1,40,0,0
140081,-200,4,2,1,40,0,0
158722,-200,4,2,1,50,0,0
168042,-200,4,2,1,60,0,0
176780,-100,4,2,1,60,0,0
177363,-100,4,2,1,50,0,0
178819,-200,4,2,1,50,0,0
179693,-100,4,2,1,50,0,0
181149,-200,4,2,1,50,0,0
182023,-100,4,2,1,50,0,0
183479,-200,4,2,1,50,0,0
184353,-117.6470588235,4,2,1,50,0,0
185809,-200,4,2,1,50,0,0
188140,-133.3333333333,4,2,1,50,0,0
189305,-200,4,2,1,50,0,0
192800,-200,4,2,1,55,0,0
193091,-200,4,2,1,60,0,0
193382,-200,4,2,1,65,0,0
193674,-161.2903225807,4,2,1,70,0,0
193965,-133.3333333333,4,2,1,75,0,0
194256,-114.9425287356,4,2,1,80,0,0
194547,-100,4,2,1,85,0,0
194839,-100,4,2,1,90,0,0
196004,-200,4,2,1,100,0,0
196586,-66.66666666667,4,2,1,100,0,0
197169,-200,4,2,1,100,0,0
197751,-66.66666666667,4,2,1,100,0,0
198334,-200,4,2,1,100,0,0
198916,-66.66666666667,4,2,1,100,0,0
200664,-200,4,2,1,100,0,0
201246,-66.66666666667,4,2,1,100,0,0
201829,-200,4,2,1,100,0,0
202411,-66.66666666667,4,2,1,100,0,0
202994,-200,4,2,1,100,0,0
203576,-66.66666666667,4,2,1,100,0,0
205324,-200,4,2,1,100,0,0
205906,-66.66666666667,4,2,1,100,0,0
206489,-200,4,2,1,100,0,0
207071,-66.66666666667,4,2,1,100,0,0
207654,-200,4,2,1,100,0,0
208236,-66.66666666667,4,2,1,100,0,0
209984,-200,4,2,1,100,0,0
210566,-66.66666666667,4,2,1,100,0,0
211149,-200,4,2,1,100,0,0
211731,-66.66666666667,4,2,1,100,0,0
212314,-200,4,2,1,100,0,0
212896,-66.66666666667,4,2,1,100,0,0
214644,-100,4,2,1,100,0,0
215226,-66.66666666667,4,2,1,100,0,0
215809,-200,4,2,1,100,0,0
216392,-66.66666666667,4,2,1,100,0,0
216975,-100,4,2,1,100,0,0
217557,-66.66666666667,4,2,1,100,0,0
218140,-200,4,2,1,100,0,0
218722,-66.66666666667,4,2,1,100,0,0
219305,-100,4,2,1,100,0,0
219887,-66.66666666667,4,2,1,100,0,0
220470,-200,4,2,1,100,0,0
221052,-66.66666666667,4,2,1,100,0,0
221635,-100,4,2,1,100,0,0
222217,-66.66666666667,4,2,1,100,0,0
223965,-66.66666666667,4,2,1,100,0,0
224547,-66.66666666667,4,2,1,100,0,0
226295,-66.66666666667,4,2,1,100,0,0
226877,-66.66666666667,4,2,1,100,0,0
228625,-200,4,2,1,100,0,0
229207,-66.66666666667,4,2,1,100,0,0
229790,-200,4,2,1,100,0,0
230372,-66.66666666667,4,2,1,100,0,0
230955,-100,4,2,1,100,0,0
231537,-200,4,2,1,100,0,0
232703,-100,4,2,1,80,0,0
232994,-100,4,2,1,60,0,0
233285,-100,4,2,1,40,0,0
233431,-200,4,2,1,40,0,0

[Colours]
Combo1 : 255,242,204
Combo2 : 255,215,215
Combo3 : 255,204,230
Combo4 : 230,204,255
Combo5 : 204,230,255
Combo6 : 204,255,230
Combo7 : 240,255,225

[HitObjects]
3,364,9596,6,0,P|60:303|176:342,1,212.4999940395,2|0,0:0|0:0,0:0:0:0:
339,336,11926,2,0,P|432:297|509:364,1,212.4999940395,2|0,0:0|0:0,0:0:0:0:
254,321,14256,6,0,B|232:201|281:233|256:104,1,212.4999940395,2|0,0:0|0:0,0:0:0:0:
258,25,16004,2,0,L|257:126,1,84.99999761581,0|2,0:0|0:0,0:0:0:0:
149,239,17751,6,0,P|120:236|99:236,1,42.49999880791,0|0,0:0|0:0,0:0:0:0:
43,193,18334,2,0,P|14:190|-7:190,1,42.49999880791,0|0,0:0|0:0,0:0:0:0:
161,24,18916,5,2,0:0:0:0:
125,147,19353,1,8,0:1:0:0:
31,57,19790,1,8,0:1:0:0:
103,76,20664,5,8,0:1:0:0:
250,361,21246,5,2,0:0:0:0:
214,238,21683,1,8,0:1:0:0:
120,328,22120,1,8,0:1:0:0:
194,309,22703,5,8,0:1:0:0:
194,309,22994,1,8,0:1:0:0:
292,128,23576,6,0,P|288:90|278:56,2,63.74999821186,2|8|8,0:0|0:1|0:1,0:0:0:0:
279,206,24742,2,0,P|253:230|231:261,1,63.74999821186
236,252,25324,1,8,0:1:0:0:
351,186,25615,2,0,P|374:189|399:190,1,42.49999880791
351,186,26489,6,0,L|405:189,1,42.49999880791,0|8,0:0|1:0,0:0:0:0:
510,198,27072,2,0,L|460:195,1,42.49999880791,0|8,0:0|0:1,0:0:0:0:
393,188,27654,2,0,L|341:184,1,42.49999880791,8|0,0:1|0:0,0:0:0:0:
266,189,28237,6,0,B|213:183|160:131|187:42|232:30|273:44|285:76|282:96,1,254.9999928474,4|0,0:1|0:0,0:0:0:0:
266,189,30567,6,0,B|125:168|174:255|13:218,1,254.9999928474,2|2,0:0|0:0,0:0:0:0:
117,298,32897,6,0,B|88:337|82:379|82:379|185:384|203:280,1,254.9999928474,2|0,0:0|0:0,0:0:0:0:
280,247,35227,1,2,0:0:0:0:
280,247,36101,5,2,0:0:0:0:
280,247,36392,2,0,L|273:193,1,42.49999880791,2|0,0:0|0:0,0:0:0:0:
256,124,36975,2,0,L|249:70,1,42.49999880791,2|0,0:0|0:0,0:0:0:0:
317,27,37557,6,0,P|392:9|406:158,1,254.9999928474,2|2,0:0|0:0,0:0:0:0:
471,274,39887,6,0,B|409:291|337:234|337:234|387:299|386:340,1,254.9999928474,2|2,0:0|0:0,0:0:0:0:
260,340,42217,6,0,P|226:349|192:368,2,63.74999821186,2|0|2,0:0|0:0|0:0,0:0:0:0:
183,282,43382,2,0,P|143:281|108:286,1,63.74999821186
119,283,43965,1,8,0:1:0:0:
126,200,44256,2,0,P|102:194|83:192,1,42.49999880791
157,56,45130,5,0,0:0:0:0:
224,22,45421,1,0,0:0:0:0:
297,42,45712,1,0,0:0:0:0:
334,110,46004,1,0,0:0:0:0:
397,150,46295,1,0,0:0:0:0:
472,151,46586,1,0,0:0:0:0:
510,84,46877,5,4,0:1:0:0:
510,84,47169,1,0,0:0:0:0:
487,298,47751,6,0,L|493:331,2,21.24999940395,0|0|2,0:0|0:0|0:0,0:0:0:0:
410,324,48334,2,0,L|413:363,2,21.24999940395,0|0|2,0:0|0:0|0:0,0:0:0:0:
341,281,50081,6,0,L|345:255,2,21.24999940395,0|0|2,0:0|0:0|0:0,0:0:0:0:
265,254,50664,2,0,P|260:229|253:209,3,42.49999880791,0|2|2|4,0:0|0:0|0:0|0:1,0:0:0:0:
207,320,52411,6,0,L|204:349,2,21.24999940395,0|0|2,0:0|0:0|0:0,0:0:0:0:
126,336,52994,2,0,L|121:366,2,21.24999940395,0|0|2,0:0|0:0|0:0,0:0:0:0:
82,221,54159,6,0,P|85:199|92:180,2,42.49999880791,0|2|0,0:0|0:0|0:0,0:0:0:0:
7,236,55033,2,0,P|3:216|2:192,1,42.49999880791
37,125,55615,2,0,P|54:108|71:100,1,42.49999880791,2|0,0:0|0:0,0:0:0:0:
105,29,56198,5,0,1:0:0:0:
105,29,56489,1,0,0:0:0:0:
256,192,56780,12,0,63188,0:0:0:0:
134,35,63479,6,0,L|115:55,1,21.24999940395,2|0,0:0|0:0,0:0:0:0:
254,72,63771,6,0,L|264:128,1,42.49999880791,2|0,0:0|0:0,0:0:0:0:
359,19,64062,6,0,L|430:83,1,84.99999761581,2|0,0:0|0:0,0:0:0:0:
512,210,64353,5,4,3:0:0:0:
337,312,64499,1,0,3:0:0:0:
337,312,64572,1,0,3:0:0:0:
337,312,64644,1,0,3:0:0:0:
376,173,64790,1,8,3:0:0:0:
490,364,64936,2,0,P|454:344|405:326,1,84.99999761581,0|0,1:0|1:0,0:0:0:0:
218,355,65518,6,0,B|192:283|213:204|213:204|192:283|137:316,1,254.9999856949,8|0,1:3|0:0,0:0:0:0:
23,356,66101,6,0,L|108:361,1,84.99999523163,10|2,0:1|1:0,0:0:0:0:
309,32,66683,6,0,B|283:104|304:183|304:183|283:104|228:71,1,254.9999856949,8|0,1:3|0:0,0:0:0:0:
114,30,67266,6,0,L|199:26,1,84.99999523163,10|2,0:1|0:1,0:0:0:0:
333,361,67848,6,0,P|407:381|488:233,1,254.9999856949,8|0,1:3|0:0,0:0:0:0:
374,184,68358,1,0,0:0:0:0:
374,184,68431,2,0,L|459:179,1,84.99999523163,10|0,0:1|0:0,0:0:0:0:
257,80,68722,2,0,L|228:1,1,84.99999523163,2|0,1:0|0:0,0:0:0:0:
240,255,69013,2,0,L|190:324,1,84.99999523163,2|0,0:1|0:0,0:0:0:0:
384,75,69305,5,2,0:1:0:0:
164,160,69450,1,0,0:0:0:0:
351,290,69596,2,0,L|392:391,1,84.99999523163,10|0,0:1|0:0,0:0:0:0:
382,368,69814,1,0,0:0:0:0:
382,368,69887,1,2,0:1:0:0:
291,169,70033,1,0,0:0:0:0:
162,340,70178,6,0,B|85:328|18:384|18:384|45:329|116:300,1,254.9999856949,8|0,1:3|0:0,0:0:0:0:
227,283,70761,6,0,P|192:259|151:254,1,84.99999523163,10|2,0:1|1:0,0:0:0:0:
272,48,71343,6,0,B|195:60|128:4|128:4|155:59|226:88,1,254.9999856949,8|0,1:3|0:0,0:0:0:0:
337,104,71926,6,0,P|302:128|261:134,1,84.99999523163,10|2,0:1|0:1,0:0:0:0:
505,311,72509,6,0,P|466:212|348:269,1,254.9999856949,8|0,1:3|0:0,0:0:0:0:
334,341,73091,6,0,P|382:337|424:298,1,84.99999523163,10|2,0:1|1:0,0:0:0:0:
284,1,73674,5,4,3:0:0:0:
246,149,73819,1,0,3:0:0:0:
246,149,73892,1,0,3:0:0:0:
246,149,73965,1,0,3:0:0:0:
147,33,74110,1,8,3:0:0:0:
314,222,74256,5,10,1:0:0:0:
228,62,74402,1,0,3:0:0:0:
362,302,74547,5,2,1:0:0:0:
321,108,74693,1,0,3:0:0:0:
281,373,74839,6,0,B|249:305|175:278|133:295|133:295|174:297|227:340,1,254.9999856949,8|0,1:3|0:0,0:0:0:0:
444,314,75421,6,0,B|392:319|423:297|360:301,1,84.99999523163,10|2,0:1|1:0,0:0:0:0:
204,6,76004,6,0,B|172:74|98:101|56:84|56:84|97:82|150:39,1,254.9999856949,8|0,1:3|0:0,0:0:0:0:
356,60,76586,6,0,B|305:55|336:77|273:73,1,84.99999523163,10|2,0:1|0:1,0:0:0:0:
116,245,77169,6,0,P|24:202|82:301,1,254.9999856949,8|0,1:3|0:0,0:0:0:0:
199,294,77678,1,0,0:0:0:0:
199,294,77751,6,0,P|169:323|129:335,1,84.99999523163,10|0,0:1|0:0,0:0:0:0:
193,107,78042,2,0,P|183:66|195:26,1,84.99999523163,2|0,1:0|0:0,0:0:0:0:
347,219,78334,1,2,0:1:0:0:
347,219,78625,6,0,P|388:231|417:262,1,84.99999523163,2|0,0:1|0:0,0:0:0:0:
193,107,78916,2,0,P|183:66|195:26,1,84.99999523163,10|0,0:1|0:0,0:0:0:0:
198,292,79208,2,0,P|168:322|128:333,1,84.99999523163,2|0,0:1|0:0,0:0:0:0:
356,180,79499,6,0,L|372:2,1,169.9999904633,8|0,1:3|0:0,0:0:0:0:
371,10,79936,1,0,0:0:0:0:
458,233,80081,2,0,P|464:191|470:127,1,84.99999523163,10|0,0:1|0:0,0:0:0:0:
258,47,80373,2,0,P|252:89|246:153,1,84.99999523163,2|0,1:0|0:0,0:0:0:0:
419,337,80664,6,0,B|324:349|358:289|218:307,1,169.9999904633,8|0,1:3|0:0,0:0:0:0:
255,303,81101,1,0,0:0:0:0:
46,220,81246,2,0,P|96:218|146:212,1,84.99999523163,10|0,0:1|0:0,0:0:0:0:
97,317,81538,2,0,P|55:321|12:323,1,84.99999523163,2|0,0:1|0:0,0:0:0:0:
264,13,81829,6,0,P|288:93|265:173,1,169.9999904633,8|0,1:3|0:0,0:0:0:0:
233,253,82266,1,0,0:0:0:0:
264,330,82411,1,10,0:1:0:0:
264,330,82703,6,0,P|321:336|355:340,1,84.99999523163,2|0,0:1|0:0,0:0:0:0:
422,300,83140,1,0,0:0:0:0:
422,300,83285,6,0,P|448:291|468:279,1,42.49999761581,2|0,0:1|0:0,0:0:0:0:
419,219,83576,2,0,P|434:200|437:175,1,42.49999761581,10|0,0:1|0:0,0:0:0:0:
364,164,83868,2,0,P|364:140|355:118,1,42.49999761581,2|0,0:1|0:0,0:0:0:0:
383,42,84159,6,0,B|295:34|325:86|202:76,1,169.9999904633,2|0,3:0|3:0,0:0:0:0:
111,17,85324,2,0,B|103:105|155:75|146:198,1,169.9999904633,0|0,3:0|3:0,0:0:0:0:
97,279,86489,2,0,B|184:286|155:234|277:244,1,169.9999904633,2|0,3:0|3:0,0:0:0:0:
368,303,87654,2,0,B|375:215|323:244|333:122,1,169.9999904633,0|0,3:0|3:0,0:0:0:0:
286,67,88528,1,0,0:0:0:0:
359,14,88819,6,0,P|422:4|482:89,1,169.9999904633,2|0,3:0|3:0,0:0:0:0:
512,174,89984,2,0,P|522:237|437:297,1,169.9999904633,0|0,3:0|3:0,0:0:0:0:
359,335,91149,2,0,P|296:345|236:260,1,169.9999904633,2|0,3:0|3:0,0:0:0:0:
206,175,92314,2,0,P|196:112|281:52,1,169.9999904633,0|0,3:0|3:0,0:0:0:0:
282,137,93188,1,0,0:0:0:0:
352,85,93479,5,2,3:2:0:0:
460,256,93771,1,0,0:0:0:0:
460,256,93916,1,8,0:1:0:0:
460,256,94062,2,0,L|465:357,1,84.99999523163,0|8,3:0|0:1,0:0:0:0:
441,77,94644,5,0,3:0:0:0:
376,351,94936,1,0,0:0:0:0:
376,351,95081,1,0,0:0:0:0:
376,351,95227,2,0,L|371:250,1,84.99999523163,2|0,3:1|0:0,0:0:0:0:
485,156,95809,6,0,B|391:148|423:197|321:185,1,169.9999904633,2|0,3:2|3:0,0:0:0:0:
219,80,96683,2,0,P|223:121|244:158,1,84.99999523163,2|0,0:1|3:0,0:0:0:0:
201,303,97266,2,0,P|234:277|256:241,1,84.99999523163,8|8,0:1|3:1,0:0:0:0:
256,241,97703,1,0,0:0:0:0:
256,241,97848,1,0,0:0:0:0:
129,53,98140,6,0,L|38:48,1,84.99999523163,2|0,3:2|0:0,0:0:0:0:
220,104,98722,2,0,L|225:13,1,84.99999523163,0|8,3:0|0:1,0:0:0:0:
186,208,99305,2,0,L|277:213,1,84.99999523163,0|0,3:0|0:0,0:0:0:0:
95,157,99887,2,0,L|90:248,1,84.99999523163,8|0,3:1|0:0,0:0:0:0:
352,358,100470,5,0,3:0:0:0:
352,358,101052,1,2,3:2:0:0:
363,314,101198,1,0,0:0:0:0:
397,284,101343,1,8,0:1:0:0:
442,279,101489,1,0,0:0:0:0:
486,296,101635,1,2,3:2:0:0:
437,368,101926,5,8,0:1:0:0:
461,180,102217,1,2,3:2:0:0:
289,252,102509,1,0,0:0:0:0:
397,284,102800,5,4,1:0:0:0:
354,14,103091,6,0,L|352:70,2,42.49999761581,0|0|0,0:0|0:0|1:0,0:0:0:0:
133,86,103674,2,0,L|135:142,2,42.49999761581,2|2|2,0:2|0:2|1:2,0:0:0:0:
305,135,104256,5,0,0:0:0:0:
244,78,104547,1,2,1:2:0:0:
226,159,104839,1,0,0:0:0:0:
462,284,105130,5,2,1:2:0:0:
294,381,105712,1,2,1:2:0:0:
270,350,105858,1,2,0:2:0:0:
231,331,106004,1,2,0:2:0:0:
190,335,106149,1,2,0:2:0:0:
155,354,106295,1,2,1:2:0:0:
36,224,106586,5,0,0:0:0:0:
120,212,106877,1,2,1:2:0:0:
90,293,107169,1,0,0:0:0:0:
241,7,107460,5,2,1:2:0:0:
271,236,107751,1,0,0:0:0:0:
161,50,108042,5,2,1:2:0:0:
344,190,108334,1,0,0:0:0:0:
146,141,108625,5,2,1:2:0:0:
375,111,108916,1,0,0:0:0:0:
189,221,109208,5,0,1:0:0:0:
329,38,109499,1,0,0:0:0:0:
255,126,109790,5,2,1:2:0:0:
65,321,110373,1,0,1:0:0:0:
94,357,110518,1,0,0:0:0:0:
134,372,110664,1,2,0:2:0:0:
176,366,110809,1,0,0:0:0:0:
211,339,110955,5,2,1:2:0:0:
298,369,111101,1,0,3:0:0:0:
298,369,111174,1,0,3:0:0:0:
298,369,111246,2,0,P|352:363|404:358,1,84.99999523163,0|2,3:0|0:2,0:0:0:0:
364,219,111538,2,0,P|433:277|520:278,1,169.9999904633,0|0,1:0|0:0,0:0:0:0:
500,195,111975,1,0,0:0:0:0:
371,19,112120,6,0,P|326:28|272:36,1,84.99999523163,2|0,1:2|0:0,0:0:0:0:
262,234,112703,2,0,P|276:190|296:139,1,84.99999523163,0|2,1:0|0:2,0:0:0:0:
122,49,113285,2,0,P|152:83|186:126,2,84.99999523163,2|0|2,1:2|0:0|1:2,0:0:0:0:
64,120,114159,1,0,0:0:0:0:
35,37,114450,5,2,1:2:0:0:
35,37,114742,1,0,0:0:0:0:
16,224,115033,1,0,1:1:0:0:
56,211,115178,1,2,0:2:0:0:
99,214,115324,1,2,0:2:0:0:
134,241,115470,1,2,0:2:0:0:
142,282,115615,1,2,1:2:0:0:
223,205,115907,5,0,0:0:0:0:
237,286,116198,1,2,1:2:0:0:
253,366,116489,1,0,0:0:0:0:
500,319,116780,6,0,P|451:313|407:308,1,84.99999761581,2|0,1:2|0:0,0:0:0:0:
415,308,117217,1,0,0:0:0:0:
415,308,117363,1,0,1:0:0:0:
417,197,117654,1,2,0:2:0:0:
417,197,117800,1,2,0:2:0:0:
417,197,117945,2,0,P|361:204|320:211,1,84.99999523163,2|2,1:2|0:2,0:0:0:0:
507,97,118528,2,0,P|451:90|410:83,1,84.99999523163,2|0,1:2|0:0,0:0:0:0:
271,6,119110,6,0,B|288:125|235:66|249:188,1,169.9999952316,2|0,1:2|1:0,0:0:0:0:
252,254,119984,1,0,0:0:0:0:
259,339,120275,5,4,1:3:0:0:
351,330,120421,1,0,1:0:0:0:
351,330,120494,1,0,0:0:0:0:
351,330,120567,1,2,1:3:0:0:
170,353,120712,1,0,1:0:0:0:
494,266,120858,6,0,P|423:221|310:256,1,169.9999904633,0|0,3:0|3:0,0:0:0:0:
77,202,121441,6,0,B|-11:139|-11:139|84:258,1,254.9999856949,8|0,1:3|3:0,0:0:0:0:
196,352,122023,6,0,B|150:355|166:340|112:342,1,84.99999523163,10|2,0:1|1:0,0:0:0:0:
298,151,122606,6,0,B|210:214|210:214|305:95,1,254.9999856949,8|0,1:3|0:0,0:0:0:0:
420,7,123188,6,0,B|375:4|391:19|337:17,1,84.99999523163,10|2,0:1|0:1,0:0:0:0:
476,302,123771,6,0,B|508:237|459:179|459:179|382:222|391:297,1,254.9999856949,8|0,1:3|0:0,0:0:0:0:
261,375,124280,1,0,0:0:0:0:
261,375,124353,6,0,P|304:357|332:322,1,84.99999523163,10|0,0:1|0:0,0:0:0:0:
127,217,124644,2,0,P|121:262|136:304,1,84.99999523163,2|0,1:0|0:0,0:0:0:0:
328,170,124936,2,0,P|290:142|247:135,1,84.99999523163,2|0,0:1|0:0,0:0:0:0:
328,327,125227,5,2,0:1:0:0:
254,134,125373,1,0,0:0:0:0:
133,299,125518,2,0,L|45:329,1,84.999997615825,10|0,0:1|0:0,0:0:0:0:
52,326,125737,1,0,0:0:0:0:
52,326,125809,1,2,0:1:0:0:
248,250,125955,1,0,0:0:0:0:
30,15,126101,6,0,B|74:71|58:184|58:184|89:127|128:114,1,254.9999856949,8|0,1:3|3:0,0:0:0:0:
228,96,126683,6,0,P|199:59|157:69,1,84.99999523163,10|2,0:1|1:0,0:0:0:0:
263,375,127266,6,0,B|307:319|291:206|291:206|322:263|361:276,1,254.9999856949,8|0,1:3|0:0,0:0:0:0:
463,298,127848,6,0,P|434:335|392:325,1,84.99999523163,10|2,0:1|0:1,0:0:0:0:
378,21,128431,6,0,P|474:19|434:147,1,254.9999856949,8|0,1:3|0:0,0:0:0:0:
289,92,129013,6,0,B|330:97|330:97|335:103|335:103|378:109,1,84.99999523163,10|2,0:1|1:0,0:0:0:0:
268,366,129596,5,4,3:0:0:0:
321,212,129742,1,0,3:0:0:0:
321,212,129814,1,0,3:0:0:0:
321,212,129887,1,0,3:0:0:0:
165,246,130033,1,8,3:0:0:0:
370,107,130178,5,10,1:0:0:0:
252,284,130324,1,0,3:0:0:0:
453,59,130470,5,2,1:0:0:0:
407,278,130615,1,0,3:0:0:0:
375,20,130761,6,0,P|294:-8|289:122,1,254.9999856949,8|0,1:3|3:0,0:0:0:0:
418,168,131343,6,0,P|380:185|338:184,1,84.99999523163,10|2,0:1|1:0,0:0:0:0:
200,333,131926,6,0,P|119:361|114:231,1,254.9999856949,8|0,1:3|0:0,0:0:0:0:
257,202,132509,6,0,P|219:185|177:187,1,84.99999523163,10|2,0:1|0:1,0:0:0:0:
480,373,133091,6,0,B|430:284|328:312|328:312|388:383,1,254.9999856949,8|0,1:3|0:0,0:0:0:0:
488,253,133601,1,0,0:0:0:0:
488,253,133674,6,0,P|476:207|447:174,1,84.99999523163,10|0,0:1|0:0,0:0:0:0:
230,193,133965,2,0,P|275:206|318:197,1,84.99999523163,2|0,1:0|0:0,0:0:0:0:
416,0,134256,1,2,0:1:0:0:
416,0,134547,6,0,P|382:32|368:74,1,84.99999523163,2|0,0:1|0:0,0:0:0:0:
230,193,134839,2,0,P|275:206|318:197,1,84.99999523163,10|0,0:1|0:0,0:0:0:0:
488,253,135130,2,0,P|476:207|447:174,1,84.99999523163,2|0,0:1|0:0,0:0:0:0:
193,111,135421,6,0,P|103:123|11:138,1,169.9999904633,8|0,1:3|0:0,0:0:0:0:
24,135,135858,1,0,3:0:0:0:
9,11,136004,2,0,P|54:22|111:36,1,84.99999523163,10|0,0:1|0:0,0:0:0:0:
83,246,136295,2,0,P|38:235|-19:221,1,84.99999523163,2|0,1:0|0:0,0:0:0:0:
329,354,136586,6,0,P|242:340|168:390,1,169.9999904633,8|2,1:3|0:0,0:0:0:0:
175,380,137023,1,0,0:0:0:0:
247,159,137169,2,0,P|256:221|260:255,1,84.99999523163,10|0,0:1|0:0,0:0:0:0:
327,91,137460,2,0,P|337:145|341:184,1,84.99999523163,2|0,0:1|0:0,0:0:0:0:
512,252,137751,6,0,B|423:236|454:293|335:263,1,169.9999904633,8|2,1:3|0:0,0:0:0:0:
440,159,138188,1,0,0:0:0:0:
312,6,138334,2,0,P|373:-10|431:70,1,169.9999904633,10|2,0:1|1:0,0:0:0:0:
207,191,138916,5,4,3:0:0:0:
190,102,139062,1,0,3:0:0:0:
190,102,139135,1,0,3:0:0:0:
190,102,139208,1,0,3:0:0:0:
273,132,139353,1,8,3:0:0:0:
331,341,139499,5,10,0:1:0:0:
276,287,139644,1,0,0:0:0:0:
260,359,139790,2,0,P|173:366|76:381,1,169.9999904633,2|0,0:1|0:0,0:0:0:0:
11,250,140373,5,0,0:0:0:0:
105,280,149402,5,2,0:0:0:0:
165,296,158722,5,0,1:0:0:0:
165,296,159305,1,0,1:0:0:0:
360,282,159887,5,0,1:0:0:0:
360,282,160470,1,0,1:0:0:0:
346,87,161052,5,0,1:0:0:0:
346,87,161635,1,0,1:0:0:0:
151,101,162217,5,0,1:0:0:0:
151,101,162800,1,0,1:0:0:0:
223,154,163091,1,0,0:0:0:0:
162,218,163382,6,0,P|92:238|17:180,1,169.9999904633,0|0,1:0|1:0,0:0:0:0:
350,166,164547,2,0,P|420:146|495:204,1,169.9999904633,0|0,1:0|1:0,0:0:0:0:
494,204,165421,1,0,0:0:0:0:
489,313,165712,6,0,B|394:295|430:365|309:345,1,169.9999904633,0|0,1:0|1:0,0:0:0:0:
256,301,166586,2,0,P|228:330|202:376,2,84.99999523163,0|0|0,0:0|1:0|0:0,0:0:0:0:
302,184,167460,2,0,P|322:223|333:267,1,84.99999523163,0|0,1:0|0:0,0:0:0:0:
307,57,168042,6,0,P|240:23|183:89,1,169.9999904633,4|0,1:0|1:0,0:0:0:0:
205,327,169208,2,0,P|272:361|329:295,1,169.9999904633,0|8,1:0|1:0,0:0:0:0:
328,300,170081,1,0,0:0:0:0:
326,192,170373,6,0,B|421:197|396:163|495:170,1,169.9999904633,4|0,1:0|1:0,0:0:0:0:
186,192,171538,2,0,B|91:187|116:221|17:214,1,169.9999904633,0|8,1:0|1:0,0:0:0:0:
23,131,172411,1,0,0:0:0:0:
242,382,172703,6,0,P|249:317|270:243,1,127.4999928474,4|8,1:0|0:1,0:0:0:0:
264,257,173285,1,0,1:0:0:0:
160,12,173576,2,0,P|166:77|169:115,1,84.99999523163,8|0,0:1|1:0,0:0:0:0:
352,372,174159,2,0,P|346:307|343:269,2,84.99999523163,0|8|0,0:0|1:0|0:0,0:0:0:0:
499,225,175033,5,4,1:0:0:0:
499,225,175324,2,0,P|472:217|445:213,1,42.49999761581,0|0,0:0|0:0,0:0:0:0:
451,131,175615,1,0,1:0:0:0:
451,131,175907,2,0,P|420:139|395:150,1,42.49999761581,0|0,0:0|0:0,0:0:0:0:
274,3,176198,5,4,1:3:0:0:
297,94,176343,1,0,3:0:0:0:
297,94,176416,1,0,3:0:0:0:
297,94,176489,1,0,3:0:0:0:
357,30,176635,1,0,3:0:0:0:
371,239,176780,6,0,P|325:227|273:217,1,84.99999523163,0|0,1:0|0:0,0:0:0:0:
199,375,177072,2,0,P|153:363|101:353,1,84.99999523163
20,56,177363,6,0,B|-7:113|21:183|83:198|142:265|95:358|32:413|-52:352|-83:290|-48:217|9:171|64:169|135:171|172:112|165:22|144:-2|144:-2|111:24|105:66,1,764.9999570847,4|0,0:1|0:0,0:0:0:0:
172,198,178819,6,0,P|181:243|188:291,2,84.99999523163,2|2|2,0:3|0:0|0:3,0:0:0:0:
498,363,179693,6,0,B|421:288|318:263|224:324|285:383|360:395|422:373|452:299|452:299|423:240|459:136|459:136|438:197|392:207|356:228|308:192,1,764.9999785423,2|0,0:0|0:0,0:0:0:0:
363,128,181149,6,0,P|356:78|347:29,2,84.99999523163,2|2|2,0:0|0:3|0:0,0:0:0:0:
226,118,182023,6,0,B|116:109|37:14|37:14|110:113|125:181|125:181|138:267|112:340|26:365|-20:344|-33:291|-15:223|23:191,1,764.9999570847,2|0,0:0|0:0,0:0:0:0:
198,279,183479,6,0,P|212:337|221:381,2,84.99999523163,2|2|2,0:3|0:3|0:3,0:0:0:0:
453,173,184353,6,0,B|473:165|492:163|534:185|531:283|456:306|392:301|335:274|304:231|320:157|406:142|406:142|476:116|490:66|488:-14|426:-37|375:3|360:75|369:132|405:191|405:191|453:282|453:330|418:379|378:394|348:381|297:397|265:341|292:267,1,1155.999989624,2|2,0:0|0:0,0:0:0:0:
284,296,186975,5,2,0:0:0:0:
256,192,187047,12,0,191198,0:0:0:0:
117,190,191343,6,0,L|76:198,1,42.49999761581,2|0,0:0|0:0,0:0:0:0:
158,92,191635,2,0,L|124:68,1,42.49999761581,2|0,0:0|0:0,0:0:0:0:
257,53,191926,6,0,L|250:12,1,42.49999761581,2|0,0:0|0:0,0:0:0:0:
354,94,192217,2,0,L|379:60,1,42.49999761581,2|0,0:0|0:0,0:0:0:0:
394,193,192509,6,0,L|436:186,1,42.49999761581,2|0,0:0|0:0,0:0:0:0:
352,290,192800,2,0,L|387:315,1,42.49999761581,2|0,0:0|0:0,0:0:0:0:
254,330,193091,6,0,L|262:372,1,42.49999761581,2|0,0:0|0:0,0:0:0:0:
156,288,193382,2,0,L|132:323,1,42.49999761581,2|0,0:0|0:0,0:0:0:0:
127,189,193674,6,0,L|76:198,1,52.69999495285,0|0,0:0|0:0,0:0:0:0:
157,99,193965,6,0,L|105:61,1,63.74999885559,2|0,0:0|0:0,0:0:0:0:
257,72,194256,6,0,L|245:0,1,73.94999647213,2|0,0:0|0:0,0:0:0:0:
361,93,194547,6,0,L|410:24,1,84.99999523163,2|0,0:0|0:0,0:0:0:0:
474,275,194839,5,4,3:0:0:0:
409,209,194984,1,0,3:0:0:0:
409,209,195057,1,0,3:0:0:0:
409,209,195130,1,0,3:0:0:0:
384,299,195275,1,8,3:0:0:0:
496,177,195421,5,8,1:0:0:0:
450,366,195567,1,0,3:0:0:0:
314,242,195712,2,0,P|251:252|161:267,1,127.4999928474,0|0,1:0|0:0,0:0:0:0:
19,352,196004,6,0,P|53:356|101:277,1,127.4999928474,8|0,1:3|3:0,0:0:0:0:
110,46,196586,6,0,B|69:105|78:202|78:202|54:147|10:115,1,254.9999954224,10|2,0:1|1:0,0:0:0:0:
110,46,197023,1,0,0:0:0:0:
173,233,197169,6,0,B|247:232|221:255|309:255,1,127.4999928474,8|0,1:3|3:0,0:0:0:0:
357,59,197751,6,0,P|282:38|306:165,1,254.9999954224,10|2,0:1|0:1,0:0:0:0:
357,59,198188,1,0,0:0:0:0:
447,252,198334,6,0,P|440:319|432:395,1,127.4999928474,8|0,1:3|3:0,0:0:0:0:
512,185,198916,6,0,P|452:154|376:176,1,127.4999977112,10|0,0:1|0:0,0:0:0:0:
278,364,199208,2,0,P|338:321|357:244,1,127.4999977112,2|0,1:0|0:0,0:0:0:0:
243,65,199499,1,6,0:1:0:0:
243,65,199790,6,0,P|249:138|306:193,1,127.4999977112,2|0,0:1|0:0,0:0:0:0:
278,364,200081,2,0,P|338:321|357:244,1,127.4999977112,10|0,0:1|0:0,0:0:0:0:
512,185,200373,2,0,P|452:154|376:176,1,127.4999977112,2|0,0:1|0:0,0:0:0:0:
197,277,200664,6,0,P|138:288|58:304,1,127.4999928474,8|0,1:3|3:0,0:0:0:0:
0,99,201246,6,0,B|61:50|146:67|166:116|166:116|131:177,1,254.9999954224,10|2,0:1|1:0,0:0:0:0:
0,99,201683,1,0,0:0:0:0:
246,220,201829,6,0,B|250:294|234:279|241:366,1,127.4999928474,8|0,1:3|3:0,0:0:0:0:
386,41,202411,6,0,B|228:17|228:17|297:90,1,254.9999856949,10|2,0:1|0:1,0:0:0:0:
386,41,202848,1,0,0:0:0:0:
390,305,202994,6,0,P|435:295|488:223,1,127.4999928474,8|0,1:3|3:0,0:0:0:0:
387,120,203576,6,0,B|277:183|277:183|406:221,1,254.9999954224,10|2,0:1|1:0,0:0:0:0:
401,221,204159,1,8,3:0:0:0:
118,38,204305,5,0,3:0:0:0:
118,38,204377,1,0,3:0:0:0:
118,38,204450,1,0,3:0:0:0:
226,16,204596,1,4,3:0:0:0:
36,174,204742,6,0,P|11:125|22:33,1,127.4999977112,10|0,1:0|3:0,0:0:0:0:
182,291,205033,2,0,P|152:337|66:373,1,127.4999977112,2|0,1:0|3:0,0:0:0:0:
221,104,205324,6,0,P|275:106|350:163,1,127.4999977112,8|0,1:3|3:0,0:0:0:0:
481,21,205907,6,0,B|415:74|415:74|444:241,1,254.9999954224,10|2,0:1|1:0,0:0:0:0:
481,21,206343,1,0,0:0:0:0:
383,333,206489,6,0,P|329:341|251:357,1,127.4999928474,8|0,1:3|3:0,0:0:0:0:
246,222,207072,6,0,B|153:212|153:212|100:262|100:262|-18:254,1,254.9999954224,10|2,0:1|0:1,0:0:0:0:
246,222,207509,1,0,0:0:0:0:
128,48,207654,6,0,B|193:32|193:32|239:72,1,127.4999928474,8|0,1:3|3:0,0:0:0:0:
330,26,208237,6,0,P|345:84|301:167,1,127.4999977112,10|0,0:1|0:0,0:0:0:0:
122,316,208528,2,0,P|165:273|258:270,1,127.4999977112,2|0,1:0|0:0,0:0:0:0:
469,356,208819,1,6,0:1:0:0:
469,356,209110,6,0,P|410:339|360:260,1,127.4999977112,2|0,0:1|0:0,0:0:0:0:
122,316,209402,2,0,P|165:273|258:270,1,127.4999977112,10|0,0:1|0:0,0:0:0:0:
330,26,209693,2,0,P|345:84|301:167,1,127.4999977112,2|0,0:1|0:0,0:0:0:0:
281,369,209984,6,0,L|307:233,1,127.4999928474,8|0,1:3|3:0,0:0:0:0:
460,76,210567,6,0,B|511:195|511:195|430:304,1,254.9999954224,10|2,0:1|1:0,0:0:0:0:
460,76,211004,1,0,0:0:0:0:
243,182,211149,6,0,P|299:155|364:180,1,127.4999928474,8|0,1:3|3:0,0:0:0:0:
244,49,211732,6,0,B|108:29|169:125|-9:99,1,254.9999954224,10|2,0:1|0:1,0:0:0:0:
244,49,212169,1,0,0:0:0:0:
0,198,212314,6,0,P|46:206|128:226,1,127.4999928474,8|0,1:3|3:0,0:0:0:0:
115,326,212897,6,0,B|158:379|260:351|260:351|247:278|189:251,1,254.9999954224,10|2,0:1|1:0,0:0:0:0:
421,38,213479,5,4,3:0:0:0:
264,0,213625,1,0,3:0:0:0:
264,0,213698,1,0,3:0:0:0:
264,0,213771,1,0,3:0:0:0:
304,163,213916,1,8,3:0:0:0:
506,104,214062,5,10,1:0:0:0:
332,75,214208,1,0,3:0:0:0:
505,271,214353,5,2,1:0:0:0:
409,135,214499,1,0,3:0:0:0:
346,370,214644,6,0,P|391:350|386:228,1,169.9999904633,8|0,1:3|3:0,0:0:0:0:
304,163,215081,1,0,3:0:0:0:
304,163,215227,6,0,P|180:186|7:218,1,254.9999954224,10|2,0:1|1:0,0:0:0:0:
30,4,215809,6,0,P|54:11|71:28,1,42.49999761581,8|2,1:3|0:2,0:0:0:0:
155,52,216101,2,0,P|167:81|167:103,1,42.49999761581,2|2,0:2|0:2,0:0:0:0:
175,188,216392,6,0,P|227:238|316:227,1,127.4999977112,10|2,0:1|0:2,0:0:0:0:
499,76,216683,2,0,P|447:26|358:37,1,127.4999977112,2|2,0:1|0:2,0:0:0:0:
408,189,216975,6,0,P|419:289|429:370,1,169.9999904633,8|0,1:3|3:0,0:0:0:0:
189,291,217411,5,0,3:0:0:0:
189,291,217557,2,0,P|175:158|159:14,1,254.9999954224,10|2,0:1|1:0,0:0:0:0:
0,110,218140,6,0,P|24:111|56:97,1,42.49999761581,2|2,0:1|0:2,0:0:0:0:
40,213,218431,2,0,P|69:209|86:194,1,42.49999761581,2|2,0:1|0:2,0:0:0:0:
406,49,218722,6,0,P|352:10|281:27,1,127.4999977112,10|0,0:1|0:0,0:0:0:0:
262,168,219013,2,0,P|316:207|387:190,1,127.4999977112,2|2,0:1|0:2,0:0:0:0:
508,308,219305,6,0,B|425:318|443:348|341:360,1,169.9999904633,8|0,1:3|3:0,0:0:0:0:
174,201,219742,5,0,3:0:0:0:
174,201,219887,2,0,P|262:150|269:274,1,254.9999954224,10|2,0:1|1:0,0:0:0:0:
360,42,220470,6,0,L|349:93,2,42.49999761581,8|2|2,1:3|0:2|0:2,0:0:0:0:
143,62,220907,5,2,0:2:0:0:
143,62,221052,2,0,P|197:67|285:18,1,127.4999977112,10|2,0:1|0:2,0:0:0:0:
499,165,221343,2,0,P|445:160|357:209,1,127.4999977112,2|2,0:1|0:2,0:0:0:0:
271,209,221635,6,0,L|252:380,1,169.9999904633,8|2,1:3|0:2,0:0:0:0:
252,377,222072,1,2,0:2:0:0:
178,191,222217,6,0,B|103:215|103:215|65:307|65:307|-25:345,1,254.9999856949,10|2,0:1|1:0,0:0:0:0:
60,75,222800,5,4,3:0:0:0:
233,38,222945,1,0,3:0:0:0:
233,38,223018,1,0,3:0:0:0:
233,38,223091,1,0,3:0:0:0:
143,58,223237,1,8,3:0:0:0:
285,263,223382,6,0,L|302:105,1,127.4999977112,10|0,1:0|3:0,0:0:0:0:
473,314,223674,2,0,L|486:187,1,127.4999977112,2|0,1:0|3:0,0:0:0:0:
370,340,223965,6,0,P|218:366|112:385,1,254.9999954224,8|0,1:3|3:0,0:0:0:0:
119,384,224547,6,0,P|106:304|158:227,1,127.4999977112,10|0,0:1|0:0,0:0:0:0:
4,214,224839,2,0,P|30:157|91:115,1,127.4999977112,2|0,1:0|0:0,0:0:0:0:
161,9,225130,6,0,P|228:97|375:102,1,254.9999954224,8|2,1:3|0:2,0:0:0:0:
364,106,225712,6,0,L|353:234,1,127.4999977112,10|2,0:1|0:2,0:0:0:0:
486,224,226004,2,0,L|474:351,1,127.4999977112,2|2,0:1|0:2,0:0:0:0:
344,342,226295,6,0,B|254:325|254:325|207:354|207:354|86:327,1,254.9999856949,8|0,1:3|3:0,0:0:0:0:
101,330,226877,6,0,B|95:265|95:265|146:188,1,127.4999977112,10|0,0:1|0:0,0:0:0:0:
335,95,227169,2,0,B|281:132|281:132|189:126,1,127.4999977112,2|0,1:0|0:0,0:0:0:0:
3,3,227460,1,2,0:1:0:0:
3,3,227751,6,0,B|61:30|61:30|102:113,1,127.4999977112,2|2,0:1|0:2,0:0:0:0:
335,95,228042,2,0,B|281:132|281:132|189:126,1,127.4999977112,10|0,0:1|0:0,0:0:0:0:
101,330,228334,2,0,B|95:265|95:265|146:188,1,127.4999977112,2|2,0:1|0:2,0:0:0:0:
246,343,228625,6,0,P|334:361|372:368,1,127.4999928474,8|0,1:3|3:0,0:0:0:0:
512,282,229208,6,0,B|480:207|407:191|407:191|371:242|409:307,1,254.9999954224,10|2,0:1|1:0,0:0:0:0:
512,282,229644,1,0,0:0:0:0:
382,40,229790,6,0,B|299:35|327:59|238:50,1,127.4999928474,8|0,1:3|3:0,0:0:0:0:
171,122,230373,6,0,P|89:137|134:23,1,254.9999954224,10|2,0:1|0:1,0:0:0:0:
171,122,230809,1,0,0:0:0:0:
24,268,230955,6,0,B|136:262|89:309|191:305,1,169.9999904633,8|0,1:3|3:0,0:0:0:0:
298,231,231392,1,0,3:0:0:0:
298,231,231538,2,0,P|258:225|206:218,1,84.99999523163,10|2,0:1|1:0,0:0:0:0:
410,349,232120,5,4,3:0:0:0:
432,269,232266,1,0,3:0:0:0:
432,269,232339,1,0,3:0:0:0:
432,269,232411,1,0,3:0:0:0:
448,184,232557,1,8,3:0:0:0:
384,12,232703,6,0,P|393:65|402:134,1,84.99999761581,10|0,1:0|3:0,0:0:0:0:
448,184,232994,2,0,P|388:124|280:140,1,169.9999952316,2|0,1:0|0:0,0:0:0:0:
307,124,233576,1,0,0:0:0:0:
