osu file format v14

[General]
AudioFilename: audio.mp3
AudioLeadIn: 0
PreviewTime: 63188
Countdown: 0
SampleSet: Soft
StackLeniency: 0.3
Mode: 0
LetterboxInBreaks: 0
StoryFireInFront: 0
WidescreenStoryboard: 0

[Editor]
DistanceSpacing: 1.2
BeatDivisor: 4
GridSize: 32
TimelineZoom: 1.6

[Metadata]
Title:Something Just Like This
TitleUnicode:Something Just Like This
Artist:The Chainsmokers & Coldplay
ArtistUnicode:The Chainsmokers & Coldplay
Creator:handsome
Version:Plaudible's Normal
Source:
Tags:memories do not open paris closer andrew taggart alex pall edm electronic pop electropop dancepop fanzhen0019 regou plaudible
BeatmapID:1317286
BeatmapSetID:611301

[Difficulty]
HPDrainRate:3
CircleSize:3
OverallDifficulty:3
ApproachRate:4
SliderMultiplier:1.499999904633
SliderTickRate:1

[Events]
//Background and Video events
0,0,"bg.jpg",0,0
//Break Periods
2,140281,157402
//Storyboard Layer 0 (Background)
//Storyboard Layer 1 (Fail)
//Storyboard Layer 2 (Pass)
//Storyboard Layer 3 (Foreground)
//Storyboard Sound Samples

[TimingPoints]
276,582.5242718447,4,2,1,20,1,0
9596,-100,4,2,1,20,0,0
18916,-100,4,2,1,30,0,0
28237,-100,4,2,1,50,0,0
44547,-100,4,2,1,40,0,0
63771,-100,4,2,1,50,0,0
64062,-100,4,2,1,55,0,0
64353,-100,4,2,1,60,0,0
65518,-100,4,2,1,80,0,0
82703,-100,4,2,1,70,0,0
82994,-100,4,2,1,60,0,0
83285,-100,4,2,1,50,0,0
83576,-100,4,2,1,40,0,0
83868,-100,4,2,1,30,0,0
84159,-100,4,2,1,40,0,0
93479,-100,4,2,1,50,0,0
102800,-100,4,2,1,60,0,0
120858,-100,4,2,1,80,0,0
121441,-100,4,2,1,80,0,0
139499,-100,4,2,1,60,0,0
139790,-100,4,2,1,40,0,0
158722,-100,4,2,1,50,0,0
168042,-100,4,2,1,60,0,0
177363,-100,4,2,1,50,0,0
193091,-100,4,2,1,60,0,0
193674,-100,4,2,1,70,0,0
193965,-100,4,2,1,75,0,0
194256,-100,4,2,1,80,0,0
194547,-100,4,2,1,85,0,0
194839,-100,4,2,1,90,0,0
196004,-100,4,2,1,100,0,0
214644,-100,4,2,1,100,0,1
232703,-100,4,2,1,80,0,1
232994,-100,4,2,1,60,0,1
233285,-100,4,2,1,40,0,0

[Colours]
Combo1 : 255,242,204
Combo2 : 255,215,215
Combo3 : 255,204,230
Combo4 : 230,204,255
Combo5 : 204,230,255
Combo6 : 204,255,230
Combo7 : 240,255,225

[HitObjects]
186,358,9596,6,0,L|199:208,1,149.9999904633,2|0,0:0|0:0,0:0:0:0:
343,100,10761,2,0,P|424:82|489:113,2,149.9999904633,0|0|2,0:0|0:0|0:0,0:0:0:0:
63,326,13091,2,0,B|139:348|141:309|212:331,1,149.9999904633,0|0,0:0|0:0,0:0:0:0:
364,233,14256,6,0,P|400:169|377:93,1,149.9999904633,2|0,0:0|0:0,0:0:0:0:
202,83,15421,2,0,P|165:146|184:217,2,149.9999904633,0|0|2,0:0|0:0|0:0,0:0:0:0:
469,324,17751,2,0,L|302:314,1,149.9999904633
192,187,18916,6,0,P|263:169|331:197,1,149.9999904633,2|0,0:0|0:0,0:0:0:0:
471,311,20081,2,0,L|484:161,1,149.9999904633,0|2,0:0|0:0,0:0:0:0:
322,82,21246,2,0,B|251:37|186:95|186:95|182:137|192:177,1,224.9999856949,2|2,0:0|0:0,0:0:0:0:
311,304,22703,2,0,P|355:300|413:313,2,74.99999523163,0|2|0,0:1|0:0|0:1,0:1:0:0:
239,353,23576,6,0,P|171:364|83:303,2,149.9999904633,2|0|0,0:0|0:0|0:0,0:0:0:0:
391,257,25324,2,0,L|398:93,1,149.9999904633,2|2,0:0|0:0,0:0:0:0:
233,31,26489,2,0,L|239:180,1,149.9999904633
279,261,27363,2,0,P|222:271|185:254,2,74.99999523163,2|2|0,0:0|0:0|0:0,0:0:0:0:
358,305,28237,6,0,B|389:231|335:229|363:155,1,149.9999904633,4|0,0:1|0:0,0:0:0:0:
426,96,29110,2,0,L|505:91,2,74.99999523163,2|0|2,0:0|0:0|0:0,0:0:0:0:
339,70,29984,1,0,0:0:0:0:
158,66,30567,1,2,0:0:0:0:
92,233,31149,2,0,B|46:251|-2:226,1,74.99999523163,2|0,0:0|0:0,0:0:0:0:
48,150,31732,2,0,B|11:128|-1:89,2,74.99999523163,2|0|2,0:0|0:0|0:0,0:0:0:0:
144,150,32606,1,0,0:0:0:0:
144,150,32897,6,0,L|299:141,1,149.9999904633,2|2,0:0|0:0,0:0:0:0:
440,245,34062,2,0,P|447:294|427:338,2,74.99999523163,2|0|0,0:0|0:0|0:0,0:0:0:0:
358,283,34936,1,0,0:0:0:0:
358,283,35227,2,0,B|245:289|245:289|189:255,1,149.9999904633,2|0,0:0|0:0,0:0:0:0:
50,193,36392,2,0,L|49:93,1,74.99999523163,2|0,0:0|0:0,0:0:0:0:
120,62,36975,2,0,P|179:64|209:53,1,74.99999523163,2|0,0:0|0:0,0:0:0:0:
268,10,37557,6,0,P|239:77|295:151,1,149.9999904633,2|0,0:0|0:0,0:0:0:0:
356,176,38431,2,0,L|439:173,2,74.99999523163,2|2|0,0:0|0:0|0:0,0:0:0:0:
283,229,39305,2,0,P|271:290|280:313,1,74.99999523163,2|0,0:0|0:0,0:0:0:0:
350,348,39887,2,0,L|186:354,1,149.9999904633,2|0,0:0|0:0,0:0:0:0:
93,206,41052,2,0,P|36:211|7:200,2,74.99999523163,2|0|2,0:0|0:0|0:0,0:0:0:0:
168,156,41926,1,0,0:0:0:0:
168,156,42217,6,0,B|248:138|244:180|325:161,1,149.9999904633,2|0,0:0|0:0,0:0:0:0:
383,103,43091,2,0,L|386:18,2,74.99999523163,2|0|0,0:0|0:0|0:0,0:0:0:0:
315,162,43965,2,0,P|310:226|326:255,1,74.99999523163,2|0,0:0|0:0,0:0:0:0:
393,274,44547,2,0,L|238:281,1,149.9999904633,2|0,0:0|0:0,0:0:0:0:
67,242,45712,2,0,P|58:195|79:145,1,74.99999523163
18,91,46295,1,0,0:0:0:0:
18,91,46586,2,0,B|91:55|91:113|183:75,1,149.9999904633
337,31,47751,6,0,P|345:74|339:110,1,74.99999523163,0|2,0:0|0:0,0:0:0:0:
342,199,48334,1,0,0:0:0:0:
341,199,48625,2,0,P|328:276|343:356,1,149.9999904633,2|0,0:0|0:1,0:0:0:0:
100,220,50081,2,0,P|53:231|9:215,2,74.99999523163,0|2|0,0:0|0:0|0:0,0:0:0:0:
179,176,50955,2,0,P|215:170|251:181,1,74.99999523163,2|2,0:0|0:0,0:0:0:0:
309,249,51538,5,0,0:1:0:0:
474,35,52411,2,0,P|478:84|462:138,1,74.99999523163,0|2,0:0|0:0,0:0:0:0:
399,160,52994,1,0,0:0:0:0:
399,159,53285,2,0,P|317:139|244:167,1,149.9999904633,2|2,0:0|0:0,0:0:0:0:
201,229,54159,2,0,L|119:223,2,74.99999523163,0|2|0,0:0|0:0|0:0,0:0:0:0:
276,278,55033,2,0,L|350:272,1,74.99999523163,2|0,0:0|0:0,0:0:0:0:
427,318,55615,1,2,0:0:0:0:
427,318,55907,2,0,B|463:245|405:245|443:153,1,149.9999904633
315,38,57072,6,0,B|270:46|270:46|234:38,1,74.99999523163,0|2,0:0|0:0,0:0:0:0:
152,29,57654,1,0,0:0:0:0:
152,29,57945,2,0,B|98:31|98:31|71:38|71:38|42:31|42:31|-18:33,1,149.9999904633,2|0,0:0|0:1,0:0:0:0:
173,242,59402,2,0,B|213:249|213:249|263:233,2,74.99999523163,0|2|0,0:0|0:0|0:0,0:0:0:0:
85,221,60275,2,0,L|89:295,1,74.99999523163,2|2,0:0|0:0,0:0:0:0:
137,371,60858,5,0,0:1:0:0:
229,117,61732,2,0,P|188:127|151:118,1,74.99999523163,0|2,0:0|0:0,0:0:0:0:
72,91,62314,1,0,0:0:0:0:
72,91,62606,2,0,L|69:185,1,74.99999523163,2|2,0:0|0:0,0:0:0:0:
188,298,63479,2,0,P|231:308|285:292,2,74.99999523163,2|2|2,0:0|0:0|0:0,0:0:0:0:
122,238,64353,1,4,3:0:0:0:
141,149,64644,1,0,3:0:0:0:
225,121,64936,1,0,1:0:0:0:
291,184,65227,1,0,1:0:0:0:
379,154,65518,6,0,P|381:213|309:276,1,149.9999904633,8|10,1:3|0:1,0:0:0:0:
231,254,66392,1,2,1:0:0:0:
231,254,66683,2,0,P|200:207|232:115,1,149.9999904633,8|10,1:3|0:1,0:0:0:0:
310,92,67557,1,2,0:1:0:0:
310,92,67848,2,0,L|460:97,1,149.9999904633,8|10,1:3|0:1,0:0:0:0:
512,174,68722,1,2,1:0:0:0:
512,174,69013,2,0,L|506:269,1,74.99999523163,2|2,0:1|0:1,0:0:0:0:
451,319,69596,2,0,P|401:323|376:313,1,74.99999523163,10|2,0:1|0:1,0:0:0:0:
318,247,70178,6,0,L|159:240,1,149.9999904633,8|10,1:3|0:1,0:0:0:0:
89,195,71052,1,2,1:0:0:0:
89,195,71343,2,0,P|67:107|110:56,1,149.9999904633,8|10,1:3|0:1,0:0:0:0:
184,35,72217,1,2,0:1:0:0:
184,35,72509,2,0,L|285:40,1,74.99999523163,8|0,1:3|0:0,0:0:0:0:
341,74,73091,2,0,P|347:21|335:-7,2,74.99999523163,10|2|4,0:1|1:0|3:0,0:0:0:0:
283,143,73965,1,0,3:0:0:0:
195,126,74256,1,10,1:0:0:0:
134,192,74547,1,2,1:0:0:0:
44,180,74839,6,0,L|56:341,1,149.9999904633,8|10,1:3|0:1,0:0:0:0:
131,377,75712,1,2,1:0:0:0:
202,322,76004,2,0,B|282:302|282:353|370:324,1,149.9999904633,8|10,1:3|0:1,0:0:0:0:
423,279,76877,1,2,0:1:0:0:
509,303,77169,2,0,L|502:152,1,149.9999904633,8|10,1:3|0:1,0:0:0:0:
433,95,78042,1,2,1:0:0:0:
357,44,78334,2,0,P|309:36|276:47,1,74.99999523163,2|2,0:1|0:1,0:0:0:0:
219,104,78916,2,0,P|211:140|220:176,1,74.99999523163,10|2,0:1|0:1,0:0:0:0:
284,240,79499,6,0,P|204:219|145:251,1,149.9999904633,8|10,1:3|0:1,0:0:0:0:
90,318,80373,1,2,1:0:0:0:
6,285,80664,2,0,B|7:171|7:171|41:138,1,149.9999904633,8|10,1:3|0:1,0:0:0:0:
103,89,81538,1,2,0:1:0:0:
171,147,81829,2,0,P|241:176|324:142,1,149.9999904633,8|10,1:3|0:1,0:0:0:0:
374,93,82703,2,0,L|371:11,2,74.99999523163,2|0|2,0:1|0:0|0:1,0:0:0:0:
439,154,83576,2,0,P|451:204|434:244,1,74.99999523163,10|2,0:1|0:1,0:0:0:0:
382,290,84159,6,0,B|308:285|308:285|257:304|204:263,1,149.9999904633,2|0,3:0|3:0,0:0:0:0:
107,153,85324,2,0,P|160:129|265:174,1,149.9999904633,0|0,3:0|3:0,0:0:0:0:
389,260,86489,2,0,L|397:92,1,149.9999904633,2|0,3:0|3:0,0:0:0:0:
221,73,87654,2,0,B|145:83|145:83|48:54,2,149.9999904633,0|0|2,3:0|3:0|3:0,0:0:0:0:
397,38,89402,5,0,3:0:0:0:
339,208,89984,2,0,P|341:301|385:343,2,149.9999904633,0|0|2,3:0|3:0|3:0,0:0:0:0:
397,38,91732,1,0,3:0:0:0:
229,106,92314,2,0,B|156:129|155:79|68:112,1,149.9999904633,0|0,3:0|3:0,0:0:0:0:
138,283,93479,6,0,L|287:290,1,149.9999904633,2|0,3:2|3:0,0:0:0:0:
436,188,94644,2,0,B|453:118|405:72|405:72|355:67,2,149.9999904633,0|0|2,3:0|3:1|3:2,0:0:0:0:
322,327,96392,2,0,B|202:325|202:325|157:293,1,149.9999904633,0|0,3:0|3:0,0:0:0:0:
38,192,97557,1,0,3:1:0:0:
165,64,98140,6,0,L|335:52,2,149.9999904633,2|0|0,3:2|3:0|3:0,0:0:0:0:
38,192,99887,2,0,L|215:199,1,149.9999904633,0|0,3:1|3:0,0:0:0:0:
331,88,101052,2,0,P|295:147|339:230,1,149.9999904633,2|2,3:2|3:2,0:0:0:0:
392,273,101926,2,0,L|478:267,2,74.99999523163,0|2|0,0:1|3:2|0:0,0:0:0:0:
307,305,102800,6,0,B|234:340|230:283|135:318,1,149.9999904633,4|0,1:0|1:0,0:0:0:0:
81,354,103674,2,0,L|7:351,2,74.99999523163,2|2|0,0:2|1:2|0:0,0:0:0:0:
160,310,104547,1,2,1:2:0:0:
338,283,105130,1,2,1:2:0:0:
314,104,105712,2,0,P|359:88|403:93,1,74.99999523163,2|2,1:2|0:2,0:0:0:0:
370,179,106295,2,0,P|407:195|437:225,2,74.99999523163,2|2|2,1:2|1:2|1:2,0:0:0:0:
288,193,107169,1,0,0:0:0:0:
288,193,107460,6,0,P|210:194|139:204,1,149.9999904633,2|2,1:2|1:2,0:0:0:0:
16,334,108625,2,0,L|14:259,2,74.99999523163,2|0|0,1:2|0:0|1:0,0:0:0:0:
106,366,109499,1,0,0:0:0:0:
106,366,109790,2,0,B|221:366|221:366|263:336,1,149.9999904633,2|0,1:2|1:0,0:0:0:0:
414,273,110955,2,0,P|357:284|324:271,1,74.99999523163,2|0,1:2|3:0,0:0:0:0:
273,221,111538,2,0,P|261:185|263:149,1,74.99999523163,0|0,1:0|0:0,0:0:0:0:
327,84,112120,6,0,L|155:94,1,149.9999904633,2|0,1:2|1:0,0:0:0:0:
96,133,112994,2,0,P|85:83|100:43,2,74.99999523163,2|2|0,0:2|1:2|0:0,0:0:0:0:
172,181,113868,2,0,L|255:177,1,74.99999523163,2|0,1:2|0:0,0:0:0:0:
331,208,114450,2,0,P|359:264|329:344,1,149.9999904633,2|0,1:2|1:1,0:0:0:0:
152,366,115615,2,0,P|141:317|159:275,2,74.99999523163,2|0|2,1:2|0:0|1:2,0:0:0:0:
233,330,116489,1,0,0:0:0:0:
233,330,116780,6,0,P|235:255|235:180,1,149.9999904633,2|0,1:2|1:0,0:0:0:0:
166,121,117654,2,0,P|160:79|176:25,2,74.99999523163,2|2|2,0:2|1:2|0:2,0:0:0:0:
235,180,118528,2,0,P|277:186|331:170,1,74.99999523163,2|0,1:2|0:0,0:0:0:0:
391,144,119110,1,2,1:2:0:0:
449,314,119693,2,0,P|460:264|452:234,2,74.99999523163,2|0|4,1:2|1:0|1:3,0:0:0:0:
374,365,120567,1,2,1:3:0:0:
295,323,120858,1,0,3:0:0:0:
291,233,121149,1,0,3:0:0:0:
368,185,121441,6,0,P|392:125|345:44,1,149.9999904633,8|10,1:3|0:1,0:0:0:0:
267,42,122314,1,2,1:0:0:0:
267,42,122606,2,0,P|221:89|242:182,1,149.9999904633,8|10,1:3|0:1,0:0:0:0:
290,233,123479,1,2,0:1:0:0:
290,233,123771,2,0,L|113:220,1,149.9999904633,8|10,1:3|0:1,0:0:0:0:
60,180,124644,1,2,1:0:0:0:
60,180,124936,2,0,P|48:225|63:274,1,74.99999523163,2|2,0:1|0:1,0:0:0:0:
119,312,125518,2,0,L|205:319,1,74.99999523163,10|2,0:1|0:1,0:0:0:0:
284,290,126101,6,0,P|355:319|434:274,1,149.9999904633,8|10,1:3|0:1,0:0:0:0:
442,205,126975,1,2,1:0:0:0:
442,205,127266,2,0,P|392:147|302:155,1,149.9999904633,8|10,1:3|0:1,0:0:0:0:
255,204,128140,1,2,0:1:0:0:
255,204,128431,2,0,L|173:199,1,74.99999523163,8|2,1:3|0:0,0:0:0:0:
106,147,129013,2,0,P|116:97|106:64,2,74.99999523163,10|2|4,0:1|1:0|3:0,0:0:0:0:
38,206,129887,1,0,3:0:0:0:
65,291,130178,1,10,1:0:0:0:
155,285,130470,1,2,1:0:0:0:
179,200,130761,6,0,B|221:165|221:165|343:168,1,149.9999904633,8|10,1:3|0:1,0:0:0:0:
375,235,131635,1,2,1:0:0:0:
428,306,131926,2,0,B|386:341|386:341|264:338,1,149.9999904633,8|10,1:3|0:1,0:0:0:0:
222,279,132800,1,2,0:1:0:0:
156,340,133091,2,0,P|134:298|175:201,1,149.9999904633,8|10,1:3|0:1,0:0:0:0:
255,189,133965,1,2,1:0:0:0:
308,261,134256,2,0,L|387:258,1,74.99999523163,2|2,0:1|0:1,0:0:0:0:
457,206,134839,2,0,P|463:158|432:109,1,74.99999523163,10|2,0:1|0:1,0:0:0:0:
389,71,135421,6,0,L|225:68,1,149.9999904633,8|10,1:3|0:1,0:0:0:0:
148,67,136295,1,2,1:0:0:0:
100,143,136586,2,0,B|106:249|106:249|155:298,1,149.9999904633,8|10,1:3|0:1,0:0:0:0:
209,333,137460,1,2,0:1:0:0:
285,285,137751,2,0,L|390:281,1,74.99999523163,8|2,1:3|0:0,0:0:0:0:
440,242,138334,2,0,P|450:283|442:318,2,74.99999523163,10|2|4,0:1|1:0|3:0,0:0:0:0:
364,192,139208,1,0,3:0:0:0:
384,104,139499,1,10,0:1:0:0:
473,97,139790,1,2,0:1:0:0:
507,180,140081,5,0,0:0:0:0:
166,50,158722,6,0,P|128:107|165:200,1,149.9999904633,0|0,1:0|1:0,0:0:0:0:
295,282,159887,2,0,L|449:275,2,149.9999904633,0|0|0,1:0|1:0|1:0,0:0:0:0:
122,228,161635,2,0,B|120:335|120:335|141:377,2,149.9999904633,0|0|0,1:0|1:0|1:0,0:0:0:0:
221,77,163382,6,0,P|271:49|367:86,1,149.9999904633,0|0,1:0|1:0,0:0:0:0:
469,213,164547,2,0,B|491:248|491:248|480:368,2,149.9999904633,0|0|0,1:0|1:0|1:0,0:0:0:0:
355,73,166295,1,0,1:0:0:0:
220,192,166877,2,0,P|140:215|68:177,1,149.9999904633,0|0,1:0|1:0,0:0:0:0:
158,27,168042,6,0,L|317:19,1,149.9999904633,4|0,1:0|1:0,0:0:0:0:
380,72,168916,2,0,L|454:79,2,74.99999523163,8|0|0,0:1|1:0|0:0,0:0:0:0:
328,145,169790,2,0,P|304:217|339:304,1,149.9999904633,8|4,1:0|1:0,0:0:0:0:
484,368,170955,1,0,1:0:0:0:
324,285,171538,2,0,L|241:288,2,74.99999523163,0|8|8,1:0|0:1|1:0,0:0:0:0:
402,328,172411,1,0,0:0:0:0:
402,328,172703,6,0,B|436:250|374:249|410:155,1,149.9999904633,4|0,1:0|1:0,0:0:0:0:
485,22,173868,2,0,P|441:14|390:39,1,74.99999523163,0|0,1:0|0:0,0:0:0:0:
349,86,174450,2,0,P|307:94|259:83,1,74.99999523163,8|0,1:0|0:0,0:0:0:0:
202,35,175033,1,4,1:0:0:0:
31,97,175615,2,0,L|24:14,2,74.99999523163,0|0|4,1:0|0:0|1:3,0:0:0:0:
40,186,176489,1,0,3:0:0:0:
122,221,176780,1,0,1:0:0:0:
130,310,177072,1,0,0:0:0:0:
214,340,177363,6,0,P|295:340|195:272,1,299.9999809265,4|2,0:1|0:0,0:0:0:0:
34,314,179110,1,2,0:0:0:0:
77,139,179693,2,0,B|128:139|166:120|166:120|225:153|278:129|278:129|329:102|381:126,1,299.9999809265,2|2,0:0|0:0,0:0:0:0:
470,267,181441,1,2,0:3:0:0:
306,341,182023,6,0,P|211:323|318:259,1,299.9999809265,2|2,0:0|0:0,0:0:0:0:
227,101,183771,1,2,0:3:0:0:
61,186,184353,2,0,P|51:97|83:43,2,149.9999904633,2|2|2,0:0|0:3|0:0,0:0:0:0:
193,308,186101,1,2,0:3:0:0:
325,186,186683,6,0,B|389:178|432:205|432:205|398:274|342:304|270:271,1,299.9999809265,2|2,0:0|0:0,0:0:0:0:
154,144,188431,1,2,0:0:0:0:
93,313,189013,2,0,B|73:355|23:369|23:369|-11:280|62:237|62:237|56:205|37:150,1,299.9999809265,2|2,0:3|0:0,0:0:0:0:
179,34,190761,1,2,0:3:0:0:
293,172,191343,6,0,P|382:181|452:163,2,149.9999904633,2|2|2,0:0|0:0|0:0,0:0:0:0:
145,69,193091,1,2,0:0:0:0:
122,247,193674,1,0,0:0:0:0:
122,247,193965,2,0,L|38:242,2,74.99999523163,2|2|2,0:0|0:0|0:0,0:0:0:0:
205,281,194839,1,4,3:0:0:0:
277,226,195130,1,0,3:0:0:0:
266,137,195421,1,8,1:0:0:0:
337,82,195712,1,0,1:0:0:0:
423,106,196004,6,0,B|451:179|406:181|433:257,1,149.9999904633,8|10,1:3|0:1,0:0:0:0:
478,329,196877,1,2,1:0:0:0:
397,369,197169,2,0,L|236:360,1,149.9999904633,8|10,1:3|0:1,0:0:0:0:
177,303,198042,1,2,0:1:0:0:
111,240,198334,2,0,B|82:203|82:203|90:76,1,149.9999904633,8|10,1:3|0:1,0:0:0:0:
161,46,199208,1,2,1:0:0:0:
229,104,199499,2,0,P|274:113|323:98,1,74.99999523163,6|2,0:1|0:1,0:0:0:0:
370,49,200081,2,0,P|415:40|464:55,1,74.99999523163,10|2,0:1|0:1,0:0:0:0:
509,106,200664,6,0,B|506:164|506:164|486:191|486:191|483:256,1,149.9999904633,8|10,1:3|0:1,0:0:0:0:
413,306,201538,1,2,1:0:0:0:
335,351,201829,2,0,L|175:345,1,149.9999904633,8|10,1:3|0:1,0:0:0:0:
101,310,202703,1,2,0:1:0:0:
17,277,202994,2,0,P|98:218|160:240,1,149.9999904633,8|10,1:3|0:1,0:0:0:0:
222,260,203868,1,2,1:0:0:0:
296,209,204159,2,0,L|291:128,1,74.99999523163,8|0,3:0|3:0,0:0:0:0:
213,87,204742,2,0,L|134:93,1,74.99999523163,10|2,1:0|1:0,0:0:0:0:
60,47,205324,6,0,P|96:119|59:192,1,149.9999904633,8|10,1:3|0:1,0:0:0:0:
8,243,206198,1,2,1:0:0:0:
58,317,206489,2,0,B|121:313|121:313|162:331|162:331|229:326,1,149.9999904633,8|10,1:3|0:1,0:0:0:0:
279,272,207363,1,2,0:1:0:0:
343,335,207654,2,0,P|369:272|331:195,1,149.9999904633,8|10,1:3|0:1,0:0:0:0:
250,176,208528,1,2,1:0:0:0:
189,242,208819,2,0,L|97:239,1,74.99999523163,6|2,0:1|0:1,0:0:0:0:
38,190,209402,2,0,P|32:150|45:105,1,74.99999523163,10|2,0:1|0:1,0:0:0:0:
107,57,209984,6,0,B|171:55|171:55|205:74|205:74|280:71,1,149.9999904633,8|10,1:3|0:1,0:0:0:0:
327,23,210858,1,2,1:0:0:0:
395,81,211149,2,0,P|420:176|384:248,1,149.9999904633,8|10,1:3|0:1,0:0:0:0:
346,291,212023,1,2,0:1:0:0:
268,245,212314,2,0,B|229:237|229:237|183:250,1,74.99999523163,8|0,1:3|3:0,0:0:0:0:
144,321,212897,2,0,L|53:316,2,74.99999523163,10|2|4,0:1|1:0|3:0,0:0:0:0:
237,329,213771,1,0,3:0:0:0:
268,245,214062,1,10,1:0:0:0:
203,182,214353,1,2,1:0:0:0:
229,96,214644,6,0,B|347:92|347:92|400:117,1,149.9999904633,8|10,1:3|0:1,0:0:0:0:
453,151,215518,1,2,1:0:0:0:
445,240,215809,2,0,L|436:327,2,74.99999523163,8|2|10,1:3|0:2|0:1,0:0:0:0:
453,151,216683,1,2,0:1:0:0:
375,105,216975,2,0,L|210:111,1,149.9999904633,8|10,1:3|0:1,0:0:0:0:
156,167,217848,1,2,1:0:0:0:
71,134,218140,2,0,P|66:187|92:232,1,74.99999523163,2|2,0:1|0:1,0:0:0:0:
146,258,218722,2,0,P|205:245|233:214,1,74.99999523163,10|2,0:1|0:1,0:0:0:0:
248,154,219305,6,0,P|211:91|120:82,1,149.9999904633,8|10,1:3|0:1,0:0:0:0:
71,134,220178,1,2,1:0:0:0:
4,195,220470,2,0,L|1:287,2,74.99999523163,8|2|10,1:3|0:2|0:1,0:0:0:0:
71,134,221343,1,2,0:1:0:0:
142,188,221635,2,0,B|215:187|215:187|256:209|310:178,1,149.9999904633,8|10,1:3|0:1,0:0:0:0:
346,118,222509,1,2,1:0:0:0:
426,157,222800,2,0,L|424:248,1,74.99999523163,4|0,3:0|3:0,0:0:0:0:
369,302,223382,2,0,P|323:294|290:301,1,74.99999523163,10|2,1:0|1:0,0:0:0:0:
242,371,223965,6,0,L|245:217,1,149.9999904633,8|10,1:3|0:1,0:0:0:0:
198,143,224839,1,2,1:0:0:0:
240,63,225130,2,0,P|197:51|162:59,2,74.99999523163,8|2|10,1:3|0:2|0:1,0:0:0:0:
327,91,226004,1,2,0:1:0:0:
381,19,226295,2,0,P|415:76|368:173,1,149.9999904633,8|10,1:3|0:1,0:0:0:0:
308,182,227169,1,2,1:0:0:0:
242,120,227460,2,0,L|145:117,1,74.99999523163,2|2,0:1|0:1,0:0:0:0:
85,78,228042,2,0,P|77:111|90:165,1,74.99999523165,10|2,0:1|0:1,0:0:0:0:
37,227,228625,6,0,P|115:194|184:228,1,149.9999904633,8|10,1:3|0:1,0:0:0:0:
236,279,229499,1,2,1:0:0:0:
305,336,229790,2,0,P|383:369|452:335,1,149.9999904633,8|10,1:3|0:1,0:0:0:0:
489,272,230664,1,2,0:1:0:0:
435,200,230955,2,0,P|394:193|350:206,1,74.99999523163,8|0,1:3|3:0,0:0:0:0:
303,262,231538,2,0,L|305:341,2,74.99999523163,10|2|4,0:1|1:0|3:0,0:0:0:0:
262,182,232411,1,0,3:0:0:0:
171,186,232703,1,10,1:0:0:0:
133,268,232994,1,2,1:0:0:0:
183,343,233285,5,0,0:0:0:0:
