osu file format v14

[General]
AudioFilename: audio.mp3
AudioLeadIn: 0
PreviewTime: 63188
Countdown: 0
SampleSet: Soft
StackLeniency: 0.3
Mode: 0
LetterboxInBreaks: 0
StoryFireInFront: 0
WidescreenStoryboard: 0

[Editor]
DistanceSpacing: 0.5
BeatDivisor: 4
GridSize: 32
TimelineZoom: 1.6

[Metadata]
Title:Something Just Like This
TitleUnicode:Something Just Like This
Artist:The Chainsmokers & Coldplay
ArtistUnicode:The Chainsmokers & Coldplay
Creator:handsome
Version:Master
Source:
Tags:memories do not open paris closer andrew taggart alex pall edm electronic pop electropop dancepop fanzhen0019 regou plaudible
BeatmapID:1290536
BeatmapSetID:611301

[Difficulty]
HPDrainRate:6
CircleSize:4
OverallDifficulty:9
ApproachRate:9
SliderMultiplier:2.799999904633
SliderTickRate:1

[Events]
//Background and Video events
0,0,"bg.jpg",0,0
//Break Periods
2,140281,148802
2,149602,156957
//Storyboard Layer 0 (Background)
//Storyboard Layer 1 (Fail)
//Storyboard Layer 2 (Pass)
//Storyboard Layer 3 (Foreground)
//Storyboard Sound Samples

[TimingPoints]
276,582.5242718447,4,2,1,20,1,0
9596,-1000,4,2,1,20,0,0
18916,-250,4,2,1,20,0,0
28237,-1000,4,2,1,50,0,0
44547,-500,4,2,1,40,0,0
63771,-200,4,2,1,50,0,0
64062,-125,4,2,1,55,0,0
64353,-90.90909090909,4,2,1,60,0,0
65518,-500,4,2,1,80,0,0
66101,-50,4,2,1,80,0,0
66683,-500,4,2,1,80,0,0
67266,-50,4,2,1,80,0,0
67848,-500,4,2,1,80,0,0
68431,-50,4,2,1,80,0,0
70178,-500,4,2,1,80,0,0
70761,-50,4,2,1,80,0,0
71343,-500,4,2,1,80,0,0
71926,-50,4,2,1,80,0,0
72509,-500,4,2,1,80,0,0
73091,-50,4,2,1,80,0,0
74839,-500,4,2,1,80,0,0
75421,-50,4,2,1,80,0,0
76004,-500,4,2,1,80,0,0
76586,-50,4,2,1,80,0,0
77169,-500,4,2,1,80,0,0
77751,-50,4,2,1,80,0,0
79499,-500,4,2,1,80,0,0
80081,-50,4,2,1,80,0,0
80664,-500,4,2,1,80,0,0
81246,-50,4,2,1,80,0,0
81829,-500,4,2,1,80,0,0
82411,-50,4,2,1,80,0,0
82703,-58.82352941177,4,2,1,70,0,0
82994,-71.42857142857,4,2,1,60,0,0
83285,-90.90909090909,4,2,1,50,0,0
83576,-125,4,2,1,40,0,0
83868,-200,4,2,1,30,0,0
84159,-500,4,2,1,40,0,0
93479,-250,4,2,1,50,0,0
102800,-142.8571428571,4,2,1,60,0,0
119693,-71.42857142857,4,2,1,60,0,0
120858,-200,4,2,1,80,0,0
120931,-200,4,2,1,40,0,0
121004,-200,4,2,1,80,0,0
121076,-200,4,2,1,40,0,0
121149,-200,4,2,1,80,0,0
121222,-200,4,2,1,40,0,0
121295,-200,4,2,1,80,0,0
121368,-200,4,2,1,40,0,0
121441,-250,4,2,1,80,0,0
122023,-50,4,2,1,80,0,0
122897,-250,4,2,1,80,0,0
123188,-50,4,2,1,80,0,0
124062,-250,4,2,1,80,0,0
124353,-50,4,2,1,80,0,0
126101,-250,4,2,1,80,0,0
126683,-50,4,2,1,80,0,0
127557,-250,4,2,1,80,0,0
127848,-50,4,2,1,80,0,0
128722,-250,4,2,1,80,0,0
129013,-50,4,2,1,80,0,0
130761,-250,4,2,1,80,0,0
131343,-50,4,2,1,80,0,0
132217,-250,4,2,1,80,0,0
132508,-50,4,2,1,80,0,0
133382,-250,4,2,1,80,0,0
133673,-50,4,2,1,80,0,0
135421,-250,4,2,1,80,0,0
136003,-50,4,2,1,80,0,0
136877,-250,4,2,1,80,0,0
137168,-50,4,2,1,80,0,0
138042,-250,4,2,1,80,0,0
138333,-50,4,2,1,80,0,0
138625,-66.66666666667,4,2,1,80,0,0
138916,-100,4,2,1,80,0,0
139499,-100,4,2,1,60,0,0
139790,-100,4,2,1,40,0,0
158722,-250,4,2,1,50,0,0
168042,-142.8571428571,4,2,1,60,0,0
177363,-1000,4,2,1,50,0,0
177509,-1000,4,2,1,10,0,0
177654,-1000,4,2,1,50,0,0
177800,-1000,4,2,1,10,0,0
177945,-1000,4,2,1,50,0,0
178091,-1000,4,2,1,10,0,0
178236,-1000,4,2,1,50,0,0
178382,-1000,4,2,1,10,0,0
178527,-1000,4,2,1,50,0,0
178674,-1000,4,2,1,10,0,0
178819,-1000,4,2,1,50,0,0
179256,-1000,4,2,1,10,0,0
179401,-1000,4,2,1,50,0,0
179839,-1000,4,2,1,10,0,0
179984,-1000,4,2,1,50,0,0
180130,-1000,4,2,1,10,0,0
180275,-1000,4,2,1,50,0,0
180421,-1000,4,2,1,10,0,0
180566,-1000,4,2,1,50,0,0
180712,-1000,4,2,1,10,0,0
180857,-1000,4,2,1,50,0,0
181004,-1000,4,2,1,10,0,0
181149,-1000,4,2,1,50,0,0
181295,-1000,4,2,1,10,0,0
181440,-1000,4,2,1,50,0,0
181877,-1000,4,2,1,10,0,0
182022,-1000,4,2,1,50,0,0
182169,-1000,4,2,1,10,0,0
182314,-1000,4,2,1,50,0,0
182460,-1000,4,2,1,10,0,0
182605,-1000,4,2,1,50,0,0
182751,-1000,4,2,1,10,0,0
182896,-1000,4,2,1,50,0,0
183042,-1000,4,2,1,10,0,0
183187,-1000,4,2,1,50,0,0
183334,-1000,4,2,1,10,0,0
183479,-1000,4,2,1,50,0,0
184499,-1000,4,2,1,10,0,0
184644,-1000,4,2,1,50,0,0
185664,-1000,4,2,1,10,0,0
185809,-1000,4,2,1,50,0,0
186829,-1000,4,2,1,10,0,0
186974,-1000,4,2,1,50,0,0
187120,-1000,4,2,1,10,0,0
187265,-1000,4,2,1,50,0,0
187411,-1000,4,2,1,10,0,0
187556,-1000,4,2,1,50,0,0
187703,-1000,4,2,1,10,0,0
187848,-1000,4,2,1,50,0,0
187994,-1000,4,2,1,10,0,0
188139,-1000,4,2,1,50,0,0
188576,-1000,4,2,1,10,0,0
188721,-1000,4,2,1,50,0,0
189450,-1000,4,2,1,10,0,0
189595,-1000,4,2,1,50,0,0
189742,-1000,4,2,1,10,0,0
189887,-1000,4,2,1,50,0,0
190033,-1000,4,2,1,10,0,0
190178,-1000,4,2,1,50,0,0
190324,-1000,4,2,1,10,0,0
190469,-1000,4,2,1,50,0,0
190615,-1000,4,2,1,10,0,0
190760,-1000,4,2,1,50,0,0
191198,-1000,4,2,1,10,0,0
191343,-1000,4,2,1,50,0,0
191489,-1000,4,2,1,10,0,0
191634,-1000,4,2,1,50,0,0
191780,-1000,4,2,1,10,0,0
191925,-1000,4,2,1,50,0,0
192072,-1000,4,2,1,10,0,0
192217,-1000,4,2,1,50,0,0
192363,-1000,4,2,1,10,0,0
192508,-1000,4,2,1,50,0,0
192800,-500,4,2,1,55,0,0
193091,-250,4,2,1,60,0,0
193382,-100,4,2,1,65,0,0
193674,-62.5,4,2,1,70,0,0
193965,-83.33333333333,4,2,1,75,0,0
194256,-71.42857142857,4,2,1,80,0,0
194547,-58.82352941177,4,2,1,85,0,0
194839,-50,4,2,1,90,0,0
196004,-250,4,2,1,100,0,0
196586,-40,4,2,1,100,0,0
197169,-250,4,2,1,100,0,0
197751,-40,4,2,1,100,0,0
198334,-250,4,2,1,100,0,0
198916,-40,4,2,1,100,0,0
200664,-250,4,2,1,100,0,0
201246,-40,4,2,1,100,0,0
201829,-250,4,2,1,100,0,0
202411,-40,4,2,1,100,0,0
202994,-250,4,2,1,100,0,0
203576,-40,4,2,1,100,0,0
205324,-250,4,2,1,100,0,0
205906,-40,4,2,1,100,0,0
206489,-250,4,2,1,100,0,0
207071,-40,4,2,1,100,0,0
207654,-250,4,2,1,100,0,0
208236,-40,4,2,1,100,0,0
209984,-250,4,2,1,100,0,0
210566,-40,4,2,1,100,0,0
211149,-250,4,2,1,100,0,0
211731,-40,4,2,1,100,0,0
212314,-250,4,2,1,100,0,0
212896,-40,4,2,1,100,0,0
214644,-250,4,2,1,100,0,1
215226,-40,4,2,1,100,0,1
216975,-250,4,2,1,100,0,1
217557,-40,4,2,1,100,0,1
219305,-250,4,2,1,100,0,1
219887,-40,4,2,1,100,0,1
221635,-250,4,2,1,100,0,1
222217,-40,4,2,1,100,0,1
223965,-250,4,2,1,100,0,1
224547,-40,4,2,1,100,0,1
226295,-250,4,2,1,100,0,1
226877,-40,4,2,1,100,0,1
228625,-250,4,2,1,100,0,1
229207,-35.71428571429,4,2,1,100,0,1
229790,-250,4,2,1,100,0,1
230372,-31.25,4,2,1,100,0,1
230955,-250,4,2,1,100,0,1
231537,-40,4,2,1,100,0,1
232703,-40,4,2,1,80,0,1
232994,-40,4,2,1,60,0,1
233285,-100,4,2,1,40,0,0

[Colours]
Combo1 : 255,242,204
Combo2 : 255,215,215
Combo3 : 255,204,230
Combo4 : 230,204,255
Combo5 : 204,230,255
Combo6 : 204,255,230
Combo7 : 240,255,225

[HitObjects]
51,84,9596,6,0,P|64:84|81:92,1,27.99999904633,2|0,0:0|0:0,0:0:0:0:
108,174,10470,5,0,0:0:0:0:
290,217,10761,5,0,0:0:0:0:
312,136,11052,1,0,0:0:0:0:
264,68,11343,1,0,0:0:0:0:
108,174,11635,5,0,0:0:0:0:
368,249,11926,6,0,P|373:236|373:222,1,27.99999904633,2|0,0:0|0:0,0:0:0:0:
331,17,12800,5,0,0:0:0:0:
289,81,13091,1,0,0:0:0:0:
337,139,13382,1,0,0:0:0:0:
407,112,13674,1,0,0:0:0:0:
404,37,13965,1,0,0:0:0:0:
65,142,14256,6,0,P|65:155|70:168,1,27.99999904633,2|0,0:0|0:0,0:0:0:0:
284,317,15130,5,0,0:0:0:0:
359,202,15421,1,0,0:0:0:0:
273,98,15712,1,0,0:0:0:0:
147,146,16004,1,0,0:0:0:0:
152,281,16295,1,0,0:0:0:0:
382,121,16586,6,0,P|369:115|355:115,1,27.99999904633,2|0,0:0|0:0,0:0:0:0:
57,298,17460,5,0,0:0:0:0:
10,232,17751,1,0,0:0:0:0:
45,157,18042,1,0,0:0:0:0:
258,204,18334,5,0,0:0:0:0:
88,225,18625,1,0,0:0:0:0:
337,193,18916,6,0,L|326:286,2,83.99999713898,2|8|8,0:0|0:1|0:1,0:0:0:0:
436,88,20081,5,0,0:0:0:0:
411,168,20373,1,0,0:0:0:0:
359,107,20664,2,0,P|327:90|300:58,1,55.99999809265,8|0,0:1|0:0,0:0:0:0:
158,137,21246,6,0,P|195:114|249:110,2,83.99999713898,2|8|8,0:0|0:1|0:1,0:0:0:0:
72,9,22411,5,0,0:0:0:0:
143,55,22703,1,8,0:1:0:0:
68,96,22994,2,0,L|85:162,1,55.99999809265,8|0,0:1|0:0,0:0:0:0:
105,258,23576,6,0,P|75:234|27:218,2,83.99999713898,2|8|8,0:0|0:1|0:1,0:0:0:0:
100,355,24742,5,0,0:0:0:0:
164,307,25033,1,0,0:0:0:0:
232,350,25324,2,0,L|295:339,1,55.99999809265,8|0,0:1|0:0,0:0:0:0:
487,250,25907,5,2,0:0:0:0:
487,250,26489,5,0,0:0:0:0:
483,276,26780,1,8,1:0:0:0:
388,320,27072,5,0,0:0:0:0:
362,214,27363,1,8,0:1:0:0:
509,83,27654,5,8,0:1:0:0:
486,253,27945,1,0,0:0:0:0:
91,239,28237,5,4,0:1:0:0:
87,237,28528,1,0,0:0:0:0:
83,235,28819,1,0,0:0:0:0:
106,159,29110,5,2,0:0:0:0:
103,155,29402,1,0,0:0:0:0:
156,94,29693,5,2,0:0:0:0:
155,89,29984,1,0,0:0:0:0:
220,39,30275,5,2,0:0:0:0:
426,127,30567,5,2,0:0:0:0:
430,126,30858,1,0,0:0:0:0:
251,281,31149,5,2,0:0:0:0:
251,285,31441,1,0,0:0:0:0:
387,261,31732,5,2,0:0:0:0:
385,256,32023,1,0,0:0:0:0:
287,356,32314,5,2,0:0:0:0:
291,357,32606,1,0,0:0:0:0:
311,220,32897,5,2,0:0:0:0:
306,221,33188,1,0,0:0:0:0:
370,343,33479,5,2,0:0:0:0:
372,340,33771,1,0,0:0:0:0:
185,206,34062,5,2,0:0:0:0:
180,205,34353,1,0,0:0:0:0:
175,204,34644,1,0,0:0:0:0:
170,203,34936,1,0,0:0:0:0:
255,165,35227,5,2,0:0:0:0:
250,164,35518,1,0,0:0:0:0:
245,163,35809,1,0,0:0:0:0:
317,117,36101,5,2,0:0:0:0:
83,39,36392,5,2,0:0:0:0:
84,43,36683,1,0,0:0:0:0:
180,110,36975,5,2,0:0:0:0:
179,114,37266,1,0,0:0:0:0:
31,182,37557,5,2,0:0:0:0:
32,186,37848,1,0,0:0:0:0:
33,190,38140,1,0,0:0:0:0:
189,276,38431,5,2,0:0:0:0:
83,39,38722,5,2,0:0:0:0:
84,43,39013,1,0,0:0:0:0:
150,93,39305,5,2,0:0:0:0:
151,97,39596,1,0,0:0:0:0:
218,150,39887,5,2,0:0:0:0:
219,154,40178,1,0,0:0:0:0:
220,158,40470,1,0,0:0:0:0:
189,276,40761,5,2,0:0:0:0:
443,347,41052,5,2,0:0:0:0:
445,351,41343,1,0,0:0:0:0:
467,270,41635,5,2,0:0:0:0:
471,271,41926,1,0,0:0:0:0:
441,24,42217,5,2,0:0:0:0:
441,24,42606,1,0,0:0:0:0:
157,318,43091,5,2,0:0:0:0:
157,322,43382,1,0,0:0:0:0:
157,326,43674,1,0,0:0:0:0:
278,197,43965,5,2,0:0:0:0:
277,201,44256,1,0,0:0:0:0:
169,112,44547,5,2,0:0:0:0:
169,112,45130,5,0,0:0:0:0:
220,54,45421,1,0,0:0:0:0:
293,27,45712,1,0,0:0:0:0:
370,37,46004,1,0,0:0:0:0:
433,82,46295,1,0,0:0:0:0:
468,151,46586,1,0,0:0:0:0:
149,348,46877,5,4,0:1:0:0:
133,273,47169,1,0,0:0:0:0:
117,198,47460,1,0,0:0:0:0:
289,325,47751,6,0,L|315:330,2,13.99999952316,0|0|2,0:0|0:0|0:0,0:0:0:0:
367,279,48334,2,0,L|393:284,2,13.99999952316,0|0|2,0:0|0:0|0:0,0:0:0:0:
445,233,48916,5,2,0:0:0:0:
174,21,49208,5,4,0:1:0:0:
247,44,49499,1,0,0:0:0:0:
320,68,49790,1,0,0:0:0:0:
124,154,50081,6,0,L|106:174,2,13.99999952316,0|0|2,0:0|0:0|0:0,0:0:0:0:
125,244,50664,2,0,L|107:264,2,13.99999952316,0|0|2,0:0|0:0|0:0,0:0:0:0:
125,335,51246,5,2,0:0:0:0:
444,206,51538,5,4,0:1:0:0:
387,258,51829,1,0,0:0:0:0:
330,309,52120,1,0,0:0:0:0:
354,96,52411,6,0,L|346:71,2,13.99999952316,0|0|2,0:0|0:0|0:0,0:0:0:0:
275,52,52994,2,0,L|267:27,2,13.99999952316,0|0|2,0:0|0:0|0:0,0:0:0:0:
197,7,53576,5,2,0:0:0:0:
36,341,53868,5,2,0:0:0:0:
116,322,54159,1,0,0:0:0:0:
304,188,54450,5,2,0:0:0:0:
121,157,54742,1,0,0:0:0:0:
164,254,55033,5,2,0:0:0:0:
242,242,55324,1,0,0:0:0:0:
228,125,55615,5,2,0:0:0:0:
215,123,55907,1,0,0:0:0:0:
305,344,56198,5,4,0:1:0:0:
437,267,56489,1,0,0:0:0:0:
445,114,56780,1,0,0:0:0:0:
303,192,57072,5,0,0:0:0:0:
300,205,57217,1,0,0:0:0:0:
336,270,57363,1,2,0:0:0:0:
336,270,57654,5,0,0:0:0:0:
386,182,57800,1,0,0:0:0:0:
316,107,57945,1,2,0:0:0:0:
76,224,58237,5,2,0:0:0:0:
305,344,58528,5,4,0:1:0:0:
162,320,58819,1,0,0:0:0:0:
19,296,59110,1,0,0:0:0:0:
138,132,59402,5,0,0:0:0:0:
140,146,59547,1,0,0:0:0:0:
154,242,59693,1,2,0:0:0:0:
154,242,59984,5,0,0:0:0:0:
253,225,60130,1,0,0:0:0:0:
352,208,60275,1,2,0:0:0:0:
479,356,60567,5,2,0:0:0:0:
393,35,60858,5,4,0:1:0:0:
415,264,61149,1,0,0:0:0:0:
318,80,61441,1,0,0:0:0:0:
261,224,61732,5,0,0:0:0:0:
255,212,61877,1,0,0:0:0:0:
204,277,62023,1,2,0:0:0:0:
204,277,62314,5,0,0:0:0:0:
161,162,62460,1,0,0:0:0:0:
129,239,62606,1,2,0:0:0:0:
60,46,62897,5,2,0:0:0:0:
277,95,63188,1,0,0:0:0:0:
76,328,63479,5,2,0:0:0:0:
396,251,63771,2,0,P|402:211|397:193,1,34.99999880791,2|0,0:0|0:0,0:0:0:0:
231,166,64062,6,0,P|238:202|276:257,1,55.99999809265,2|0,0:0|0:0,0:0:0:0:
474,160,64353,6,0,P|474:118|447:61,1,76.99999972725,4|0,3:0|3:0,0:0:0:0:
457,79,64572,1,0,3:0:0:0:
449,76,64644,1,0,3:0:0:0:
308,282,64790,1,8,3:0:0:0:
117,106,64936,5,0,1:0:0:0:
99,194,65081,1,0,3:0:0:0:
187,213,65227,1,0,1:0:0:0:
205,125,65373,1,0,3:0:0:0:
30,346,65518,6,0,P|59:334|75:335,1,41.99999856949,8|0,1:3|0:0,0:0:0:0:
138,280,66101,6,0,P|191:321|342:299,1,139.9999952316,10|0,0:1|0:0,0:0:0:0:
349,377,66392,2,0,P|359:308|401:253,1,139.9999952316,2|0,1:0|0:0,0:0:0:0:
479,212,66683,6,0,L|491:256,1,41.99999856949,8|0,1:3|0:0,0:0:0:0:
412,156,67266,6,0,L|235:145,1,139.9999952316,10|0,0:1|0:0,0:0:0:0:
222,223,67557,2,0,L|45:234,1,139.9999952316,2|0,0:1|0:0,0:0:0:0:
0,225,67848,6,0,P|2:204|11:185,1,41.99999856949,8|0,1:3|0:0,0:0:0:0:
0,101,68431,6,0,P|66:91|186:186,1,139.9999952316,10|0,0:1|0:0,0:0:0:0:
199,64,68722,2,0,P|240:116|218:268,1,139.9999952316,2|0,1:0|0:0,0:0:0:0:
234,274,69013,6,0,P|300:283|420:188,1,139.9999952316,2|0,0:1|0:0,0:0:0:0:
433,311,69305,2,0,P|474:258|452:107,1,139.9999952316,2|0,0:1|0:0,0:0:0:0:
417,132,69596,6,0,L|249:109,1,139.9999952316,10|0,0:1|0:0,0:0:0:0:
113,206,69887,2,0,L|281:183,1,139.9999952316,2|0,0:1|0:0,0:0:0:0:
273,36,70178,6,0,P|252:37|233:46,1,41.99999856949,8|0,1:3|0:0,0:0:0:0:
145,21,70761,6,0,P|154:87|59:207,1,139.9999952316,10|0,0:1|0:0,0:0:0:0:
8,258,71052,2,0,P|72:233|141:241,1,139.9999952316,2|0,1:0|0:0,0:0:0:0:
205,302,71343,6,0,L|212:347,1,41.99999856949,8|0,1:3|0:0,0:0:0:0:
279,264,71926,6,0,L|289:105,1,139.9999952316,10|0,0:1|0:0,0:0:0:0:
367,35,72217,2,0,L|375:174,1,139.9999952316,2|0,0:1|0:0,0:0:0:0:
450,220,72509,6,0,P|458:201|460:180,1,41.99999856949,8|0,1:3|0:0,0:0:0:0:
512,81,73091,6,0,P|447:105|378:97,1,139.9999952316,10|0,0:1|0:0,0:0:0:0:
213,27,73382,2,0,P|266:70|293:134,1,139.9999952316,2|0,1:0|0:0,0:0:0:0:
316,312,73674,2,0,P|326:243|368:188,1,139.9999952316,4|0,3:0|3:0,0:0:0:0:
375,190,73892,1,0,3:0:0:0:
380,193,73965,1,0,3:0:0:0:
407,347,74110,1,8,3:0:0:0:
113,297,74256,5,10,1:0:0:0:
225,220,74402,1,0,3:0:0:0:
103,162,74547,1,2,1:0:0:0:
148,227,74693,1,0,3:0:0:0:
300,31,74839,6,0,L|257:44,1,41.99999856949,8|0,1:3|0:0,0:0:0:0:
170,1,75421,6,0,L|192:182,1,139.9999952316,10|0,0:1|0:0,0:0:0:0:
117,191,75712,2,0,L|95:372,1,139.9999952316,2|0,1:0|0:0,0:0:0:0:
167,384,76004,6,0,P|179:367|187:347,1,41.99999856949,8|0,1:3|0:0,0:0:0:0:
156,269,76586,6,0,P|221:245|290:253,1,139.9999952316,10|0,0:1|0:0,0:0:0:0:
365,327,76877,2,0,P|376:258|418:202,1,139.9999952316,2|0,0:1|0:0,0:0:0:0:
467,134,77169,6,0,L|509:127,1,41.99999856949,8|0,1:3|0:0,0:0:0:0:
409,75,77751,6,0,L|270:58,1,139.9999952316,10|0,0:1|0:0,0:0:0:0:
205,0,78042,2,0,P|150:43|121:106,1,139.9999952316,2|0,1:0|0:0,0:0:0:0:
0,205,78334,6,0,L|138:188,1,139.9999952316,2|0,0:1|0:0,0:0:0:0:
204,130,78625,2,0,P|258:173|287:236,1,139.9999952316,2|0,0:1|0:0,0:0:0:0:
182,384,78916,6,0,P|175:314|201:250,1,139.9999952316,10|0,0:1|0:0,0:0:0:0:
366,180,79208,2,0,P|391:244|385:313,1,139.9999952316,2|0,0:1|0:0,0:0:0:0:
303,343,79499,6,0,L|260:334,1,41.99999856949,8|0,1:3|0:0,0:0:0:0:
182,384,80081,6,0,L|149:211,1,139.9999952316,10|0,0:1|0:0,0:0:0:0:
79,206,80373,2,0,L|112:33,1,139.9999952316,2|0,1:0|0:0,0:0:0:0:
47,4,80664,6,0,P|34:20|26:40,1,41.99999856949,8|0,1:3|0:0,0:0:0:0:
73,117,81246,6,0,P|137:91|206:97,1,139.9999952316,10|0,0:1|0:0,0:0:0:0:
210,189,81538,2,0,P|264:232|293:295,1,139.9999952316,2|0,0:1|0:0,0:0:0:0:
222,346,81829,6,0,L|178:340,1,41.99999856949,8|0,1:3|0:0,0:0:0:0:
97,372,82411,6,0,L|69:196,1,139.9999952316,10|0,0:1|0:0,0:0:0:0:
53,62,82703,6,0,P|17:115|25:213,1,118.9999982166,2|0,0:1|0:0,0:0:0:0:
139,163,82994,2,2,P|175:221|215:243,1,97.99999367142,0|0,0:0|0:0,0:1:0:0:
287,182,83285,2,0,P|332:200|372:202,1,76.99999972725,2|0,0:1|0:0,0:0:0:0:
414,136,83576,2,0,P|455:134|485:117,1,55.99999809265,10|0,0:1|0:0,0:0:0:0:
477,54,83868,2,0,P|495:41|503:17,1,34.99999880791,2|0,0:1|0:0,0:0:0:0:
365,50,84159,6,0,L|336:45,2,27.99999904633,2|0|0,3:0|0:0|3:0,0:0:0:0:
216,18,85033,5,0,0:0:0:0:
174,252,85324,5,0,3:0:0:0:
255,265,85615,1,0,0:0:0:0:
325,219,85907,1,0,3:0:0:0:
216,18,86198,5,0,0:0:0:0:
98,278,86489,6,0,L|104:306,2,27.99999904633,2|0|0,3:0|0:0|3:0,0:0:0:0:
232,379,87363,5,0,0:0:0:0:
315,360,87654,1,0,3:0:0:0:
398,341,87945,1,0,0:0:0:0:
249,260,88237,5,0,3:0:0:0:
332,241,88528,1,0,0:0:0:0:
246,74,88819,6,0,L|252:101,2,27.99999904633,2|0|0,3:0|0:0|3:0,0:0:0:0:
273,177,89693,5,0,0:0:0:0:
86,345,89984,5,0,3:0:0:0:
92,262,90275,1,0,0:0:0:0:
98,179,90567,1,0,3:0:0:0:
273,177,90858,5,0,0:0:0:0:
7,277,91149,6,0,L|4:250,2,27.99999904633,2|0|0,3:0|0:0|3:0,0:0:0:0:
35,78,92023,5,0,0:0:0:0:
100,30,92314,1,0,3:0:0:0:
177,5,92606,1,0,0:0:0:0:
257,7,92897,1,0,3:0:0:0:
333,34,93188,1,0,0:0:0:0:
475,24,93479,6,0,P|458:65|458:85,1,55.99999809265,2|0,3:2|0:0,0:0:0:0:
506,140,93916,1,8,0:1:0:0:
334,190,94062,2,0,P|317:149|317:129,1,55.99999809265,0|8,3:0|0:1,0:0:0:0:
481,302,94644,5,0,3:0:0:0:
492,224,94936,1,0,0:0:0:0:
415,212,95227,1,8,3:1:0:0:
403,289,95518,1,0,0:0:0:0:
168,348,95809,6,0,L|236:342,1,55.99999809265,2|0,3:2|0:0,0:0:0:0:
300,332,96246,1,8,0:1:0:0:
261,217,96392,2,0,L|242:310,1,55.99999809265,0|8,3:0|0:1,0:0:0:0:
56,259,96975,5,0,3:0:0:0:
91,188,97266,1,8,0:1:0:0:
78,110,97557,1,8,3:1:0:0:
172,303,97848,5,0,0:0:0:0:
252,41,98140,6,0,P|211:34|176:40,1,55.99999809265,2|0,3:2|0:0,0:0:0:0:
160,105,98576,1,8,0:1:0:0:
68,19,98722,2,0,P|61:60|67:95,1,55.99999809265,0|8,3:0|0:1,0:0:0:0:
50,193,99305,5,0,3:0:0:0:
170,218,99596,1,0,0:0:0:0:
9,340,99887,5,8,3:1:0:0:
129,315,100178,1,0,0:0:0:0:
249,290,100470,1,0,3:0:0:0:
249,290,101052,5,2,3:2:0:0:
281,209,101343,1,8,0:1:0:0:
483,229,101635,5,2,3:2:0:0:
330,276,101926,1,8,0:1:0:0:
277,35,102217,5,2,3:2:0:0:
414,175,102509,1,0,0:0:0:0:
38,312,102800,6,0,P|26:289|21:248,1,48.99999683571,4|0,1:0|0:0,0:0:0:0:
88,229,103091,2,0,P|95:204|121:171,1,48.99999683571
182,188,103382,2,0,P|205:176|246:171,1,48.99999683571,0|0,1:0|0:0,0:0:0:0:
349,268,103674,5,2,0:2:0:0:
357,254,103819,1,2,0:2:0:0:
419,301,103965,6,0,L|428:364,1,48.99999683571,2|0,1:2|0:0,0:0:0:0:
397,147,104256,2,0,L|406:210,1,48.99999683571
511,231,104547,6,0,L|462:237,1,48.99999683571,2|0,1:2|0:0,0:0:0:0:
357,254,104839,2,0,L|308:260,1,48.99999683571
36,347,105130,6,0,P|21:331|5:282,1,48.99999683571,2|0,1:2|0:0,0:0:0:0:
120,140,105421,2,0,P|105:156|89:205,1,48.99999683571
87,285,105712,5,2,1:2:0:0:
152,247,105858,1,2,0:2:0:0:
223,274,106004,1,2,0:2:0:0:
248,345,106149,1,2,0:2:0:0:
357,274,106295,6,0,L|347:209,1,48.99999683571,2|0,1:2|0:0,0:0:0:0:
430,241,106586,2,0,L|420:176,1,48.99999683571
364,99,106877,6,0,L|356:147,1,48.99999683571,2|0,1:2|0:0,0:0:0:0:
291,66,107169,2,0,L|283:114,1,48.99999683571
212,340,107460,6,0,L|202:275,1,48.99999683571,2|0,1:2|0:0,0:0:0:0:
285,307,107751,2,0,L|275:242,1,48.99999683571
219,33,108042,6,0,L|211:81,1,48.99999683571,2|0,1:2|0:0,0:0:0:0:
146,0,108334,2,0,L|138:48,1,48.99999683571
68,315,108625,6,0,P|85:302|113:255,1,48.99999683571,2|0,1:2|0:0,0:0:0:0:
83,110,108916,2,0,P|76:130|81:184,1,48.99999683571
191,284,109208,2,0,P|184:263|148:222,1,48.99999683571,0|0,1:0|0:0,0:0:0:0:
0,205,109499,2,0,P|17:217|70:229,1,48.99999683571
159,160,109790,5,2,1:2:0:0:
220,110,109935,1,2,0:0:0:0:
300,115,110081,1,2,0:0:0:0:
357,169,110226,1,2,0:0:0:0:
366,248,110372,1,2,1:0:0:0:
366,248,110664,6,0,L|379:303,1,48.99999683571,2|0,0:2|0:0,0:0:0:0:
443,364,110955,5,2,1:2:0:0:
443,364,111101,2,0,L|479:370,2,24.49999841785,0|0|0,3:0|3:0|3:0,3:0:0:0:
315,362,111392,5,2,0:2:0:0:
315,362,111538,2,0,P|279:366|251:359,1,48.99999683571,0|0,1:0|0:0,0:0:0:0:
225,245,111829,2,0,P|246:274|254:301,1,48.99999683571
161,365,112120,6,0,L|174:302,1,48.99999683571,2|0,1:2|0:0,0:0:0:0:
85,351,112411,2,0,L|98:288,1,48.99999683571
9,337,112703,2,0,L|22:274,1,48.99999683571,0|0,1:0|0:0,0:0:0:0:
141,186,112994,5,2,0:2:0:0:
134,174,113140,1,2,0:2:0:0:
181,110,113285,6,0,P|200:131|208:159,1,48.99999683571,2|0,1:2|0:0,0:0:0:0:
277,124,113576,2,0,P|282:151|275:179,1,48.99999683571
310,270,113868,6,0,P|329:249|337:221,1,48.99999683571,2|0,1:2|0:0,0:0:0:0:
406,256,114159,2,0,P|411:228|404:200,1,48.99999683571
433,36,114450,6,0,L|504:27,1,48.99999683571,2|0,1:2|0:0,0:0:0:0:
304,55,114742,2,0,L|375:46,1,48.99999683571
201,19,115033,5,0,1:1:0:0:
211,103,115178,1,2,0:2:0:0:
221,187,115324,1,2,0:2:0:0:
231,271,115470,1,2,0:2:0:0:
150,367,115615,6,0,L|102:356,1,48.99999683571,2|0,1:2|0:0,0:0:0:0:
343,284,115907,2,0,L|391:295,1,48.99999683571
136,279,116198,6,0,L|88:268,1,48.99999683571,2|0,1:2|0:0,0:0:0:0:
329,196,116489,2,0,L|377:207,1,48.99999683571
48,192,116780,6,0,P|32:138|58:87,1,97.99999367142,2|0,1:2|0:0,0:0:0:0:
45,100,117169,2,0,L|132:79,1,65.33332911428,0|0,0:0|1:0,0:0:0:0:
461,29,117654,5,2,0:2:0:0:
386,11,117800,1,2,0:2:0:0:
320,49,117945,1,2,1:2:0:0:
298,123,118091,1,2,0:2:0:0:
333,191,118237,1,2,0:2:0:0:
406,216,118382,1,2,0:2:0:0:
468,165,118528,6,0,P|455:152|382:149,1,48.99999683571,2|0,1:2|0:0,0:0:0:0:
429,294,118819,2,0,P|451:285|469:269,1,48.99999683571
351,349,119110,6,0,L|279:340,1,48.99999683571,2|0,1:2|0:0,0:0:0:0:
224,331,119402,2,0,L|152:322,1,48.99999683571
16,273,119693,6,0,L|126:259,1,97.99999367142,2|0,1:2|0:0,0:0:0:0:
210,245,119984,2,0,L|320:231,1,97.99999367142,0|0,1:0|0:0,0:0:0:0:
484,204,120275,5,4,1:3:0:0:
373,16,120421,1,0,1:0:0:0:
305,152,120567,5,2,1:3:0:0:
384,151,120712,1,0,1:0:0:0:
176,26,120858,6,0,L|194:41,1,17.49999940395,0|0,3:0|0:0,0:0:0:0:
145,102,121004,2,0,L|169:105,1,17.49999940395,0|0,3:0|0:0,0:0:0:0:
158,182,121149,2,0,L|180:173,1,17.49999940395,0|0,3:0|0:0,0:0:0:0:
210,245,121295,2,0,L|225:226,1,17.49999940395,0|0,3:0|0:0,0:0:0:0:
47,352,121441,6,0,L|34:289,1,55.99999809265,8|0,1:3|0:0,0:0:0:0:
89,230,121877,1,0,3:0:0:0:
138,370,122023,6,0,P|233:338|282:254,1,139.9999952316,10|0,0:1|0:0,0:0:0:0:
363,374,122314,2,0,P|382:275|334:191,1,139.9999952316,2|0,1:0|0:0,0:0:0:0:
478,181,122606,2,0,P|402:114|305:114,1,139.9999952316,8|0,1:3|0:0,0:0:0:0:
366,106,122897,6,0,L|353:149,1,41.99999856949,2|0,0:0|0:0,0:0:0:0:
371,240,123188,6,0,L|206:262,1,139.9999952316,10|0,0:1|0:0,0:0:0:0:
98,21,123479,2,0,L|236:39,1,139.9999952316,2|0,0:1|0:0,0:0:0:0:
155,195,123771,2,0,L|16:213,1,139.9999952316,8|0,1:3|0:0,0:0:0:0:
16,213,124062,6,0,P|9:198|12:163,1,41.99999856949,2|0,0:0|0:0,0:0:0:0:
89,115,124353,6,0,P|183:82|233:0,1,139.9999952316,10|0,0:1|0:0,0:0:0:0:
277,152,124644,2,0,P|321:62|296:-31,1,139.9999952316,2|0,1:0|0:0,0:0:0:0:
328,354,124936,6,0,P|372:264|347:170,1,139.9999952316,2|0,0:1|0:0,0:0:0:0:
487,247,125227,2,0,P|454:151|371:103,1,139.9999952316,2|0,0:1|0:0,0:0:0:0:
18,281,125518,6,0,L|176:295,1,139.9999952316,10|0,0:1|0:0,0:0:0:0:
371,226,125809,2,0,L|213:240,1,139.9999952316,2|0,0:1|0:0,0:0:0:0:
238,326,126101,6,0,P|223:350|202:367,1,55.99999809265,8|0,1:3|0:0,0:0:0:0:
118,371,126538,1,0,3:0:0:0:
384,365,126683,6,0,L|370:225,1,139.9999952316,10|0,0:1|0:0,0:0:0:0:
231,238,126975,2,0,L|245:99,1,139.9999952316,2|0,1:0|0:0,0:0:0:0:
79,169,127266,2,0,L|65:29,1,139.9999952316,8|0,1:3|0:0,0:0:0:0:
65,29,127557,6,0,P|88:19|112:17,1,41.99999856949,2|0,0:0|0:0,0:0:0:0:
207,5,127848,6,0,P|162:94|187:188,1,139.9999952316,10|0,0:1|0:0,0:0:0:0:
377,159,128140,2,0,P|321:75|227:49,1,139.9999952316,2|0,0:1|0:0,0:0:0:0:
158,229,128431,2,0,P|258:222|327:154,1,139.9999952316,8|0,1:3|0:0,0:0:0:0:
289,202,128722,6,0,L|295:248,1,41.99999856949,2|0,0:0|0:0,0:0:0:0:
351,345,129013,6,0,L|192:330,1,139.9999952316,10|0,0:1|0:0,0:0:0:0:
24,145,129305,2,0,L|163:131,1,139.9999952316,2|0,1:0|0:0,0:0:0:0:
107,384,129596,2,0,L|82:223,1,139.9999952316,4|0,3:0|3:0,0:0:0:0:
89,239,129814,1,0,3:0:0:0:
95,234,129887,1,0,3:0:0:0:
405,261,130033,1,8,3:0:0:0:
217,50,130178,5,10,1:0:0:0:
225,208,130324,1,0,3:0:0:0:
312,73,130470,1,2,1:0:0:0:
163,131,130615,1,0,3:0:0:0:
371,164,130761,6,0,L|289:175,1,55.99999809265,8|0,1:3|0:0,0:0:0:0:
248,127,131198,1,0,3:0:0:0:
443,47,131343,6,0,P|343:52|274:121,1,139.9999952316,10|0,0:1|0:0,0:0:0:0:
246,0,131635,2,0,P|201:88|226:183,1,139.9999952316,2|0,1:0|0:0,0:0:0:0:
105,147,131926,2,0,P|159:230|253:255,1,139.9999952316,8|0,1:3|0:0,0:0:0:0:
193,248,132217,6,0,L|241:241,1,41.99999856949,2|0,0:0|0:0,0:0:0:0:
299,327,132509,6,0,L|496:348,1,139.9999952316,10|0,0:1|0:0,0:0:0:0:
342,120,132800,2,0,L|202:134,1,139.9999952316,2|0,0:1|0:0,0:0:0:0:
60,384,133091,2,0,L|257:363,1,139.9999952316,8|0,1:3|0:0,0:0:0:0:
199,369,133382,6,0,P|202:344|210:326,1,41.99999856949,2|0,0:0|0:0,0:0:0:0:
299,327,133674,6,0,P|393:295|442:211,1,139.9999952316,10|0,0:1|0:0,0:0:0:0:
332,51,133965,2,0,L|353:190,1,139.9999952316,2|0,1:0|0:0,0:0:0:0:
126,297,134256,6,0,P|31:265|-17:181,1,139.9999952316,2|0,0:1|0:0,0:0:0:0:
93,22,134547,2,0,L|72:160,1,139.9999952316,2|0,0:1|0:0,0:0:0:0:
299,327,134839,6,0,P|293:257|255:200,1,139.9999952316,10|0,0:1|0:0,0:0:0:0:
411,133,135130,2,0,P|348:103|279:107,1,139.9999952316,2|0,0:1|0:0,0:0:0:0:
188,78,135421,6,0,P|181:105|185:132,1,55.99999809265,8|0,1:3|0:0,0:0:0:0:
255,200,135858,1,0,3:0:0:0:
497,9,136004,6,0,L|315:27,1,139.9999952316,10|0,0:1|0:0,0:0:0:0:
330,159,136295,2,0,L|148:141,1,139.9999952316,2|0,1:0|0:0,0:0:0:0:
187,305,136586,2,0,L|5:323,1,139.9999952316,8|0,1:3|0:0,0:0:0:0:
47,318,136877,6,0,P|53:290|47:272,1,41.99999856949,2|0,0:0|0:0,0:0:0:0:
0,193,137169,6,0,P|5:123|43:66,1,139.9999952316,10|0,0:1|0:0,0:0:0:0:
176,291,137460,2,0,P|130:238|117:170,1,139.9999952316,2|0,0:1|0:0,0:0:0:0:
369,235,137751,2,0,P|299:229|242:191,1,139.9999952316,8|0,1:3|0:0,0:0:0:0:
242,191,138042,6,0,L|249:150,1,41.99999856949,2|0,0:0|0:0,0:0:0:0:
269,70,138334,6,0,L|474:58,1,139.9999952316,10|0,0:1|0:0,0:0:0:0:
493,159,138625,2,0,L|355:150,1,105.0000004292,2|0,1:0|0:0,0:0:0:0:
320,248,138916,2,0,L|422:242,1,69.99999761581,4|0,3:0|3:0,0:0:0:0:
396,240,139135,1,0,3:0:0:0:
399,234,139208,1,0,3:0:0:0:
216,104,139353,1,8,3:0:0:0:
74,289,139499,5,10,0:1:0:0:
262,313,139644,1,0,0:0:0:0:
142,176,139790,5,2,0:1:0:0:
122,354,139936,1,0,0:0:0:0:
153,280,140081,5,0,0:0:0:0:
362,127,149402,5,2,0:0:0:0:
230,314,157557,5,0,0:0:0:0:
230,314,157848,1,0,0:0:0:0:
315,313,158140,5,0,0:0:0:0:
307,286,158431,1,0,0:0:0:0:
432,301,158722,6,0,P|436:277|427:232,1,55.99999809265,0|0,1:0|0:0,0:0:0:0:
344,298,159305,2,0,P|354:275|357:230,1,55.99999809265,0|0,1:0|0:0,0:0:0:0:
370,43,159887,5,0,1:0:0:0:
391,62,160178,1,0,0:0:0:0:
267,96,160470,5,0,1:0:0:0:
274,125,160761,1,0,0:0:0:0:
145,105,161052,6,0,P|141:132|145:160,1,55.99999809265,0|0,1:0|0:0,0:0:0:0:
73,86,161635,2,0,P|62:111|58:139,1,55.99999809265,0|0,1:0|0:0,0:0:0:0:
70,347,162217,5,0,1:0:0:0:
92,343,162509,1,0,0:0:0:0:
238,354,162800,5,0,1:0:0:0:
260,350,163091,1,0,0:0:0:0:
421,304,163382,6,0,L|341:297,1,55.99999809265,0|0,1:0|0:0,0:0:0:0:
423,217,163965,2,0,L|343:224,1,55.99999809265,0|0,1:0|0:0,0:0:0:0:
96,174,164547,5,0,1:0:0:0:
74,92,164839,1,0,0:0:0:0:
155,71,165130,1,0,1:0:0:0:
177,152,165421,1,0,0:0:0:0:
33,302,165712,6,0,L|40:222,1,55.99999809265,0|0,1:0|0:0,0:0:0:0:
120,304,166295,2,0,L|113:224,1,55.99999809265,0|0,1:0|0:0,0:0:0:0:
277,50,166877,5,0,1:0:0:0:
355,65,167169,1,0,0:0:0:0:
185,187,167460,5,0,1:0:0:0:
452,157,167751,1,0,0:0:0:0:
304,335,168042,6,0,P|293:314|314:220,1,97.99999367142,4|0,1:0|0:0,0:0:0:0:
377,232,168479,1,8,0:1:0:0:
499,280,168625,6,0,P|484:293|436:307,1,48.99999683571,0|0,1:0|0:0,0:0:0:0:
380,312,168916,1,8,0:1:0:0:
460,198,169208,5,0,1:0:0:0:
325,168,169499,1,0,0:0:0:0:
489,52,169790,5,8,1:0:0:0:
290,93,170081,1,0,0:0:0:0:
41,31,170373,6,0,L|14:138,1,97.99999367142,4|0,1:0|0:0,0:0:0:0:
49,198,170809,1,8,0:1:0:0:
107,93,170955,6,0,L|117:180,1,48.99999683571,0|0,1:0|0:0,0:0:0:0:
178,183,171246,1,0,0:0:0:0:
305,11,171538,5,0,1:0:0:0:
266,189,171829,1,8,0:1:0:0:
374,62,172120,5,8,1:0:0:0:
412,175,172411,1,0,0:0:0:0:
342,342,172703,6,0,P|292:356|230:326,1,97.99999367142,4|0,1:0|0:0,0:0:0:0:
293,271,173140,1,8,0:1:0:0:
192,229,173285,6,0,P|209:270|201:300,1,48.99999683571,0|0,1:0|0:0,0:0:0:0:
126,285,173576,1,8,0:1:0:0:
225,154,173868,5,0,1:0:0:0:
31,114,174159,1,0,0:0:0:0:
232,22,174450,5,8,1:0:0:0:
84,44,174742,1,0,0:0:0:0:
416,217,175033,5,4,1:0:0:0:
416,217,175615,5,0,1:0:0:0:
313,168,175907,1,0,0:0:0:0:
202,227,176198,5,4,1:3:0:0:
118,230,176343,2,0,L|104:259,2,24.49999841785,0|0|0,3:0|3:0|3:0,3:0:0:0:
101,147,176635,1,0,3:0:0:0:
292,94,176780,6,0,P|233:87|178:152,1,146.9999905071,0|0,1:0|0:0,0:0:0:0:
202,227,177363,6,0,L|205:234,1,6.999999761581,4|0,0:1|0:0,0:0:0:0:
280,226,177654,2,0,L|279:233,1,6.999999761581,2|0,0:2|0:0,0:0:0:0:
348,264,177945,2,0,L|343:270,1,6.999999761581,2|0,0:0|0:0,0:0:0:0:
387,331,178237,2,0,L|380:334,1,6.999999761581,2|0,0:0|0:0,0:0:0:0:
28,344,178528,6,0,L|37:343,1,6.999999761581,2|0,0:0|0:0,0:0:0:0:
183,317,178819,1,2,0:3:0:0:
0,210,179110,6,0,L|9:211,1,6.999999761581,2|0,0:0|0:0,0:0:0:0:
202,242,179402,1,2,0:3:0:0:
5,83,179693,6,0,L|3:73,1,6.999999761581,2|0,0:0|0:0,0:0:0:0:
80,71,179984,6,0,L|78:61,1,6.999999761581,2|0,0:0|0:0,0:0:0:0:
155,60,180275,6,0,L|153:50,1,6.999999761581,2|0,0:0|0:0,0:0:0:0:
230,48,180567,6,0,L|228:38,1,6.999999761581,2|0,0:0|0:0,0:0:0:0:
305,36,180858,6,0,L|303:26,1,6.999999761581,2|0,0:0|0:0,0:0:0:0:
380,25,181149,6,0,L|378:15,1,6.999999761581,2|0,0:0|0:0,0:0:0:0:
453,285,181441,5,2,0:3:0:0:
455,13,181732,6,0,L|453:3,1,6.999999761581,2|0,0:0|0:0,0:0:0:0:
336,190,182023,6,0,L|336:197,1,6.999999761581,2|0,0:0|0:0,0:0:0:0:
267,228,182314,2,0,L|271:234,1,6.999999761581,2|0,0:0|0:0,0:0:0:0:
228,295,182606,2,0,L|235:298,1,6.999999761581,2|0,0:0|0:0,0:0:0:0:
227,372,182897,2,0,L|234:371,1,6.999999761581,2|0,0:0|0:0,0:0:0:0:
117,281,183188,6,0,L|118:273,1,6.999999761581,2|0,0:0|0:0,0:0:0:0:
81,72,183479,5,2,0:3:0:0:
150,47,183771,1,2,0:3:0:0:
213,92,184062,1,2,0:3:0:0:
117,281,184353,6,0,L|118:273,1,6.999999761581,2|0,0:0|0:0,0:0:0:0:
237,82,184644,5,2,0:3:0:0:
155,24,184936,1,2,0:3:0:0:
67,57,185227,1,2,0:3:0:0:
117,281,185518,6,0,L|118:273,1,6.999999761581,2|0,0:0|0:0,0:0:0:0:
81,72,185809,5,2,0:3:0:0:
150,47,186101,1,2,0:3:0:0:
213,92,186392,1,2,0:3:0:0:
471,276,186683,6,0,L|468:269,1,6.999999761581,2|0,0:0|0:0,0:0:0:0:
365,287,186975,2,0,L|365:279,1,6.999999761581,0|0,0:1|0:0,0:0:0:0:
267,243,187266,2,0,L|271:236,1,6.999999761581,2|0,0:0|0:0,0:0:0:0:
204,156,187557,2,0,L|211:153,1,6.999999761581,2|0,0:0|0:0,0:0:0:0:
325,18,187848,6,0,L|323:26,1,6.999999761581,2|0,0:0|0:0,0:0:0:0:
292,156,188140,1,2,0:3:0:0:
397,40,188431,6,0,L|399:48,1,6.999999761581,2|0,0:0|0:0,0:0:0:0:
460,281,188722,1,2,0:3:0:0:
91,337,189013,5,2,0:3:0:0:
348,309,189305,6,0,L|355:309,1,6.999999761581,2|0,0:0|0:0,0:0:0:0:
325,225,189596,6,0,L|331:221,1,6.999999761581,2|0,0:0|0:0,0:0:0:0:
274,153,189887,6,0,L|278:147,1,6.999999761581,2|0,0:0|0:0,0:0:0:0:
201,102,190178,6,0,L|203:95,1,6.999999761581,2|0,0:3|0:3,0:3:0:0:
116,80,190470,6,0,L|116:73,1,6.999999761581,2|0,0:0|0:0,0:0:0:0:
91,337,190761,5,2,0:3:0:0:
28,87,191052,6,0,L|26:80,1,6.999999761581,2|0,0:0|0:0,0:0:0:0:
314,39,191343,6,0,L|320:37,1,6.999999761581,2|0,0:0|0:0,0:0:0:0:
313,137,191635,2,0,L|319:138,1,6.999999761581,2|0,0:0|0:0,0:0:0:0:
263,221,191926,2,0,L|267:225,1,6.999999761581,2|0,0:0|0:0,0:0:0:0:
177,269,192217,2,0,L|179:274,1,6.999999761581,2|0,0:0|0:0,0:0:0:0:
255,325,192509,6,0,L|254:317,1,6.999999761581,2|0,0:0|0:0,0:0:0:0:
366,252,192800,2,0,L|356:239,1,13.99999952316,2|0,0:0|0:0,0:0:0:0:
425,133,193091,2,0,L|397:121,1,27.99999904633,2|0,0:0|0:0,0:0:0:0:
417,1,193382,2,0,L|343:10,1,69.99999761581,2|0,0:0|0:0,0:0:0:0:
214,27,193674,2,0,L|95:40,1,111.9999961853
0,263,193965,6,8,P|39:302|93:323,1,83.9999945755,10|8,0:3|0:3,0:3:0:0:
184,358,194256,6,8,P|198:303|189:246,1,97.99999367142,10|8,0:3|0:3,0:3:0:0:
176,123,194547,6,0,P|111:140|56:185,1,118.9999982166,2|0,0:3|0:3,0:3:0:0:
308,358,194839,6,0,L|326:192,1,139.9999952316,4|0,3:0|3:0,0:0:0:0:
320,212,195057,1,0,3:0:0:0:
313,208,195130,1,0,3:0:0:0:
194,262,195275,1,8,3:0:0:0:
499,298,195421,5,8,1:0:0:0:
468,52,195567,1,0,3:0:0:0:
223,126,195712,5,0,1:0:0:0:
445,201,195858,1,0,3:0:0:0:
359,0,196004,6,0,L|352:36,1,27.99999904633,8|0,1:3|0:0,0:0:0:0:
351,36,196295,5,0,3:0:0:0:
402,110,196441,1,0,3:0:0:0:
158,43,196586,6,0,P|273:115|352:100,1,174.9999940395,10|0,0:1|0:0,0:0:0:0:
191,207,196877,2,0,P|326:211|387:159,1,174.9999940395,2|0,1:0|0:0,0:0:0:0:
445,201,197169,6,0,P|444:214|439:227,1,27.99999904633,8|0,1:3|0:0,0:0:0:0:
435,238,197460,5,0,3:0:0:0:
350,285,197606,1,0,3:0:0:0:
366,17,197751,6,0,L|355:194,1,174.9999940395,10|0,0:1|0:0,0:0:0:0:
77,319,198042,2,0,L|66:144,1,174.9999940395,2|0,0:1|0:0,0:0:0:0:
215,9,198334,6,0,L|213:49,1,27.99999904633,8|0,1:3|0:0,0:0:0:0:
213,45,198625,5,0,3:0:0:0:
118,35,198771,1,0,3:0:0:0:
35,241,198916,6,0,P|122:184|153:111,1,174.9999940395,10|0,0:1|0:0,0:0:0:0:
229,297,199208,2,0,P|275:204|266:125,1,174.9999940395,2|0,1:0|0:0,0:0:0:0:
452,2,199499,6,0,P|331:-20|185:85,1,262.4999910593,6|0,0:1|0:0,0:0:0:0:
212,44,199790,2,0,L|240:270,1,174.9999940395,2|0,0:1|0:0,0:0:0:0:
469,345,200081,6,0,B|497:325|497:325|305:301,1,174.9999940395,10|0,0:1|0:0,0:0:0:0:
34,287,200373,2,0,B|10:261|10:261|203:287,1,174.9999940395,2|0,0:1|0:0,0:0:0:0:
233,312,200664,6,0,L|269:305,1,27.99999904633,8|0,1:3|0:0,0:0:0:0:
270,304,200955,5,0,3:0:0:0:
351,341,201101,1,0,3:0:0:0:
512,223,201246,6,0,P|419:260|303:227,1,174.9999940395,10|0,0:1|0:0,0:0:0:0:
509,15,201538,2,0,P|469:106|364:165,1,174.9999940395,2|0,1:0|0:0,0:0:0:0:
383,10,201829,6,0,P|389:26|391:47,1,27.99999904633,8|0,1:3|0:0,0:0:0:0:
388,46,202120,5,0,3:0:0:0:
332,139,202266,1,0,3:0:0:0:
128,32,202411,6,0,L|330:55,1,174.9999940395,10|0,0:1|0:0,0:0:0:0:
505,119,202703,2,0,L|303:142,1,174.9999940395,2|0,0:1|0:0,0:0:0:0:
261,217,202994,6,0,L|298:224,1,27.99999904633,8|0,1:3|0:0,0:0:0:0:
296,223,203285,5,0,3:0:0:0:
322,326,203431,1,0,3:0:0:0:
81,367,203576,6,0,P|154:309|267:299,1,174.9999940395,10|0,0:1|0:0,0:0:0:0:
44,149,203868,2,0,P|136:135|239:183,1,174.9999940395,2|0,1:0|0:0,0:0:0:0:
470,207,204159,6,0,L|266:225,1,174.9999940395,8|0,3:0|3:0,0:0:0:0:
288,216,204377,1,0,3:0:0:0:
285,207,204450,1,0,3:0:0:0:
423,46,204596,1,4,3:0:0:0:
394,304,204742,5,10,1:0:0:0:
181,185,204887,1,0,3:0:0:0:
347,138,205033,5,2,1:0:0:0:
228,351,205178,1,0,3:0:0:0:
8,88,205324,6,0,L|45:72,1,27.99999904633,8|0,1:3|0:0,0:0:0:0:
42,72,205615,5,0,3:0:0:0:
122,254,205761,1,0,3:0:0:0:
298,72,205907,6,0,L|58:118,1,174.9999940395,10|0,0:1|0:0,0:0:0:0:
352,217,206198,2,0,L|112:171,1,174.9999940395,2|0,1:0|0:0,0:0:0:0:
400,127,206489,6,0,L|365:132,1,27.99999904633,8|0,1:3|0:0,0:0:0:0:
362,133,206780,5,0,3:0:0:0:
418,280,206926,1,0,3:0:0:0:
162,368,207072,6,0,P|211:279|286:237,1,174.9999940395,10|0,0:1|0:0,0:0:0:0:
59,85,207363,2,0,P|156:56|239:80,1,174.9999940395,2|0,0:1|0:0,0:0:0:0:
62,233,207654,6,0,P|54:243|47:261,1,27.99999904633,8|0,1:3|0:0,0:0:0:0:
47,266,207945,5,0,3:0:0:0:
222,309,208091,1,0,3:0:0:0:
132,19,208237,6,0,L|148:212,1,174.9999940395,10|0,0:1|0:0,0:0:0:0:
498,275,208528,2,0,L|512:100,1,174.9999940395,2|0,1:0|0:0,0:0:0:0:
367,0,208819,6,0,P|298:78|439:59,1,262.4999910593,6|0,0:1|0:0,0:0:0:0:
407,130,209110,2,0,L|197:114,1,174.9999940395,2|0,0:1|0:0,0:0:0:0:
39,71,209402,6,0,B|24:37|24:37|53:-2|53:-2|94:24|94:24|89:76,1,174.9999940395,10|0,0:1|0:0,0:0:0:0:
70,274,209693,2,0,B|66:315|66:315|108:342|108:342|136:302|136:302|122:269,1,174.9999940395,2|0,0:1|0:0,0:0:0:0:
71,151,209984,6,0,L|85:181,1,27.99999904633,8|0,1:3|0:0,0:0:0:0:
88,185,210275,5,0,3:0:0:0:
213,34,210421,1,0,3:0:0:0:
266,327,210567,6,0,P|208:238|208:110,1,174.9999940395,10|0,0:1|0:0,0:0:0:0:
378,27,210858,2,0,P|320:116|320:244,1,174.9999940395,2|0,1:0|0:0,0:0:0:0:
430,221,211149,6,0,P|414:207|404:177,1,27.99999904633,8|0,1:3|0:0,0:0:0:0:
409,189,211441,5,0,3:0:0:0:
467,333,211586,1,0,3:0:0:0:
198,311,211732,6,0,L|434:284,1,174.9999940395,10|0,0:1|0:0,0:0:0:0:
217,64,212023,2,0,L|-19:37,1,174.9999940395,2|0,0:1|0:0,0:0:0:0:
52,367,212314,6,0,L|93:359,1,27.99999904633,8|0,1:3|0:0,0:0:0:0:
89,360,212606,5,0,3:0:0:0:
151,243,212751,1,0,3:0:0:0:
0,120,212897,6,0,P|8:207|122:302,1,174.9999940395,10|0,0:1|0:0,0:0:0:0:
181,13,213188,2,0,P|125:80|138:227,1,174.9999940395,2|0,1:0|0:0,0:0:0:0:
383,261,213479,6,0,B|404:278|404:278|352:344|214:293,1,174.9999940395,4|0,3:0|3:0,0:0:0:0:
260,303,213698,1,0,3:0:0:0:
257,294,213771,1,0,3:0:0:0:
410,176,213916,1,8,3:0:0:0:
207,55,214062,5,10,1:0:0:0:
29,186,214208,1,0,3:0:0:0:
260,206,214353,5,2,1:0:0:0:
124,46,214499,1,0,3:0:0:0:
162,353,214644,6,0,L|151:317,1,27.99999904633,8|0,1:3|0:0,0:0:0:0:
151,316,214936,5,0,3:0:0:0:
282,360,215081,1,0,3:0:0:0:
249,125,215227,6,0,P|218:201|255:322,1,174.9999940395,10|0,0:1|0:0,0:0:0:0:
342,215,215518,2,0,P|353:296|445:382,1,174.9999940395,2|0,1:0|0:0,0:0:0:0:
469,31,215809,5,8,1:3:0:0:
296,5,215955,1,2,0:2:0:0:
328,134,216101,1,2,0:2:0:0:
364,58,216246,1,2,0:2:0:0:
132,31,216392,5,10,0:1:0:0:
122,223,216538,1,2,0:2:0:0:
260,84,216683,1,2,0:1:0:0:
174,107,216829,1,2,0:2:0:0:
254,317,216975,6,0,P|277:298|282:289,1,27.99999904633,8|0,1:3|0:0,0:0:0:0:
280,292,217266,5,0,3:0:0:0:
238,168,217411,1,0,3:0:0:0:
496,226,217557,6,0,L|308:211,1,174.9999940395,10|0,0:1|0:0,0:0:0:0:
260,84,217848,2,0,L|85:97,1,174.9999940395,2|0,1:0|0:0,0:0:0:0:
2,357,218140,5,2,0:1:0:0:
221,301,218285,1,2,0:2:0:0:
19,148,218431,1,2,0:1:0:0:
61,292,218576,1,2,0:2:0:0:
217,69,218722,6,0,B|196:26|196:26|134:76|193:167,1,174.9999940395,10|0,0:1|0:0,0:0:0:0:
435,334,219013,5,2,0:1:0:0:
461,177,219159,1,2,0:2:0:0:
137,231,219305,6,0,L|144:269,1,27.99999904633,8|0,1:3|0:0,0:0:0:0:
145,272,219596,5,0,3:0:0:0:
280,371,219742,1,0,3:0:0:0:
380,184,219887,6,0,P|298:270|224:291,1,174.9999940395,10|0,0:1|0:0,0:0:0:0:
242,23,220178,2,0,P|244:141|207:208,1,174.9999940395,2|0,1:0|0:0,0:0:0:0:
0,180,220470,5,8,1:3:0:0:
138,89,220615,1,2,0:2:0:0:
117,274,220761,1,2,0:2:0:0:
88,193,220907,1,2,0:2:0:0:
350,174,221052,5,10,0:1:0:0:
240,362,221198,1,2,0:2:0:0:
209,223,221343,1,2,0:1:0:0:
280,283,221489,1,2,0:2:0:0:
512,187,221635,5,8,1:3:0:0:
391,39,221780,1,2,0:2:0:0:
245,147,221926,1,2,0:2:0:0:
350,174,222072,1,2,0:2:0:0:
224,60,222217,5,10,0:1:0:0:
22,134,222363,1,2,0:2:0:0:
205,269,222509,5,2,1:0:0:0:
163,128,222654,1,2,0:2:0:0:
2,259,222800,6,0,B|24:290|24:290|111:298|137:197,1,174.9999940395,4|0,3:0|3:0,0:0:0:0:
128,213,223018,1,0,3:0:0:0:
122,208,223091,1,0,3:0:0:0:
178,374,223237,1,8,3:0:0:0:
377,313,223382,5,10,1:0:0:0:
105,312,223528,1,0,3:0:0:0:
327,121,223674,5,2,1:0:0:0:
303,370,223819,1,0,3:0:0:0:
151,129,223965,6,0,L|183:120,1,27.99999904633,8|0,1:3|0:0,0:0:0:0:
189,118,224256,5,0,3:0:0:0:
296,284,224402,1,0,3:0:0:0:
453,176,224547,6,0,P|318:188|244:138,1,174.9999940395,10|0,0:1|0:0,0:0:0:0:
327,357,224839,2,0,P|223:270|206:182,1,174.9999940395,2|0,1:0|0:0,0:0:0:0:
67,34,225130,5,8,1:3:0:0:
24,247,225275,1,2,0:2:0:0:
200,150,225421,1,2,0:2:0:0:
166,61,225567,1,2,0:2:0:0:
140,293,225712,5,10,0:1:0:0:
327,357,225858,1,2,0:2:0:0:
466,224,226004,1,2,0:1:0:0:
285,173,226149,1,2,0:2:0:0:
381,293,226295,6,0,L|388:253,1,27.99999904633,8|0,1:3|0:0,0:0:0:0:
389,253,226586,5,0,3:0:0:0:
210,279,226732,1,0,3:0:0:0:
262,0,226877,6,0,L|284:173,1,174.9999940395,10|0,0:1|0:0,0:0:0:0:
22,169,227169,2,0,L|0:342,1,174.9999940395,2|0,1:0|0:0,0:0:0:0:
297,340,227460,5,2,0:1:0:0:
363,155,227606,1,2,0:2:0:0:
179,89,227751,1,2,0:1:0:0:
112,273,227897,1,2,0:2:0:0:
439,317,228042,6,0,B|446:350|446:350|503:275|417:202,1,174.9999940395,10|0,0:1|0:0,0:0:0:0:
93,57,228334,5,2,0:1:0:0:
284,20,228479,1,2,0:2:0:0:
229,306,228625,6,0,L|195:299,1,27.99999904633,8|0,1:3|0:0,0:0:0:0:
190,299,228916,5,0,3:0:0:0:
233,173,229062,1,0,3:0:0:0:
0,110,229208,6,0,P|39:164|200:217,1,195.9999873428,10|0,0:1|0:0,0:0:0:0:
313,337,229499,2,0,P|369:301|430:142,1,195.9999873428,2|0,1:0|0:0,0:0:0:0:
306,27,229790,6,0,P|297:44|293:59,1,27.99999904633,8|0,1:3|0:0,0:0:0:0:
294,63,230081,5,0,3:0:0:0:
127,118,230227,1,0,3:0:0:0:
347,362,230373,6,0,P|249:234|266:88,1,223.9999923706,10|0,0:1|0:0,0:0:0:0:
0,227,230664,2,0,P|22:68|137:-24,1,223.9999923706,2|0,0:1|0:0,0:0:0:0:
445,113,230955,6,0,P|443:134|435:150,1,27.99999904633,8|0,1:3|0:0,0:0:0:0:
435,151,231246,5,0,3:0:0:0:
294,63,231392,1,0,3:0:0:0:
346,346,231538,6,0,P|310:238|342:120,1,174.9999940395,10|0,0:1|0:0,0:0:0:0:
126,289,231829,2,0,P|149:178|236:92,1,174.9999940395,2|0,1:0|0:0,0:0:0:0:
506,9,232120,6,0,B|529:34|529:34|470:109|376:48,1,174.9999940395,4|0,3:0|3:0,0:0:0:0:
397,58,232339,1,0,3:0:0:0:
395,50,232411,1,0,3:0:0:0:
451,274,232557,1,8,3:0:0:0:
328,115,232703,5,10,1:0:0:0:
344,263,232848,1,0,3:0:0:0:
254,160,232994,5,2,1:0:0:0:
246,207,233140,1,0,3:0:0:0:
165,158,233285,6,0,B|75:142|128:193|8:152,1,139.99999523165,2|0,0:0|0:0,0:0:0:0:
