osu file format v14

[General]
AudioFilename: audio.mp3
AudioLeadIn: 0
PreviewTime: 63188
Countdown: 0
SampleSet: Soft
StackLeniency: 0.3
Mode: 0
LetterboxInBreaks: 0
StoryFireInFront: 0
WidescreenStoryboard: 1

[Editor]
DistanceSpacing: 0.5
BeatDivisor: 4
GridSize: 32
TimelineZoom: 1.8

[Metadata]
Title:Something Just Like This
TitleUnicode:Something Just Like This
Artist:The Chainsmokers & Coldplay
ArtistUnicode:The Chainsmokers & Coldplay
Creator:handsome
Version:fanzhen's Insane
Source:
Tags:memories do not open paris closer andrew taggart alex pall edm electronic pop electropop dancepop fanzhen0019 regou plaudible
BeatmapID:1312785
BeatmapSetID:611301

[Difficulty]
HPDrainRate:5.6
CircleSize:4
OverallDifficulty:6.8
ApproachRate:8.6
SliderMultiplier:1.91999990463257
SliderTickRate:1

[Events]
//Background and Video events
0,0,"bg.jpg",0,0
//Break Periods
2,140281,146704
2,149892,156898
2,177854,193306
//Storyboard Layer 0 (Background)
//Storyboard Layer 1 (Fail)
//Storyboard Layer 2 (Pass)
//Storyboard Layer 3 (Foreground)
//Storyboard Sound Samples

[TimingPoints]
276,582.5242718447,4,2,1,20,1,0
8140,-100,4,2,1,35,0,0
11380,-100,4,2,1,5,0,0
11489,-100,4,2,1,35,0,0
15166,-100,4,2,1,5,0,0
15275,-100,4,2,1,35,0,0
25943,-100,4,2,1,5,0,0
26052,-100,4,2,1,35,0,0
28237,-92.5925925925926,4,2,1,50,0,0
65518,-50,4,2,1,50,0,1
66246,-50,4,2,1,5,0,1
66392,-50,4,2,1,70,0,1
66538,-50,4,2,1,5,0,1
66683,-50,4,2,1,70,0,1
67411,-50,4,2,1,5,0,1
67557,-50,4,2,1,70,0,1
67703,-50,4,2,1,5,0,1
67848,-50,4,2,1,70,0,1
68576,-50,4,2,1,5,0,1
68722,-50,4,2,1,70,0,1
68868,-50,4,2,1,5,0,1
69013,-50,4,2,1,70,0,1
70907,-50,4,2,1,5,0,1
71052,-50,4,2,1,70,0,1
71198,-50,4,2,1,5,0,1
71343,-50,4,2,1,70,0,1
72072,-50,4,2,1,5,0,1
72217,-50,4,2,1,70,0,1
72363,-50,4,2,1,5,0,1
72509,-50,4,2,1,70,0,1
73237,-50,4,2,1,5,0,1
73382,-50,4,2,1,70,0,1
73528,-50,4,2,1,5,0,1
73674,-50,4,2,1,70,0,1
78552,-50,4,2,1,5,0,1
78624,-50,4,2,1,70,0,1
79790,-50,4,2,1,70,0,1
82557,-50,4,2,1,5,0,1
82703,-50,4,2,1,70,0,1
82848,-50,4,2,1,5,0,1
82994,-66.6666666666667,4,2,1,50,0,1
83140,-66.6666666666667,4,2,1,5,0,1
83285,-66.6666666666667,4,2,1,50,0,1
83431,-66.6666666666667,4,2,1,5,0,1
83576,-100,4,2,1,40,0,1
83722,-100,4,2,1,5,0,1
83868,-100,4,2,1,40,0,1
84013,-100,4,2,1,5,0,1
84159,-100,4,2,1,30,0,0
85942,-100,4,2,1,5,0,0
86051,-100,4,2,1,30,0,0
92314,-100,4,2,1,40,0,0
100506,-100,4,2,1,5,0,0
100615,-100,4,2,1,40,0,0
101052,-86.9565217391304,4,2,1,50,0,0
119693,-50,4,2,1,60,0,0
121441,-58.8235294117647,4,2,1,50,0,1
123407,-58.8235294117647,4,2,1,5,0,1
123479,-58.8235294117647,4,2,1,50,0,1
123698,-58.8235294117647,4,2,1,5,0,1
123770,-58.8235294117647,4,2,1,50,0,1
124572,-58.8235294117647,4,2,1,5,0,1
124644,-58.8235294117647,4,2,1,50,0,1
124863,-58.8235294117647,4,2,1,5,0,1
124935,-58.8235294117647,4,2,1,50,0,1
125154,-58.8235294117647,4,2,1,5,0,1
125226,-58.8235294117647,4,2,1,50,0,1
125445,-58.8235294117647,4,2,1,5,0,1
125517,-58.8235294117647,4,2,1,50,0,1
125737,-58.8235294117647,4,2,1,5,0,1
125809,-58.8235294117647,4,2,1,50,0,1
126028,-58.8235294117647,4,2,1,5,0,1
126100,-58.8235294117647,4,2,1,50,0,1
128067,-58.8235294117647,4,2,1,5,0,1
128139,-58.8235294117647,4,2,1,50,0,1
128358,-58.8235294117647,4,2,1,5,0,1
128430,-58.8235294117647,4,2,1,50,0,1
129232,-58.8235294117647,4,2,1,5,0,1
129304,-58.8235294117647,4,2,1,50,0,1
129523,-58.8235294117647,4,2,1,5,0,1
129595,-58.8235294117647,4,2,1,50,0,1
134475,-58.8235294117647,4,2,1,5,0,1
134547,-58.8235294117647,4,2,1,50,0,1
138552,-58.8235294117647,4,2,1,5,0,1
138624,-58.8235294117647,4,2,1,50,0,1
138843,-58.8235294117647,4,2,1,5,0,1
138915,-58.8235294117647,4,2,1,50,0,1
139790,-100,4,2,1,50,0,1
140081,-50,4,2,1,80,0,0
147363,-100,4,2,1,40,0,0
156392,-90.9090909090909,4,2,1,50,0,0
177072,-100,4,2,1,50,0,0
177363,-66.6666666666667,4,2,1,60,0,1
193674,-50,4,2,1,70,0,0
196004,-133.333333333333,4,2,1,60,0,1
196513,-66.6666666666667,4,2,1,5,0,1
196586,-66.6666666666667,4,2,1,65,0,1
196805,-66.6666666666667,4,2,1,5,0,1
196877,-66.6666666666667,4,2,1,70,0,1
197096,-66.6666666666667,4,2,1,5,0,1
197169,-133.333333333333,4,2,1,75,0,1
197678,-66.6666666666667,4,2,1,5,0,1
197751,-66.6666666666667,4,2,1,70,0,1
197970,-66.6666666666667,4,2,1,5,0,1
198042,-66.6666666666667,4,2,1,60,0,1
198261,-66.6666666666667,4,2,1,5,0,1
198334,-133.333333333333,4,2,1,65,0,1
198843,-66.6666666666667,4,2,1,5,0,1
198916,-66.6666666666667,4,2,1,70,0,1
199135,-66.6666666666667,4,2,1,5,0,1
199208,-66.6666666666667,4,2,1,75,0,1
199426,-66.6666666666667,4,2,1,5,0,1
199499,-66.6666666666667,4,2,1,70,0,1
199717,-66.6666666666667,4,2,1,5,0,1
199790,-66.6666666666667,4,2,1,65,0,1
200009,-66.6666666666667,4,2,1,5,0,1
200081,-66.6666666666667,4,2,1,60,0,1
200300,-66.6666666666667,4,2,1,5,0,1
200373,-66.6666666666667,4,2,1,65,0,1
200591,-66.6666666666667,4,2,1,5,0,1
200664,-133.333333333333,4,2,1,60,0,1
201174,-66.6666666666667,4,2,1,5,0,1
201247,-66.6666666666667,4,2,1,65,0,1
201466,-66.6666666666667,4,2,1,5,0,1
201538,-66.6666666666667,4,2,1,70,0,1
201757,-66.6666666666667,4,2,1,5,0,1
201829,-133.333333333333,4,2,1,75,0,1
202339,-66.6666666666667,4,2,1,5,0,1
202412,-66.6666666666667,4,2,1,70,0,1
202631,-66.6666666666667,4,2,1,5,0,1
202703,-66.6666666666667,4,2,1,60,0,1
202922,-66.6666666666667,4,2,1,5,0,1
202994,-133.333333333333,4,2,1,65,0,1
203504,-66.6666666666667,4,2,1,5,0,1
203577,-66.6666666666667,4,2,1,70,0,1
203796,-66.6666666666667,4,2,1,5,0,1
203869,-66.6666666666667,4,2,1,75,0,1
204087,-66.6666666666667,4,2,1,5,0,1
204160,-66.6666666666667,4,2,1,70,0,1
204451,-66.6666666666667,4,2,1,65,0,1
204670,-66.6666666666667,4,2,1,5,0,1
204742,-66.6666666666667,4,2,1,60,0,1
204961,-66.6666666666667,4,2,1,5,0,1
205034,-66.6666666666667,4,2,1,65,0,1
205252,-66.6666666666667,4,2,1,5,0,1
205324,-66.6666666666667,4,2,1,70,0,1
205470,-66.6666666666667,4,2,1,5,0,1
205761,-66.6666666666667,4,2,1,75,0,1
206052,-66.6666666666667,4,2,1,5,0,1
206198,-66.6666666666667,4,2,1,70,0,1
206343,-66.6666666666667,4,2,1,5,0,1
206489,-66.6666666666667,4,2,1,65,0,1
207072,-66.6666666666667,4,2,1,75,0,1
207217,-66.6666666666667,4,2,1,5,0,1
207363,-66.6666666666667,4,2,1,70,0,1
207508,-66.6666666666667,4,2,1,5,0,1
207654,-66.6666666666667,4,2,1,65,0,1
208237,-66.6666666666667,4,2,1,75,0,1
208382,-66.6666666666667,4,2,1,5,0,1
208528,-66.6666666666667,4,2,1,70,0,1
208673,-66.6666666666667,4,2,1,5,0,1
208819,-66.6666666666667,4,2,1,65,0,1
208965,-66.6666666666667,4,2,1,5,0,1
209110,-66.6666666666667,4,2,1,60,0,1
209256,-66.6666666666667,4,2,1,5,0,1
209402,-66.6666666666667,4,2,1,65,0,1
209547,-66.6666666666667,4,2,1,5,0,1
209693,-66.6666666666667,4,2,1,70,0,1
209839,-66.6666666666667,4,2,1,5,0,1
209984,-66.6666666666667,4,2,1,70,0,1
210130,-66.6666666666667,4,2,1,5,0,1
210421,-66.6666666666667,4,2,1,75,0,1
210712,-66.6666666666667,4,2,1,5,0,1
210858,-66.6666666666667,4,2,1,70,0,1
211003,-66.6666666666667,4,2,1,5,0,1
211149,-66.6666666666667,4,2,1,65,0,1
211732,-66.6666666666667,4,2,1,75,0,1
211877,-66.6666666666667,4,2,1,5,0,1
212023,-66.6666666666667,4,2,1,70,0,1
212168,-66.6666666666667,4,2,1,5,0,1
212314,-66.6666666666667,4,2,1,65,0,1
212897,-50,4,2,1,75,0,1
213042,-50,4,2,1,5,0,1
213188,-50,4,2,1,70,0,1
213333,-50,4,2,1,5,0,1
213479,-50,4,2,1,65,0,1
213770,-50,4,2,1,60,0,1
214062,-50,4,2,1,65,0,1
214207,-50,4,2,1,5,0,1
214353,-50,4,2,1,70,0,1
214499,-66.6666666666667,4,2,1,5,0,1
214644,-66.6666666666667,4,2,1,70,0,1
229426,-66.6666666666667,4,2,1,5,0,1
229498,-66.6666666666667,4,2,1,70,0,1
229717,-66.6666666666667,4,2,1,5,0,1
229789,-66.6666666666667,4,2,1,70,0,1
230591,-66.6666666666667,4,2,1,5,0,1
230663,-66.6666666666667,4,2,1,70,0,1
230882,-66.6666666666667,4,2,1,5,0,1
230954,-66.6666666666667,4,2,1,70,0,1
231756,-66.6666666666667,4,2,1,5,0,1
231828,-66.6666666666667,4,2,1,70,0,1
232047,-66.6666666666667,4,2,1,5,0,1
232119,-66.6666666666667,4,2,1,70,0,1
232703,-100,4,2,1,60,0,1
232994,-200,4,2,1,70,0,1
233431,-200,4,2,1,5,0,1
233576,-200,4,2,1,30,0,0
233649,-200,4,2,1,5,0,0

[Colours]
Combo1 : 255,242,204
Combo2 : 255,215,215
Combo3 : 255,204,230
Combo4 : 230,204,255
Combo5 : 204,230,255
Combo6 : 204,255,230
Combo7 : 240,255,225

[HitObjects]
51,241,8140,5,0,0:0:0:0:
128,202,8431,1,0,0:0:0:0:
191,260,8722,1,0,0:0:0:0:
151,336,9013,1,0,0:0:0:0:
65,321,9305,1,0,0:0:0:0:
52,235,9596,2,0,B|69:162|54:86|54:86|50:111|38:128,1,191.999990463257,2|0,0:0|0:0,0:0:0:0:
116,38,10470,6,0,P|79:14|23:16,2,95.9999952316285,0|0|0,0:0|0:0|0:0,0:0:0:0:
189,97,11343,2,0,L|186:108,1,11.9999994039536,0|0,0:0|0:0,0:0:0:0:
281,61,11635,1,0,0:0:0:0:
207,7,11926,2,0,P|278:29|395:-2,1,191.999990463257,2|0,0:0|0:0,0:0:0:0:
437,196,12800,6,0,L|440:207,1,11.9999994039536,0|0,0:0|0:0,0:0:0:0:
437,196,13091,1,0,0:0:0:0:
357,228,13382,1,0,0:0:0:0:
359,314,13674,1,0,0:0:0:0:
441,338,13965,1,0,0:0:0:0:
491,268,14256,2,0,B|472:203|481:132|481:132|462:162|459:185,1,191.999990463257,2|0,0:0|0:0,0:0:0:0:
203,154,15130,6,0,L|200:143,1,11.9999994039536,0|0,0:0|0:0,0:0:0:0:
203,154,15421,1,0,0:0:0:0:
283,122,15712,1,0,0:0:0:0:
281,36,16004,1,0,0:0:0:0:
199,12,16295,1,0,0:0:0:0:
149,82,16586,2,0,B|168:147|159:218|159:218|178:188|181:165,1,191.999990463257,2|0,0:0|0:0,0:0:0:0:
30,297,17751,5,0,0:0:0:0:
151,289,18042,1,0,0:0:0:0:
30,297,18334,1,0,0:0:0:0:
151,289,18625,1,0,0:0:0:0:
95,354,18916,2,0,P|121:280|73:219,2,143.999992847443,2|8|8,0:0|0:2|0:2,0:0:0:0:
386,212,20081,5,0,0:0:0:0:
265,204,20372,1,0,0:0:0:0:
386,212,20664,1,8,0:2:0:0:
265,204,20955,1,0,0:0:0:0:
326,143,21246,2,0,P|293:204|321:269,2,143.999992847443,2|8|8,0:0|0:2|0:2,0:0:0:0:
436,30,22703,5,8,0:2:0:0:
406,111,22994,1,8,0:2:0:0:
491,97,23285,1,0,0:0:0:0:
430,35,23576,2,0,P|374:26|335:44,1,95.9999952316285,2|0,0:0|0:0,0:0:0:0:
241,121,24159,2,0,P|196:104|150:115,1,95.9999952316285,0|2,0:0|0:2,0:0:0:0:
61,178,24742,6,0,L|66:284,1,95.9999952316285,0|2,0:0|0:0,0:0:0:0:
256,347,25324,2,0,L|260:251,1,95.9999952316285,2|0,0:2|0:0,0:0:0:0:
71,371,25907,2,0,L|57:373,1,11.9999994039536,2|0,0:0|0:0,0:0:0:0:
63,359,26343,5,0,0:0:0:0:
63,359,26489,2,0,L|185:351,1,95.9999952316285,0|8,0:0|1:2,0:0:0:0:
457,243,27072,2,0,L|335:235,1,95.9999952316285,0|8,0:0|0:2,0:0:0:0:
59,113,27654,2,0,L|181:105,1,95.9999952316285,8|0,0:2|0:0,0:0:0:0:
390,19,28237,6,0,P|344:87|266:108,1,155.519996072113,4|0,0:1|0:0,0:0:0:0:
260,131,28819,2,0,P|254:74|213:35,1,103.679997381409,0|2,0:0|0:0,0:0:0:0:
85,24,29402,5,0,0:0:0:0:
5,235,29693,1,2,0:0:0:0:
221,209,29984,1,2,0:0:0:0:
130,191,30275,1,0,0:0:0:0:
160,274,30567,2,0,P|226:240|322:250,1,155.519996072113,2|0,0:0|0:0,0:0:0:0:
325,260,31149,6,0,P|309:311|323:366,1,103.679997381409,2|2,0:0|0:0,0:0:0:0:
500,369,31732,2,0,P|516:318|502:263,1,103.679997381409,0|2,0:0|0:0,0:0:0:0:
414,313,32314,1,2,0:0:0:0:
427,149,32606,1,0,0:0:0:0:
414,313,32897,2,0,P|368:337|308:331,1,103.679997381409,2|0,0:0|0:0,0:0:0:0:
219,228,33479,6,0,P|229:177|214:129,1,103.679997381409,2|2,0:0|0:0,0:0:0:0:
33,138,34062,2,0,P|23:189|39:238,1,103.679997381409,0|2,0:0|0:0,0:0:0:0:
125,182,34644,1,2,0:0:0:0:
112,18,34936,1,0,0:0:0:0:
125,182,35227,2,0,B|171:206|208:182|208:182|277:215|345:131,1,207.359994762817,2|0,0:0|0:0,0:0:0:0:
429,64,36101,5,2,0:0:0:0:
465,195,36392,2,0,P|463:249|443:302,2,103.679997381409,2|0|2,0:0|0:0|0:0,0:0:0:0:
244,247,37266,2,0,P|325:289|382:178,1,207.359994762817,2|0,0:0|0:0,0:0:0:0:
309,108,38140,2,0,P|300:159|318:217,1,103.679997381409,0|2,0:0|0:0,0:0:0:0:
220,76,38722,5,2,0:0:0:0:
16,103,39013,1,0,0:0:0:0:
25,126,39305,5,2,0:0:0:0:
197,170,39596,1,0,0:0:0:0:
174,187,39887,6,0,B|119:198|119:198|104:228|104:228|50:236|50:236|127:234|170:309|134:362,1,311.039992144226,2|2,0:0|0:0,0:0:0:0:
56,323,41052,5,2,0:0:0:0:
215,288,41343,1,0,0:0:0:0:
337,368,41635,1,2,0:0:0:0:
496,333,41926,1,0,0:0:0:0:
250,359,42217,6,0,L|83:367,1,155.519996072113,2|2,0:0|0:0,0:0:0:0:
76,358,43091,5,2,0:0:0:0:
189,363,43382,1,0,0:0:0:0:
242,261,43674,1,0,0:0:0:0:
355,257,43965,1,2,0:0:0:0:
387,147,44256,1,0,0:0:0:0:
496,115,44547,2,0,P|504:79|500:55,1,51.8399986907043,2|0,0:0|0:0,0:0:0:0:
108,83,45130,5,0,0:0:0:0:
32,154,45421,1,2,0:0:0:0:
77,247,45712,1,0,0:0:0:0:
180,235,46004,1,0,0:0:0:0:
202,135,46295,1,2,0:0:0:0:
108,83,46586,6,0,B|98:123|67:137|67:137|100:150|118:182|118:182|130:152|169:130|169:130|194:124,1,207.359994762817,0|0,0:0|0:0,0:0:0:0:
439,157,47751,5,0,0:0:0:0:
393,93,47897,1,0,0:0:0:0:
418,20,48042,1,2,0:0:0:0:
427,164,48334,5,0,0:0:0:0:
381,100,48480,1,0,0:0:0:0:
406,27,48625,1,2,0:0:0:0:
67,270,50081,5,0,0:0:0:0:
113,206,50227,1,0,0:0:0:0:
88,133,50372,1,2,0:0:0:0:
100,140,50664,5,0,0:0:0:0:
125,213,50809,1,0,0:0:0:0:
79,277,50955,1,2,0:0:0:0:
106,348,51101,1,0,0:0:0:0:
73,157,52411,5,0,0:0:0:0:
119,93,52557,1,0,0:0:0:0:
94,20,52702,1,2,0:0:0:0:
85,164,52994,5,0,0:0:0:0:
131,100,53140,1,0,0:0:0:0:
106,27,53285,1,2,0:0:0:0:
382,254,54159,5,0,0:0:0:0:
394,169,54450,5,2,0:0:0:0:
470,240,54741,1,0,0:0:0:0:
425,333,55032,1,2,0:0:0:0:
322,321,55324,1,0,0:0:0:0:
300,221,55615,1,2,0:0:0:0:
394,169,55906,6,0,B|404:209|435:223|435:223|402:236|384:268|384:268|372:238|333:216|333:216|308:210,1,207.359994762817,0|2,0:0|0:0,0:0:0:0:
51,84,57072,5,0,0:0:0:0:
142,103,57217,1,0,0:0:0:0:
215,46,57363,1,2,0:0:0:0:
41,97,57654,5,0,0:0:0:0:
132,116,57799,1,0,0:0:0:0:
205,59,57945,1,2,0:0:0:0:
410,276,59402,5,0,0:0:0:0:
319,295,59547,1,0,0:0:0:0:
246,238,59693,1,2,0:0:0:0:
256,251,59984,5,0,0:0:0:0:
329,308,60130,1,0,0:0:0:0:
420,289,60275,1,2,0:0:0:0:
493,344,60421,1,0,0:0:0:0:
253,360,61732,5,0,0:0:0:0:
211,270,61878,1,0,0:0:0:0:
250,180,62023,1,2,0:0:0:0:
266,198,62314,5,0,0:0:0:0:
303,101,62460,1,0,0:0:0:0:
263,4,62606,1,2,0:0:0:0:
142,159,63479,5,2,0:0:0:0:
105,51,63771,5,2,0:0:0:0:
28,160,64062,1,2,0:0:0:0:
107,268,64353,1,4,3:0:0:0:
142,159,64499,5,0,3:0:0:0:
142,159,64572,1,0,3:0:0:0:
142,159,64644,1,0,3:0:0:0:
235,228,64790,1,8,3:0:0:0:
238,94,64936,5,0,1:0:0:0:
9,169,65081,1,0,3:0:0:0:
245,221,65227,1,0,1:0:0:0:
93,46,65373,1,0,3:0:0:0:
117,275,65518,6,0,P|114:322|101:373,1,95.9999952316285,8|0,1:3|0:0,0:0:0:0:
87,360,66101,6,2,L|235:368,1,143.999992847443,10|0,0:1|0:0,1:0:0:0:
295,305,66392,2,0,L|438:297,1,143.999992847443,2|0,1:0|0:0,0:0:0:0:
504,355,66683,1,8,1:3:0:0:
504,355,67266,6,0,P|428:351|390:284,1,143.999992847443,10|0,0:1|0:0,0:0:0:0:
449,229,67557,2,0,L|459:77,1,143.999992847443,2|0,0:1|0:0,0:0:0:0:
415,21,67848,1,8,1:3:0:0:
415,21,68431,6,0,P|341:10|274:67,1,143.999992847443,10|0,0:1|0:0,0:0:0:0:
214,107,68722,2,0,P|154:69|84:81,1,143.999992847443,2|0,1:0|0:0,0:0:0:0:
17,152,69013,1,2,0:1:0:0:
17,152,69305,2,0,L|32:351,2,191.999990463257,2|10|2,0:1|0:1|0:1,0:0:0:0:
247,254,70178,6,0,P|242:304|216:345,1,95.9999952316285,8|0,1:3|0:0,0:0:0:0:
191,352,70761,6,0,P|289:335|353:362,1,143.999992847443,10|0,0:1|0:0,0:0:0:0:
407,381,71052,2,0,P|450:331|458:241,1,143.999992847443,2|0,1:0|0:0,0:0:0:0:
418,184,71343,1,8,1:3:0:0:
418,184,71926,6,0,L|259:182,1,143.999992847443,10|0,0:1|0:0,0:0:0:0:
217,260,72217,2,0,L|58:262,1,143.999992847443,2|0,0:1|0:0,0:0:0:0:
22,188,72509,1,8,1:3:0:0:
35,199,73091,6,0,P|97:150|121:78,1,143.999992847443,10|0,0:1|0:0,0:0:0:0:
147,3,73382,2,0,P|125:79|148:151,1,143.999992847443,2|0,1:0|0:0,0:0:0:0:
171,227,73674,1,4,3:0:0:0:
20,60,73819,1,0,3:0:0:0:
20,60,73892,1,0,3:0:0:0:
20,60,73965,1,0,3:0:0:0:
240,107,74110,1,8,3:0:0:0:
35,199,74256,6,0,P|21:245|30:310,1,95.9999952316285,10|0,1:0|3:0,0:0:0:0:
196,346,74547,2,0,P|210:300|201:235,1,95.9999952316285,2|0,1:0|3:0,0:0:0:0:
88,368,74839,6,0,L|288:360,1,191.999990463257,8|0,1:3|0:0,0:0:0:0:
490,276,75421,6,0,L|389:272,1,95.9999952316285,10|0,0:1|0:0,0:0:0:0:
398,192,75712,2,0,L|493:195,1,95.9999952316285,2|0,1:0|0:0,0:0:0:0:
319,315,76004,2,0,P|291:258|330:137,1,191.999990463257,8|0,1:3|0:0,0:0:0:0:
11,155,76586,6,0,L|112:151,1,95.9999952316285,10|0,0:1|0:0,0:0:0:0:
103,71,76877,2,0,L|7:74,1,95.9999952316285,2|0,0:1|0:0,0:0:0:0:
182,194,77169,2,0,P|210:137|171:16,1,191.999990463257,8|0,1:3|0:0,0:0:0:0:
463,116,77751,6,0,L|468:215,1,95.9999952316285,10|0,0:1|0:0,0:0:0:0:
387,216,78042,2,0,L|382:120,1,95.9999952316285,2|0,1:0|0:0,0:0:0:0:
299,98,78334,2,0,L|309:274,1,143.999992847443,2|0,0:1|0:0,0:0:0:0:
226,264,78625,2,0,P|201:163|220:65,2,191.999990463257,2|10|2,0:1|0:1|0:1,0:0:0:0:
152,28,79499,6,0,P|102:8|41:24,1,95.9999952316285,8|0,1:3|0:0,0:0:0:0:
51,25,80081,6,0,P|106:30|148:7,1,95.9999952316285,10|0,0:1|0:0,0:0:0:0:
258,90,80373,2,0,P|203:85|161:108,1,95.9999952316285,2|0,1:0|0:0,0:0:0:0:
61,309,80664,2,0,L|74:106,1,191.999990463257,8|0,1:3|0:0,0:0:0:0:
484,346,81246,6,0,P|429:341|387:364,1,95.9999952316285,10|0,0:1|0:0,0:0:0:0:
277,281,81538,2,0,P|332:286|374:263,1,95.9999952316285,2|0,0:1|0:0,0:0:0:0:
474,62,81829,2,0,L|461:265,1,191.999990463257,8|0,1:3|0:0,0:0:0:0:
219,71,82411,6,0,P|171:104|84:119,1,143.999992847443,10|0,0:1|0:0,0:0:0:0:
66,123,82703,2,0,P|115:141|208:133,1,143.999992847443,2|0,0:1|0:0,0:0:0:0:
332,188,82994,6,2,P|376:218|457:232,1,107.999998755455,0|0,0:0|0:0,1:0:0:0:
452,233,83286,2,0,P|406:249|319:242,1,107.999998755455,2|0,0:1|0:0,0:0:0:0:
191,303,83576,6,2,P|147:328|110:327,1,71.9999964237214,8|0,0:1|0:0,1:0:0:0:
104,328,83868,2,0,P|148:353|185:352,1,71.9999964237214,2|0,0:1|0:0,0:0:0:0:
321,364,84159,5,2,3:0:0:0:
321,364,84742,1,0,3:0:0:0:
410,329,85033,2,0,P|440:286|443:236,2,95.9999952316285,0|0|0,0:0|3:0|0:0,0:0:0:0:
236,324,85907,2,0,L|229:303,1,11.9999994039536,0|0,3:0|0:0,0:0:0:0:
54,334,86198,1,0,0:0:0:0:
136,382,86489,2,0,P|156:279|130:185,1,191.999990463257,2|0,3:0|3:0,0:0:0:0:
74,121,87363,5,0,0:0:0:0:
74,121,87654,1,0,3:0:0:0:
140,51,87945,1,0,0:0:0:0:
234,31,88237,1,0,3:0:0:0:
315,80,88528,1,0,0:0:0:0:
343,171,88819,2,0,B|343:227|324:299|324:299|320:268|296:245,1,191.999990463257,2|0,3:0|3:0,0:0:0:0:
457,217,89693,5,0,0:0:0:0:
457,217,89984,1,0,3:0:0:0:
429,308,90275,1,0,0:0:0:0:
345,356,90567,1,0,3:0:0:0:
251,336,90858,1,0,0:0:0:0:
199,255,91149,2,0,B|141:221|69:246|69:246|108:258|123:280,1,191.999990463257,2|0,3:0|3:0,0:0:0:0:
91,91,92023,5,0,0:0:0:0:
175,129,92314,1,0,3:0:0:0:
12,145,92606,1,0,0:0:0:0:
175,129,92897,1,0,3:0:0:0:
12,145,93189,1,0,0:0:0:0:
91,91,93479,2,0,P|156:85|219:36,1,143.999992847443,2|8,3:2|0:2,0:0:0:0:
292,15,94062,2,0,P|296:47|261:102,1,95.9999952316285,0|8,3:0|0:2,0:0:0:0:
329,267,94644,5,0,3:0:0:0:
492,283,94936,1,0,0:0:0:0:
329,267,95227,1,8,3:2:0:0:
492,283,95519,1,0,0:0:0:0:
413,229,95809,2,0,P|348:223|285:174,1,143.999992847443,2|8,3:2|0:2,0:0:0:0:
212,153,96392,2,0,P|208:185|243:240,1,95.9999952316285,0|8,3:0|0:2,0:0:0:0:
357,196,96975,2,0,P|361:164|326:109,1,95.9999952316285,0|8,3:0|0:2,0:0:0:0:
244,65,97557,5,8,3:2:0:0:
244,65,97848,1,0,0:0:0:0:
150,40,98140,2,0,P|101:48|61:76,1,95.9999952316285,2|0,3:2|0:0,0:0:0:0:
0,162,98722,2,0,P|49:170|89:198,1,95.9999952316285,0|8,3:0|0:2,0:0:0:0:
159,258,99305,6,0,L|178:152,1,95.9999952316285,0|0,3:0|0:0,0:0:0:0:
354,226,99887,2,0,L|370:320,1,95.9999952316285,8|0,3:2|0:0,0:0:0:0:
463,347,100470,2,0,L|481:348,1,11.9999994039536,0|0,3:0|0:0,0:0:0:0:
463,347,100907,5,0,0:0:0:0:
463,347,101052,2,0,L|337:344,1,110.399996622086,2|8,3:2|0:2,0:0:0:0:
95,235,101635,2,0,L|221:232,1,110.399996622086,2|8,3:2|0:2,0:0:0:0:
480,100,102217,2,0,L|354:97,1,110.399996622086,2|0,3:2|0:0,0:0:0:0:
210,48,102800,6,0,P|166:31|67:81,1,165.599994933128,4|0,1:0|0:0,0:0:0:0:
49,70,103382,2,0,P|63:112|54:182,1,110.399996622086,0|2,1:0|0:2,0:0:0:0:
159,140,103965,5,2,1:2:0:0:
297,293,104256,1,0,0:0:0:0:
369,106,104547,1,2,1:2:0:0:
296,52,104839,1,0,0:0:0:0:
287,140,105130,2,0,P|361:137|431:213,1,165.599994933128,2|0,1:2|0:0,0:0:0:0:
447,213,105712,6,0,P|392:211|348:240,1,110.399996622086,2|2,1:2|0:2,0:0:0:0:
145,325,106295,2,0,P|190:354|244:352,1,110.399996622086,2|0,1:2|0:0,0:0:0:0:
417,305,106877,1,2,1:2:0:0:
218,262,107169,1,0,0:0:0:0:
417,305,107460,2,0,L|300:311,1,110.399996622086,2|0,1:2|0:0,0:0:0:0:
66,227,108042,6,0,P|121:229|165:200,1,110.399996622086,2|2,1:2|0:0,0:0:0:0:
368,115,108625,2,0,P|322:85|268:87,1,110.399996622086,2|0,1:2|0:0,0:0:0:0:
96,135,109207,1,2,1:2:0:0:
295,178,109499,1,0,0:0:0:0:
96,135,109790,2,0,B|45:115|36:69|36:69|76:35|122:38|122:38|135:61|131:91,1,220.799993244171,2|2,1:2|1:2,0:0:0:0:
197,158,110664,5,2,0:2:0:0:
122,238,110955,2,0,P|55:255|9:238,2,110.399996622086,2|0|0,1:2|3:0|1:0,0:0:0:0:
245,368,111829,1,0,0:0:0:0:
329,317,112120,2,0,P|234:271|150:335,1,220.799993244171,2|0,1:2|1:0,0:0:0:0:
245,368,112994,1,2,0:2:0:0:
479,339,113285,5,2,1:2:0:0:
304,288,113576,1,0,0:0:0:0:
287,269,113868,5,2,1:2:0:0:
444,233,114159,1,0,0:0:0:0:
463,213,114450,6,0,B|466:168|466:168|451:150|451:150|454:101|454:101|429:168|346:170|361:161,1,220.799993244171,2|0,1:2|1:1,0:0:0:0:
379,23,115324,2,0,P|384:65|371:91,1,55.1999983110428,2|2,0:2|0:2,0:0:0:0:
297,122,115615,5,2,1:2:0:0:
187,107,115907,1,0,0:0:0:0:
110,198,116198,1,2,1:2:0:0:
0,183,116490,1,0,0:0:0:0:
177,276,116780,2,0,L|351:271,1,165.599994933128,2|2,1:2|0:2,0:0:0:0:
356,288,117654,5,2,0:2:0:0:
255,333,117945,1,2,1:2:0:0:
209,231,118237,1,2,0:2:0:0:
99,218,118528,1,2,1:2:0:0:
112,108,118819,1,0,0:0:0:0:
5,78,119110,2,0,P|-4:46|-1:22,1,55.1999983110428,2|0,1:2|0:0,0:0:0:0:
384,272,119693,5,2,1:2:0:0:
461,163,119984,1,0,1:0:0:0:
382,55,120275,1,4,1:3:0:0:
347,164,120421,5,0,1:0:0:0:
347,164,120494,1,0,0:0:0:0:
347,164,120566,1,2,1:3:0:0:
254,95,120712,1,0,1:0:0:0:
480,154,120858,5,0,3:0:0:0:
249,231,121003,1,0,3:0:0:0:
389,40,121149,1,0,3:0:0:0:
396,277,121295,1,0,3:0:0:0:
246,78,121441,6,0,P|197:71|156:91,1,81.5999975032807,8|0,1:3|0:0,0:0:0:0:
168,90,121877,1,2,3:0:0:0:
61,134,122023,2,0,L|231:141,2,163.199995006561,10|2|8,0:1|1:0|1:3,0:0:0:0:
64,150,123188,6,0,P|122:152|179:197,1,122.399996254921,10|0,0:1|0:0,0:0:0:0:
207,260,123479,2,0,P|217:321|172:380,1,122.399996254921,2|0,0:1|0:0,0:0:0:0:
94,384,123771,1,8,1:3:0:0:
84,369,124208,1,2,3:0:0:0:
11,310,124353,6,0,L|153:302,1,122.399996254921,10|0,0:1|0:0,0:0:0:0:
219,299,124644,2,0,L|361:291,1,122.399996254921,2|0,1:0|0:0,0:0:0:0:
512,217,124936,2,0,L|370:209,1,122.399996254921,2|0,0:1|0:0,0:0:0:0:
304,206,125227,2,0,L|162:198,1,122.399996254921,2|0,0:1|0:0,0:0:0:0:
0,124,125518,2,0,L|142:116,1,122.399996254921,10|0,0:1|0:0,0:0:0:0:
234,110,125809,2,0,L|376:102,1,122.399996254921,2|0,0:1|0:0,0:0:0:0:
483,97,126101,6,0,P|496:60|488:16,1,81.5999975032807,8|0,1:3|0:0,0:0:0:0:
471,25,126538,1,2,3:0:0:0:
423,154,126683,2,0,L|436:320,2,163.199995006561,10|2|8,0:1|1:0|1:3,0:0:0:0:
410,166,127848,6,0,P|393:223|331:266,1,122.399996254921,10|0,0:1|0:0,0:0:0:0:
270,319,128139,2,0,P|225:275|141:279,1,122.399996254921,2|0,0:1|0:0,0:0:0:0:
85,297,128431,1,8,1:3:0:0:
91,312,128868,1,2,3:0:0:0:
223,338,129013,6,0,P|272:276|332:257,1,122.399996254921,10|0,0:1|0:0,0:0:0:0:
419,226,129304,2,0,P|342:247|282:232,1,122.399996254921,2|0,1:0|0:0,0:0:0:0:
195,202,129596,1,4,3:0:0:0:
362,353,129741,1,0,3:0:0:0:
362,353,129814,1,0,3:0:0:0:
362,353,129887,1,0,3:0:0:0:
315,133,130032,1,8,3:0:0:0:
211,332,130178,6,0,P|164:342|108:331,1,81.5999975032807,10|0,1:0|3:0,0:0:0:0:
431,240,130470,2,0,P|471:237|511:246,1,81.5999975032807,2|0,1:0|3:0,0:0:0:0:
396,321,130761,6,0,P|414:246|380:159,1,163.199995006561,8|0,1:3|0:0,0:0:0:0:
386,166,131343,2,0,L|290:178,1,81.5999975032807,10|0,0:1|0:0,0:0:0:0:
396,321,131635,2,0,L|477:329,1,81.5999975032807,2|0,1:0|0:0,0:0:0:0:
184,242,131926,6,0,P|109:224|22:258,1,163.199995006561,8|2,1:3|0:0,0:0:0:0:
29,252,132508,2,0,L|21:352,1,81.5999975032807,10|0,0:1|0:0,0:0:0:0:
184,242,132800,2,0,L|176:142,1,81.5999975032807,2|0,0:1|0:0,0:0:0:0:
319,286,133091,6,0,P|394:304|481:270,1,163.199995006561,8|2,1:3|0:0,0:0:0:0:
474,276,133673,2,0,L|482:176,1,81.5999975032807,10|0,0:1|0:0,0:0:0:0:
319,286,133965,2,0,L|327:386,1,81.5999975032807,2|0,1:0|0:0,0:0:0:0:
164,296,134256,2,0,L|173:169,1,122.399996254921,2|0,0:1|0:0,0:0:0:0:
12,200,134547,2,0,L|24:362,2,163.199995006561,2|10|2,0:1|0:1|0:1,0:0:0:0:
152,22,135421,2,0,P|157:72|141:117,1,81.5999975032807,8|0,1:3|0:0,0:0:0:0:
155,112,136004,6,0,P|107:111|72:92,1,81.5999975032807,10|0,0:1|0:0,0:0:0:0:
237,44,136296,2,0,P|274:27|314:28,1,81.5999975032807,2|0,1:0|0:0,0:0:0:0:
511,141,136586,2,0,P|425:161|359:107,1,163.199995006561,8|2,1:3|0:0,0:0:0:0:
357,272,137169,6,0,P|405:273|440:292,1,81.5999975032807,10|0,0:1|0:0,0:0:0:0:
275,340,137461,2,0,P|237:356|197:355,1,81.5999975032807,2|0,0:1|0:0,0:0:0:0:
1,243,137751,2,0,P|87:223|153:277,1,163.199995006561,8|2,1:3|0:0,0:0:0:0:
276,83,138334,6,0,P|227:145|155:169,1,122.399996254921,10|0,0:1|0:0,0:0:0:0:
80,195,138625,2,0,P|157:174|229:197,1,122.399996254921,2|0,1:0|0:0,0:0:0:0:
304,219,138917,1,4,3:0:0:0:
137,68,139062,1,0,3:0:0:0:
137,68,139135,1,0,3:0:0:0:
137,68,139208,1,0,3:0:0:0:
184,288,139353,1,8,3:0:0:0:
266,76,139499,6,0,P|306:57|348:53,1,81.5999975032807,10|0,0:1|0:0,0:0:0:0:
415,21,139790,2,0,P|442:24|465:32,1,47.9999976158143,2|0,0:1|0:0,0:0:0:0:
511,93,140081,1,0,0:0:0:0:
377,263,147363,5,0,0:0:0:0:
385,178,147654,5,0,0:0:0:0:
461,249,147945,1,0,0:0:0:0:
416,342,148236,1,0,0:0:0:0:
313,330,148528,1,0,0:0:0:0:
291,230,148819,1,0,0:0:0:0:
385,178,149110,6,0,B|393:213|421:226|421:226|392:237|376:266|376:266|365:239|336:221|336:221|319:215,1,191.999990463257,0|2,0:0|0:0,0:0:0:0:
44,114,157557,6,0,L|170:109,1,105.599997977448,0|0,0:0|0:0,0:0:0:0:
485,43,158139,2,0,L|366:36,1,105.599997977448,0|0,0:0|0:0,0:0:0:0:
121,20,158722,6,0,P|167:88|241:106,1,158.399996966171,0|0,1:0|0:0,0:0:0:0:
255,131,159304,2,0,P|261:74|300:34,1,105.599997977448,0|0,1:0|0:0,0:0:0:0:
511,141,159887,5,0,1:0:0:0:
431,352,160178,1,0,0:0:0:0:
298,177,160469,1,0,1:0:0:0:
387,193,160760,1,0,0:0:0:0:
328,258,161052,2,0,P|262:292|166:282,1,158.399996966171,0|0,1:0|0:0,0:0:0:0:
167,300,161634,6,0,P|183:249|169:194,1,105.599997977448,0|0,1:0|0:0,0:0:0:0:
7,15,162217,2,0,P|-9:66|5:121,1,105.599997977448,0|0,1:0|0:0,0:0:0:0:
84,246,162799,1,0,1:0:0:0:
97,70,163091,1,0,0:0:0:0:
84,246,163382,2,0,P|130:270|190:264,1,105.599997977448,0|0,1:0|0:0,0:0:0:0:
504,369,163965,6,0,P|520:320|510:269,1,105.599997977448,0|0,1:0|0:0,0:0:0:0:
345,83,164548,2,0,P|329:132|339:183,1,105.599997977448,0|0,1:0|0:0,0:0:0:0:
415,314,165130,1,0,1:0:0:0:
428,138,165422,1,0,0:0:0:0:
415,314,165712,2,0,B|376:336|337:305|337:305|263:347|220:268,1,211.199995954895,0|0,1:0|1:0,0:0:0:0:
82,319,166586,5,0,0:0:0:0:
41,180,166877,2,0,P|43:126|63:73,2,105.599997977448,0|0|0,1:0|0:0|1:1,0:0:0:0:
200,156,167751,1,0,0:0:0:0:
268,121,168042,2,0,P|187:79|127:178,1,211.199995954895,0|0,1:0|1:0,0:0:0:0:
200,156,168917,2,0,P|213:205|204:256,1,52.7999989887238
291,307,169207,5,0,1:0:0:0:
495,280,169498,1,0,0:0:0:0:
486,257,169790,5,0,1:0:0:0:
314,213,170081,1,0,0:0:0:0:
340,198,170372,6,0,B|395:187|395:187|410:157|410:157|464:149|464:149|386:155|344:76|380:19,1,316.799993932343,4|0,1:0|0:0,0:0:0:0:
455,60,171537,5,0,1:0:0:0:
296,95,171828,1,0,0:1:0:0:
174,15,172120,1,0,1:0:0:0:
15,50,172411,1,0,0:0:0:0:
261,24,172703,6,0,L|431:15,1,158.399996966171,4|0,1:0|0:1,0:0:0:0:
435,25,173576,5,0,0:1:0:0:
322,20,173867,1,0,1:0:0:0:
269,122,174159,1,0,0:0:0:0:
156,126,174450,1,0,1:0:0:0:
124,236,174741,1,0,0:0:0:0:
15,268,175032,2,0,P|7:304|12:331,1,52.7999989887238,4|0,1:0|0:0,0:0:0:0:
405,92,175615,5,0,1:0:0:0:
329,163,175906,1,0,0:0:0:0:
374,256,176197,1,0,1:3:0:0:
477,244,176489,1,0,3:0:0:0:
499,144,176780,1,0,1:0:0:0:
405,92,177072,6,0,B|397:127|369:140|369:140|398:151|414:180|414:180|425:153|454:135|454:135|471:129,1,191.999990463257,0|2,0:0|0:0,0:0:0:0:
342,241,193965,5,10,0:3:0:0:
253,282,194256,5,10,0:3:0:0:
348,335,194547,1,2,0:3:0:0:
437,265,194839,1,4,3:0:0:0:
342,241,194984,1,0,3:0:0:0:
342,241,195057,1,0,3:0:0:0:
342,241,195130,1,0,3:0:0:0:
395,161,195275,1,8,3:0:0:0:
359,345,195421,5,8,1:0:0:0:
279,165,195567,1,0,3:0:0:0:
458,262,195712,1,0,1:0:0:0:
244,279,195858,1,0,3:0:0:0:
405,147,196004,6,0,P|416:113|403:20,1,125.999998548031,8|0,1:3|0:0,0:0:0:0:
434,44,196586,6,0,P|344:57|310:42,1,107.999998755455,10|0,0:1|0:0,0:0:0:0:
246,40,196877,2,0,P|193:30|143:47,1,107.999998755455,2|0,1:0|0:0,0:0:0:0:
66,27,197169,6,0,P|55:61|69:149,1,125.999998548031,8|0,1:3|0:0,0:0:0:0:
39,127,197751,6,0,P|129:114|164:133,1,107.999998755455,10|0,0:1|0:0,0:0:0:0:
223,136,198042,2,0,P|275:145|325:128,1,107.999998755455,2|0,0:1|0:0,0:0:0:0:
406,168,198334,6,0,L|423:302,1,125.999998548031,8|0,1:3|0:0,0:0:0:0:
463,297,198916,6,0,P|382:262|346:273,1,107.999998755455,10|0,0:1|0:0,0:0:0:0:
279,326,199208,2,0,P|198:361|162:350,1,107.999998755455,2|0,1:0|0:0,0:0:0:0:
33,275,199499,2,0,L|144:282,1,107.999998755455,6|0,0:1|0:0,0:0:0:0:
213,201,199790,2,0,L|105:194,1,107.999998755455,2|0,0:1|0:0,0:0:0:0:
182,358,200081,2,0,P|235:356|279:326,1,107.999998755455,10|0,0:1|0:0,0:0:0:0:
366,264,200373,2,0,P|419:266|463:297,1,107.999998755455,2|0,0:1|0:0,0:0:0:0:
388,348,200664,6,0,L|381:213,1,125.999998548031,8|0,1:3|0:0,0:0:0:0:
356,227,201246,6,0,P|399:188|451:178,1,107.999998755455,10|0,0:1|0:0,0:0:0:0:
473,105,201538,2,0,P|427:78|403:20,1,107.999998755455,2|0,1:0|0:0,0:0:0:0:
310,47,201829,6,0,P|276:93|286:162,1,125.999998548031,8|0,1:3|0:0,0:0:0:0:
308,145,202411,6,0,L|188:149,1,107.999998755455,10|0,0:1|0:0,0:0:0:0:
127,229,202703,2,0,L|247:233,1,107.999998755455,2|0,0:1|0:0,0:0:0:0:
44,300,202994,6,0,L|32:175,1,125.999998548031,8|0,1:3|0:0,0:0:0:0:
15,157,203576,6,0,P|8:110|40:43,1,107.999998755455,10|0,0:1|0:0,0:0:0:0:
204,82,203868,2,0,P|211:129|179:196,1,107.999998755455,2|0,1:0|0:0,0:0:0:0:
112,116,204159,1,8,3:0:0:0:
312,94,204305,1,0,3:0:0:0:
312,94,204377,1,0,3:0:0:0:
312,94,204450,1,0,3:0:0:0:
235,264,204596,1,4,3:0:0:0:
323,193,204742,6,0,P|360:190|402:204,1,71.9999991703034,10|0,1:0|3:0,0:0:0:0:
508,323,205033,2,0,P|473:332|437:329,1,71.9999991703034,2|0,1:0|3:0,0:0:0:0:
282,352,205324,6,0,P|216:312|133:340,1,143.999998340607,8|0,1:3|3:0,0:0:0:0:
153,324,205761,1,0,3:0:0:0:
76,351,205907,2,0,P|75:303|115:253,1,107.999998755455,10|0,0:1|0:0,0:0:0:0:
114,90,206198,2,0,P|114:137|68:184,1,107.999998755455,2|0,1:0|0:0,0:0:0:0:
40,47,206489,6,0,L|207:40,1,143.999998340607,8|0,1:3|3:0,0:0:0:0:
183,40,206926,1,0,3:0:0:0:
263,95,207072,2,0,P|281:64|352:36,1,107.999998755455,10|0,0:1|0:0,0:0:0:0:
420,19,207363,2,0,P|438:50|502:85,1,107.999998755455,2|0,0:1|0:0,0:0:0:0:
512,167,207654,6,0,P|447:173|398:260,1,143.999998340607,8|0,1:3|3:0,0:0:0:0:
400,231,208091,1,0,3:0:0:0:
474,366,208237,6,0,L|486:257,1,107.999998755455,10|0,0:1|0:0,0:0:0:0:
290,182,208528,2,0,L|301:289,1,107.999998755455,2|0,1:0|0:0,0:0:0:0:
196,326,208819,2,0,P|155:349|89:346,1,107.999998755455,6|0,0:1|0:0,0:0:0:0:
60,207,209110,2,0,P|101:184|167:187,1,107.999998755455,2|0,0:1|0:0,0:0:0:0:
301,289,209402,2,0,L|290:182,1,107.999998755455,10|0,0:1|0:0,0:0:0:0:
485,258,209693,2,0,L|474:366,1,107.999998755455,2|0,0:1|0:0,0:0:0:0:
406,194,209984,6,0,P|401:128|463:58,1,143.999998340607,8|0,1:3|3:0,0:0:0:0:
444,67,210421,1,0,3:0:0:0:
359,119,210567,6,0,L|241:128,1,107.999998755455,10|0,0:1|0:0,0:0:0:0:
171,77,210858,2,0,L|41:72,1,107.999998755455,2|0,1:0|0:0,0:0:0:0:
19,144,211149,6,0,P|21:204|90:273,1,143.999998340607,8|0,1:3|3:0,0:0:0:0:
73,265,211586,1,0,3:0:0:0:
130,355,211732,2,0,P|158:320|226:297,1,107.999998755455,10|0,0:1|0:0,0:0:0:0:
268,213,212023,2,0,P|296:248|364:271,1,107.999998755455,2|0,0:1|0:0,0:0:0:0:
485,342,212314,2,0,L|318:351,1,143.999998340607,8|0,1:3|3:0,0:0:0:0:
341,349,212751,1,0,3:0:0:0:
275,263,212897,6,0,P|324:201|388:180,1,143.999992847443,10|0,0:1|0:0,0:0:0:0:
471,151,213188,2,0,P|395:173|329:157,1,143.999992847443,2|0,1:0|0:0,0:0:0:0:
247,127,213480,1,4,3:0:0:0:
414,278,213625,1,0,3:0:0:0:
414,278,213698,1,0,3:0:0:0:
414,278,213771,1,0,3:0:0:0:
367,58,213916,1,8,3:0:0:0:
277,260,214062,6,0,P|234:279|169:273,1,95.9999952316285,10|0,1:0|3:0,0:0:0:0:
27,181,214353,2,0,P|13:137|19:86,1,95.9999952316285,2|0,1:0|3:0,0:0:0:0:
92,37,214644,6,0,L|239:35,1,143.999998340607,8|0,1:3|3:0,0:0:0:0:
299,101,215081,1,0,3:0:0:0:
299,101,215227,2,0,L|446:99,1,143.999998340607,10|2,0:1|1:0,0:0:0:0:
487,219,215809,5,8,1:3:0:0:
504,258,215955,1,2,0:2:0:0:
498,300,216101,1,2,0:2:0:0:
470,332,216246,1,2,0:2:0:0:
350,310,216392,5,10,0:1:0:0:
333,271,216538,1,2,0:2:0:0:
339,229,216684,1,2,0:1:0:0:
367,197,216829,1,2,0:2:0:0:
417,263,216975,6,0,L|270:266,1,143.999998340607,8|0,1:3|3:0,0:0:0:0:
251,344,217411,1,0,3:0:0:0:
251,344,217557,2,0,L|104:347,1,143.999998340607,10|2,0:1|1:0,0:0:0:0:
26,206,218140,5,2,0:1:0:0:
58,234,218285,1,2,0:2:0:0:
100,239,218431,1,2,0:1:0:0:
140,224,218576,1,2,0:2:0:0:
163,187,218722,2,0,P|170:152|165:111,1,71.9999991703034,10|0,0:1|0:0,0:0:0:0:
0,81,219013,2,0,P|-4:46|3:11,1,71.9999991703034,2|2,0:1|0:2,0:0:0:0:
92,37,219305,6,0,L|239:35,1,143.999998340607,8|0,1:3|3:0,0:0:0:0:
280,111,219742,1,2,3:2:0:0:
280,111,219888,2,0,L|427:108,1,143.999998340607,10|2,0:1|1:0,0:0:0:0:
487,219,220470,5,8,1:3:0:0:
504,258,220616,1,2,0:2:0:0:
498,300,220762,1,2,0:2:0:0:
350,310,221053,5,10,0:1:0:0:
333,271,221199,1,2,0:2:0:0:
339,229,221343,2,0,P|346:204|378:172,1,71.9999991703034,2|0,0:0|0:0,0:0:0:0:
417,263,221636,6,0,L|270:266,1,143.999998340607,8|0,1:3|0:0,0:0:0:0:
251,344,222072,1,2,0:2:0:0:
251,344,222218,2,0,L|104:347,1,143.999998340607,10|2,0:1|1:0,0:0:0:0:
22,122,222800,5,4,3:0:0:0:
54,272,222945,1,0,3:0:0:0:
54,272,223018,1,0,3:0:0:0:
54,272,223091,1,0,3:0:0:0:
177,170,223237,1,8,3:0:0:0:
83,186,223382,6,0,P|112:156|148:148,1,71.9999991703034,10|0,1:0|3:0,0:0:0:0:
234,248,223674,2,0,P|264:277|272:313,1,71.9999991703034,2|0,1:0|3:0,0:0:0:0:
381,354,223965,6,0,P|397:296|464:242,1,143.999998340607,8|0,1:3|3:0,0:0:0:0:
340,237,224402,1,0,3:0:0:0:
352,333,224547,2,0,P|368:275|435:221,1,143.999998340607,10|2,0:1|1:0,0:0:0:0:
464,88,225130,5,8,1:3:0:0:
433,117,225275,1,2,0:2:0:0:
390,123,225421,1,2,0:2:0:0:
285,40,225712,5,10,0:1:0:0:
260,75,225858,1,2,0:2:0:0:
219,90,226004,1,2,0:1:0:0:
176,84,226149,1,2,0:2:0:0:
104,38,226295,6,0,P|120:94|54:176,1,143.999998340607,8|0,1:3|3:0,0:0:0:0:
0,79,226732,1,0,3:0:0:0:
75,30,226877,2,0,P|91:86|25:168,1,143.999998340607,10|2,0:1|1:0,0:0:0:0:
48,269,227460,5,2,0:1:0:0:
80,297,227606,1,2,0:2:0:0:
120,310,227751,1,2,0:1:0:0:
163,308,227897,1,2,0:2:0:0:
202,291,228042,2,0,P|219:250|219:218,1,71.9999991703034,10|0,0:1|0:0,0:0:0:0:
282,93,228334,2,0,P|284:129|300:162,1,71.9999991703034,2|2,0:1|0:2,0:0:0:0:
397,200,228625,6,0,B|456:216|498:177|498:177|468:126|407:126,1,215.99999751091,8|0,1:3|3:0,0:0:0:0:
234,258,229208,6,0,P|227:298|255:360,1,107.999998755455,10|0,0:1|0:0,0:0:0:0:
346,343,229499,2,0,P|353:303|325:241,1,107.999998755455,2|0,1:0|0:0,0:0:0:0:
409,126,229790,6,0,B|442:74|418:22|418:22|360:35|341:93,1,215.99999751091,8|0,1:3|3:0,0:0:0:0:
68,214,230373,6,0,P|103:233|171:225,1,107.999998755455,10|0,0:1|0:0,0:0:0:0:
183,133,230664,2,0,P|147:113|79:121,1,107.999998755455,2|0,0:1|0:0,0:0:0:0:
342,91,230955,6,0,B|303:43|246:50|246:50|241:109|290:144,1,215.99999751091,8|0,1:3|3:0,0:0:0:0:
288,143,231538,6,0,B|259:153|253:181|253:181|281:193|305:175,1,107.999998755455,10|0,0:1|0:0,0:0:0:0:
365,220,231829,6,0,B|366:250|391:264|391:264|411:242|401:213,1,107.999998755455,2|0,1:0|0:0,0:0:0:0:
474,179,232120,5,4,3:0:0:0:
380,126,232266,1,0,3:0:0:0:
380,126,232339,1,0,3:0:0:0:
380,126,232411,1,0,3:0:0:0:
487,71,232557,1,8,3:0:0:0:
356,229,232703,5,10,1:0:0:0:
354,26,232848,1,0,3:0:0:0:
479,188,232994,1,2,1:0:0:0:
272,129,233140,1,0,3:0:0:0:
91,258,233285,6,0,B|116:303|89:348|89:348|41:332|28:280,1,191.999990463257,0|0,0:0|0:0,0:0:0:0:
