osu file format v14

[General]
AudioFilename: audio.mp3
AudioLeadIn: 0
PreviewTime: 63188
Countdown: 0
SampleSet: Soft
StackLeniency: 0.3
Mode: 0
LetterboxInBreaks: 0
StoryFireInFront: 0
WidescreenStoryboard: 1

[Editor]
DistanceSpacing: 0.4
BeatDivisor: 8
GridSize: 32
TimelineZoom: 1.1

[Metadata]
Title:Something Just Like This
TitleUnicode:Something Just Like This
Artist:The Chainsmokers & Coldplay
ArtistUnicode:The Chainsmokers & Coldplay
Creator:handsome
Version:Insane
Source:
Tags:memories do not open paris closer andrew taggart alex pall edm electronic pop electropop dancepop fanzhen0019 regou plaudible
BeatmapID:1358045
BeatmapSetID:611301

[Difficulty]
HPDrainRate:4
CircleSize:4
OverallDifficulty:7
ApproachRate:8
SliderMultiplier:1.999999904633
SliderTickRate:1

[Events]
//Background and Video events
0,0,"bg.jpg",0,0
//Break Periods
2,140281,157972
//Storyboard Layer 0 (Background)
//Storyboard Layer 1 (Fail)
//Storyboard Layer 2 (Pass)
//Storyboard Layer 3 (Foreground)
//Storyboard Sound Samples

[TimingPoints]
276,582.5242718447,4,2,1,20,1,0
9596,-166.6666666667,4,2,1,20,0,0
18916,-125,4,2,1,20,0,0
28237,-100,4,2,1,50,0,0
44547,-100,4,2,1,40,0,0
63771,-83.3333333333333,4,2,1,50,0,0
64062,-83.3333333333333,4,2,1,55,0,0
64353,-83.3333333333333,4,2,1,60,0,0
65518,-71.4285714285714,4,2,1,80,0,0
82703,-100,4,2,1,70,0,0
82994,-100,4,2,1,60,0,0
83285,-100,4,2,1,50,0,0
83576,-100,4,2,1,40,0,0
83868,-100,4,2,1,30,0,0
84159,-125,4,2,1,40,0,0
93479,-100,4,2,1,50,0,0
102800,-100,4,2,1,60,0,0
119693,-83.3333333333333,4,2,1,60,0,0
120858,-83.3333333333333,4,2,1,80,0,0
121441,-71.4285714285714,4,2,1,80,0,0
139499,-100,4,2,1,60,0,0
139790,-100,4,2,1,40,0,0
158722,-166.6666666667,4,2,1,50,0,0
168042,-125,4,2,1,60,0,0
175615,-100,4,2,1,60,0,0
177363,-100,4,2,1,50,0,0
192800,-100,4,2,1,55,0,0
193091,-100,4,2,1,60,0,0
193382,-100,4,2,1,65,0,0
193674,-100,4,2,1,70,0,0
193965,-100,4,2,1,75,0,0
194256,-100,4,2,1,80,0,0
194547,-100,4,2,1,85,0,0
194839,-83.3333333333333,4,2,1,90,0,0
196004,-71.4285714285714,4,2,1,100,0,0
214644,-62.499999999998,4,2,1,100,0,1
232703,-40,4,2,1,80,0,1
232994,-125,4,2,1,60,0,1
233285,-40,4,2,1,40,0,0

[Colours]
Combo1 : 255,242,204
Combo2 : 255,215,215
Combo3 : 255,204,230
Combo4 : 230,204,255
Combo5 : 204,230,255
Combo6 : 204,255,230
Combo7 : 240,255,225

[HitObjects]
372,310,9596,6,0,P|354:262|381:198,1,119.999990615871,2|0,0:0|0:0,0:0:0:0:
378,200,10470,1,0,0:0:0:0:
469,91,10761,5,0,0:0:0:0:
401,119,11052,1,0,0:0:0:0:
334,91,11343,1,0,0:0:0:0:
306,23,11634,1,0,0:0:0:0:
280,149,11926,6,0,L|150:141,1,119.999990615871,2|0,0:0|0:0,0:0:0:0:
160,141,12800,1,0,0:0:0:0:
30,29,13091,5,0,0:0:0:0:
1,96,13382,1,0,0:0:0:0:
29,163,13673,1,0,0:0:0:0:
97,191,13964,1,0,0:0:0:0:
143,333,14256,6,0,P|91:320|66:254,1,119.999990615871,2|0,0:0|0:0,0:0:0:0:
64,263,15130,1,0,0:0:0:0:
210,289,15421,5,0,0:0:0:0:
246,226,15712,1,0,0:0:0:0:
216,160,16004,1,0,0:0:0:0:
252,97,16295,1,0,0:0:0:0:
321,224,16586,6,0,L|451:200,1,119.999990615871,2|0,0:0|0:0,0:0:0:0:
439,202,17460,1,0,0:0:0:0:
373,383,17751,5,0,0:0:0:0:
344,315,18042,1,0,0:0:0:0:
277,287,18333,1,0,0:0:0:0:
209,315,18624,1,0,0:0:0:0:
47,241,18916,6,0,P|40:171|23:120,2,119.99999427798,2|8|8,0:0|0:1|0:1,0:0:0:0:
87,71,20081,1,0,0:0:0:0:
166,77,20372,1,0,0:0:0:0:
246,83,20663,1,8,0:1:0:0:
326,90,20954,1,0,0:0:0:0:
501,17,21246,6,0,L|373:33,2,119.99999427798,2|8|8,0:0|0:1|0:1,0:0:0:0:
501,17,22703,1,8,0:1:0:0:
435,106,22994,2,0,P|434:137|457:181,1,79.99999618532,8|0,0:1|0:0,0:0:0:0:
255,271,23576,6,0,L|170:259,1,79.99999618532,2|0,0:0|0:0,0:0:0:0:
368,175,24159,2,0,L|453:187,1,79.99999618532,0|8,0:0|0:1,0:0:0:0:
263,166,24742,2,0,L|275:81,1,79.99999618532,0|0,0:0|0:0,0:0:0:0:
359,279,25325,2,0,L|347:364,1,79.99999618532,8|0,0:1|0:0,0:0:0:0:
175,259,25907,1,2,0:0:0:0:
132,20,26489,6,0,P|147:44|167:97,1,79.99999618532,0|8,0:0|1:0,0:0:0:0:
38,266,27072,1,0,0:0:0:0:
64,157,27363,1,8,0:1:0:0:
160,99,27654,1,8,0:1:0:0:
268,128,27945,1,0,0:0:0:0:
473,80,28237,6,0,L|355:70,1,99.99999523165,4|0,0:1|0:0,0:0:0:0:
436,195,28819,2,0,L|318:185,1,99.99999523165,0|2,0:0|0:0,0:0:0:0:
183,114,29402,5,0,0:0:0:0:
137,33,29693,1,2,0:0:0:0:
42,54,29985,1,0,0:0:0:0:
33,150,30276,1,2,0:0:0:0:
123,190,30567,1,2,0:0:0:0:
154,283,30858,1,0,0:0:0:0:
88,354,31149,6,0,P|63:321|72:238,1,99.99999523165,2|0,0:0|0:0,0:0:0:0:
168,248,31732,2,0,P|173:206|238:154,1,99.99999523165,2|0,0:0|0:0,0:0:0:0:
239,344,32314,2,0,P|272:319|354:327,1,99.99999523165,2|0,0:0|0:0,0:0:0:0:
481,199,32897,6,0,L|462:310,1,99.99999523165,2|0,0:0|0:0,0:0:0:0:
338,226,33479,2,0,L|321:127,1,99.99999523165,2|0,0:0|0:0,0:0:0:0:
470,47,34062,1,2,0:0:0:0:
439,142,34353,1,0,0:0:0:0:
343,111,34644,1,0,0:0:0:0:
374,16,34936,1,0,0:0:0:0:
247,134,35227,6,0,P|188:129|137:72,2,99.99999523165,2|0|0,0:0|0:0|0:0,0:0:0:0:
222,42,36101,1,2,0:0:0:0:
364,89,36392,6,0,L|339:220,1,99.99999523165,2|0,0:0|0:0,0:0:0:0:
470,338,36975,2,0,L|495:207,1,99.99999523165,2|0,0:0|0:0,0:0:0:0:
348,311,37557,5,2,0:0:0:0:
248,322,37848,1,0,0:0:0:0:
149,333,38139,1,0,0:0:0:0:
49,344,38430,1,2,0:0:0:0:
123,221,38722,6,0,P|157:263|155:355,1,99.99999523165,2|0,0:0|0:0,0:0:0:0:
110,96,39305,2,0,P|56:104|-22:56,1,99.99999523165,2|0,0:0|0:0,0:0:0:0:
224,147,39887,2,0,P|243:96|324:52,2,99.99999523165,2|0|0,0:0|0:0|0:0,0:0:0:0:
334,164,40761,5,2,0:0:0:0:
272,337,41052,2,0,L|265:225,1,99.99999523165,2|0,0:0|0:0,0:0:0:0:
396,353,41635,2,0,L|389:241,1,99.99999523165,2|0,0:0|0:0,0:0:0:0:
389,50,42217,2,0,P|473:36|468:157,1,199.9999904633,2|0,0:0|0:0,0:0:0:0:
333,181,43091,1,2,0:0:0:0:
248,42,43382,6,0,L|135:29,1,99.99999523165,0|0,0:0|0:0,0:0:0:0:
32,141,43965,2,0,L|145:154,1,99.99999523165,2|0,0:0|0:0,0:0:0:0:
205,253,44547,1,2,0:0:0:0:
434,19,45130,5,0,0:0:0:0:
443,98,45421,1,0,0:0:0:0:
452,177,45712,1,0,0:0:0:0:
461,256,46004,1,0,0:0:0:0:
434,329,46295,1,0,0:0:0:0:
366,368,46586,1,0,0:0:0:0:
289,352,46877,1,4,0:1:0:0:
200,258,47169,2,0,P|138:280|106:325,1,99.99999523165,0|0,0:0|0:0,0:0:0:0:
79,88,47751,5,0,0:0:0:0:
79,88,47897,1,0,0:0:0:0:
79,88,48042,1,2,0:0:0:0:
159,147,48334,1,0,0:0:0:0:
159,147,48480,1,0,0:0:0:0:
159,147,48625,1,2,0:0:0:0:
247,100,48916,1,2,0:0:0:0:
319,169,49208,2,0,L|342:282,2,99.99999523165,4|0|0,0:1|0:0|0:0,0:0:0:0:
404,116,50081,5,0,0:0:0:0:
404,116,50227,1,0,0:0:0:0:
404,116,50373,1,2,0:0:0:0:
498,149,50664,1,0,0:0:0:0:
498,149,50810,1,0,0:0:0:0:
498,149,50956,1,2,0:0:0:0:
459,240,51246,1,2,0:0:0:0:
364,206,51538,2,0,L|258:225,2,99.99999523165,4|0|0,0:1|0:0|0:0,0:0:0:0:
404,116,52411,5,0,0:0:0:0:
404,116,52557,1,0,0:0:0:0:
404,116,52703,1,2,0:0:0:0:
308,85,52994,1,0,0:0:0:0:
308,85,53140,1,0,0:0:0:0:
308,85,53286,1,2,0:0:0:0:
235,153,53576,1,2,0:0:0:0:
159,86,53868,2,0,P|134:131|139:188,1,99.99999523165,2|0,0:0|0:0,0:0:0:0:
18,349,54450,5,2,0:0:0:0:
116,332,54742,1,0,0:0:0:0:
214,315,55033,1,2,0:0:0:0:
312,298,55324,1,0,0:0:0:0:
323,198,55615,1,2,0:0:0:0:
235,153,55907,1,0,0:0:0:0:
164,226,56198,1,4,0:1:0:0:
74,109,56489,2,0,L|90:-4,1,99.99999523165,0|0,0:0|0:0,0:0:0:0:
235,153,57072,5,0,0:0:0:0:
235,153,57217,1,0,0:0:0:0:
235,153,57363,1,2,0:0:0:0:
301,227,57654,1,0,0:0:0:0:
301,227,57799,1,0,0:0:0:0:
301,227,57945,1,2,0:0:0:0:
218,284,58237,1,2,0:0:0:0:
298,343,58528,2,0,L|400:321,2,99.99999523165,4|0|0,0:1|0:0|0:0,0:0:0:0:
203,376,59402,5,0,0:0:0:0:
203,376,59547,1,0,0:0:0:0:
203,376,59693,1,2,0:0:0:0:
120,320,59984,1,0,0:0:0:0:
120,320,60129,1,0,0:0:0:0:
120,320,60275,1,2,0:0:0:0:
162,229,60567,1,2,0:0:0:0:
91,158,60858,2,0,L|-26:141,2,99.99999523165,4|0|0,0:1|0:0|0:0,0:0:0:0:
167,92,61732,5,0,0:0:0:0:
167,92,61877,1,0,0:0:0:0:
167,92,62023,1,2,0:0:0:0:
253,141,62314,1,0,0:0:0:0:
253,141,62460,1,0,0:0:0:0:
253,141,62606,1,2,0:0:0:0:
337,88,62897,1,2,0:0:0:0:
421,141,63188,2,0,P|435:81|413:30,1,99.99999523165,0|2,0:0|0:0,0:0:0:0:
481,207,63771,6,0,L|466:281,1,59.9999953079355,2|0,0:0|0:0,0:0:0:0:
381,222,64062,2,0,L|366:296,1,59.9999953079355,2|0,0:0|0:0,0:0:0:0:
292,325,64353,5,4,3:0:0:0:
204,340,64499,2,0,L|197:304,2,29.9999976539677,0|0|0,3:0|3:0|3:0,0:0:0:0:
116,355,64790,1,8,3:0:0:0:
35,304,64936,6,0,L|17:231,1,59.9999953079355,0|0,1:0|3:0,0:0:0:0:
129,176,65227,2,0,L|114:234,1,59.9999953079355,0|0,1:0|3:0,0:0:0:0:
278,249,65518,6,0,P|302:197|198:117,1,209.999983577774,8|0,1:3|0:0,0:0:0:0:
107,85,66101,2,0,L|119:175,1,69.9999945259247,10|0,0:1|0:0,0:0:0:0:
14,101,66392,2,0,L|26:191,1,69.9999945259247,2|0,1:0|0:0,0:0:0:0:
0,286,66683,6,0,L|216:306,1,209.999983577774,8|0,1:3|0:0,0:0:0:0:
293,384,67266,2,0,P|302:333|336:305,1,69.9999945259247,10|0,0:1|0:0,0:0:0:0:
269,232,67557,2,0,P|311:202|355:206,1,69.9999945259247,2|0,0:1|0:0,0:0:0:0:
479,244,67848,6,0,P|493:310|406:257,1,209.999983577774,8|0,1:3|0:0,0:0:0:0:
411,179,68431,2,0,L|432:99,1,69.9999945259247,10|0,0:1|0:0,0:0:0:0:
331,109,68722,2,0,L|352:29,1,69.9999945259247,2|0,1:0|0:0,0:0:0:0:
181,222,69013,6,0,L|39:211,2,139.999989051849,2|2|10,0:1|0:1|0:1,0:0:0:0:
395,229,69887,1,2,0:1:0:0:
234,135,70178,6,0,P|210:187|314:267,1,209.999983577774,8|0,1:3|0:0,0:0:0:0:
405,299,70761,2,0,L|393:209,1,69.9999945259247,10|0,0:1|0:0,0:0:0:0:
498,283,71052,2,0,L|486:193,1,69.9999945259247,2|0,1:0|0:0,0:0:0:0:
512,98,71343,6,0,L|296:78,1,209.999983577774,8|0,1:3|0:0,0:0:0:0:
219,0,71926,2,0,P|210:51|176:79,1,69.9999945259247,10|0,0:1|0:0,0:0:0:0:
243,152,72217,2,0,P|201:182|157:178,1,69.9999945259247,2|0,0:1|0:0,0:0:0:0:
33,140,72508,6,0,P|19:74|106:127,1,209.999983577774,8|0,1:3|0:0,0:0:0:0:
101,205,73091,2,0,L|80:285,1,69.9999945259247,10|0,0:1|0:0,0:0:0:0:
181,275,73382,2,0,L|160:355,1,69.9999945259247,2|0,1:0|0:0,0:0:0:0:
261,345,73674,5,4,3:0:0:0:
350,351,73819,2,0,L|365:388,2,34.9999972629623,0|0|0,3:0|3:0|3:0,0:0:0:0:
406,282,74110,1,8,3:0:0:0:
305,241,74256,6,0,P|263:220|245:192,1,69.9999945259247,10|0,1:0|3:0,0:0:0:0:
163,233,74547,2,0,P|148:188|155:155,1,69.9999945259247,2|0,1:0|3:0,0:0:0:0:
43,55,74839,6,0,P|129:23|219:96,1,209.999983577774,8|0,1:3|0:0,0:0:0:0:
336,54,75421,2,0,L|325:135,1,69.9999945259247,10|0,0:1|0:0,0:0:0:0:
442,134,75712,2,0,L|410:209,1,69.9999945259247,2|0,1:0|0:0,0:0:0:0:
496,340,76004,6,0,L|279:317,1,209.999983577774,8|0,1:3|0:0,0:0:0:0:
251,212,76586,2,0,P|215:234|191:280,1,69.9999945259247,10|0,0:1|0:0,0:0:0:0:
159,375,76877,2,0,P|137:347|107:330,1,69.9999945259247,2|0,0:1|0:0,0:0:0:0:
79,161,77169,6,0,B|27:132|-16:178|-16:178|0:241|67:233,1,209.999983577774,8|0,1:3|0:0,0:0:0:0:
180,149,77751,2,0,P|172:110|142:77,1,69.9999945259247,10|0,0:1|0:0,0:0:0:0:
264,220,78042,2,0,P|285:186|288:142,1,69.9999945259247,2|0,1:0|0:0,0:0:0:0:
384,101,78334,6,0,P|343:60|247:65,2,139.999989051849,2|2|10,0:1|0:1|0:1,0:0:0:0:
512,189,79208,1,2,0:1:0:0:
469,329,79499,6,0,P|383:361|293:288,1,209.999983577774,8|0,1:3|0:0,0:0:0:0:
176,330,80081,2,0,L|187:249,1,69.9999945259247,10|0,0:1|0:0,0:0:0:0:
70,250,80372,2,0,L|101:174,1,69.9999945259247,2|0,1:0|0:0,0:0:0:0:
16,44,80664,6,0,L|233:67,1,209.999983577774,8|0,1:3|0:0,0:0:0:0:
261,172,81246,2,0,P|297:150|321:104,1,69.9999945259247,10|0,0:1|0:0,0:0:0:0:
353,9,81537,2,0,P|374:36|404:53,1,69.9999945259247,2|0,0:1|0:0,0:0:0:0:
433,223,81829,6,0,B|484:251|528:205|528:205|511:142|444:150,1,209.999983577774,8|0,1:3|0:0,0:0:0:0:
332,235,82411,2,0,P|340:274|370:307,1,69.9999945259247,10|0,0:1|0:0,0:0:0:0:
248,164,82702,2,0,P|226:197|223:241,1,69.9999945259247,2|0,0:1|0:0,0:0:0:0:
247,328,82994,6,0,B|193:301|137:313|174:329|113:350|40:316,1,199.9999904633,0|10,0:0|0:1,0:0:0:0:
196,212,83868,1,2,0:1:0:0:
196,212,84159,2,0,P|252:240|240:333,1,159.99999237064,2|0,3:0|3:0,0:0:0:0:
247,328,85033,1,0,0:0:0:0:
404,370,85324,5,0,3:0:0:0:
444,300,85615,1,0,0:0:0:0:
419,223,85907,1,0,3:0:0:0:
344,195,86198,1,0,0:0:0:0:
404,47,86489,6,0,P|335:53|296:136,1,159.99999237064,2|0,3:0|3:0,0:0:0:0:
295,127,87362,1,0,0:0:0:0:
176,145,87653,5,0,3:0:0:0:
192,66,87945,1,0,0:0:0:0:
113,51,88236,1,0,3:0:0:0:
97,130,88528,1,0,0:0:0:0:
25,299,88819,6,0,L|194:280,1,159.99999237064,2|0,3:0|3:0,0:0:0:0:
184,282,89693,1,0,0:0:0:0:
242,133,89984,5,0,3:0:0:0:
229,212,90276,1,0,0:0:0:0:
262,284,90567,1,0,3:0:0:0:
250,363,90858,1,0,0:0:0:0:
392,198,91149,6,0,P|481:221|515:294,1,159.99999237064,2|0,3:0|3:0,0:0:0:0:
512,275,92023,1,0,0:0:0:0:
421,365,92314,5,0,3:0:0:0:
341,357,92605,1,0,0:0:0:0:
261,349,92896,1,0,3:0:0:0:
182,341,93187,1,0,0:0:0:0:
168,221,93479,6,0,P|124:279|41:306,2,149.999992847475,2|8|8,3:2|0:1|0:1,0:0:0:0:
181,68,94644,1,0,3:0:0:0:
239,149,94936,1,0,0:0:0:0:
333,180,95227,1,8,3:1:0:0:
430,157,95518,1,0,0:0:0:0:
335,292,95809,6,0,L|315:126,2,149.999992847475,2|8|8,3:2|0:1|0:1,0:0:0:0:
335,292,97266,1,8,0:1:0:0:
263,367,97557,2,0,P|187:352|160:322,1,99.99999523165,8|0,3:1|0:0,0:0:0:0:
161,184,98140,6,0,P|137:238|48:281,2,149.999992847475,2|8|8,3:2|0:1|0:1,0:0:0:0:
280,66,99305,1,0,3:0:0:0:
179,92,99597,1,0,0:0:0:0:
173,197,99888,1,8,3:1:0:0:
271,235,100179,1,0,0:0:0:0:
338,153,100470,1,0,3:0:0:0:
338,153,101052,6,0,P|362:214|368:302,1,99.99999523165,2|8,3:2|0:1,0:0:0:0:
343,353,101635,1,2,3:2:0:0:
436,169,101927,1,8,0:1:0:0:
253,76,102218,1,2,3:2:0:0:
159,259,102509,1,0,0:0:0:0:
102,88,102800,6,0,L|83:196,1,99.99999523165,4|0,1:0|0:0,0:0:0:0:
241,336,103382,2,0,L|260:228,1,99.99999523165,0|2,1:0|0:2,0:0:0:0:
207,60,103965,5,2,1:2:0:0:
287,4,104256,1,0,0:0:0:0:
385,11,104547,1,2,1:2:0:0:
457,77,104838,1,0,0:0:0:0:
472,174,105130,1,2,1:2:0:0:
424,259,105421,1,0,0:0:0:0:
252,214,105712,6,0,L|373:194,1,99.99999523165,2|2,1:2|0:2,0:0:0:0:
301,357,106295,2,0,L|203:341,1,99.99999523165,2|0,1:2|0:0,0:0:0:0:
43,283,106877,2,0,L|141:266,1,99.99999523165,2|0,1:2|0:0,0:0:0:0:
198,82,107460,6,0,P|206:133|178:177,1,99.99999523165,2|0,1:2|0:0,0:0:0:0:
81,155,108042,2,0,P|73:104|101:60,1,99.99999523165,2|0,1:2|0:0,0:0:0:0:
281,22,108625,1,2,1:2:0:0:
380,170,108916,1,0,0:0:0:0:
256,146,109208,1,0,1:0:0:0:
405,47,109499,1,0,0:0:0:0:
484,231,109790,6,0,L|470:348,2,99.99999523165,2|2|2,1:2|0:0|1:2,0:0:0:0:
501,110,110664,1,2,0:2:0:0:
353,27,110955,6,0,P|312:56|288:149,1,99.99999523165,2|0,1:2|3:0,0:0:0:0:
156,58,111538,2,0,P|147:107|196:190,1,99.99999523165,0|0,1:0|0:0,0:0:0:0:
32,320,112120,5,2,1:2:0:0:
130,302,112411,1,0,0:0:0:0:
229,285,112702,1,0,1:0:0:0:
327,268,112993,1,2,0:2:0:0:
472,95,113285,6,0,P|431:69|354:75,1,99.99999523165,2|0,1:2|0:0,0:0:0:0:
430,288,113868,2,0,P|473:265|506:195,1,99.99999523165,2|0,1:2|0:0,0:0:0:0:
284,154,114450,2,8,P|281:202|325:266,2,99.99999523165,2|0|0,1:2|0:0|1:1,0:0:0:0:
398,179,115324,5,2,0:2:0:0:
262,53,115615,2,0,L|147:69,1,99.99999523165,2|0,1:2|0:0,0:0:0:0:
0,190,116198,2,0,L|115:174,1,99.99999523165,2|0,1:2|0:0,0:0:0:0:
245,285,116780,2,0,P|320:243|258:148,1,199.9999904633,2|0,1:2|1:0,0:0:0:0:
117,285,117654,1,2,0:2:0:0:
135,60,117945,5,2,1:2:0:0:
11,230,118237,1,2,0:2:0:0:
211,165,118528,1,2,1:2:0:0:
11,100,118819,1,0,0:0:0:0:
135,271,119110,2,0,P|116:225|142:148,1,99.99999523165,2|0,1:2|0:0,0:0:0:0:
204,78,119693,6,0,L|299:94,1,59.9999953079355,2|0,1:2|0:0,0:0:0:0:
342,35,119984,2,0,L|437:19,1,59.9999953079355,0|0,1:0|0:0,0:0:0:0:
479,184,120276,5,4,1:3:0:0:
405,147,120421,1,0,1:0:0:0:
473,103,120567,1,2,1:3:0:0:
357,359,120858,5,0,3:0:0:0:
334,288,121003,1,0,3:0:0:0:
273,248,121149,1,0,3:0:0:0:
199,254,121294,1,0,3:0:0:0:
146,305,121441,6,0,L|173:63,1,209.999983577774,8|0,1:3|3:0,0:0:0:0:
194,0,122023,2,0,P|228:21|257:94,1,69.9999945259247,10|0,0:1|0:0,0:0:0:0:
290,194,122314,2,0,P|272:156|287:80,1,69.9999945259247,2|0,1:0|0:0,0:0:0:0:
504,25,122606,6,0,P|442:-6|330:59,1,209.999983577774,8|0,1:3|0:0,0:0:0:0:
416,115,123188,2,0,L|433:210,1,69.9999945259247,10|0,0:1|0:0,0:0:0:0:
512,262,123479,2,0,L|495:357,1,69.9999945259247,2|0,0:1|0:0,0:0:0:0:
293,295,123771,6,0,P|373:265|363:368,1,209.999983577774,8|0,1:3|0:0,0:0:0:0:
215,359,124353,2,0,P|196:320|208:257,1,69.9999945259247,10|0,0:1|0:0,0:0:0:0:
95,280,124644,2,0,P|109:238|162:202,1,69.9999945259247,2|0,1:0|0:0,0:0:0:0:
242,64,124936,6,0,P|195:114|127:124,2,139.999989051849,2|2|10,0:1|0:1|0:1,0:0:0:0:
142,12,125809,1,2,0:1:0:0:
366,79,126101,6,0,L|339:321,1,209.999983577774,8|0,1:3|3:0,0:0:0:0:
318,384,126683,2,0,P|283:362|254:289,1,69.9999945259247,10|0,0:1|0:0,0:0:0:0:
222,190,126974,2,0,P|239:227|224:303,1,69.9999945259247,2|0,1:0|0:0,0:0:0:0:
8,355,127266,6,0,P|70:386|182:321,1,209.999983577774,8|0,1:3|0:0,0:0:0:0:
96,269,127848,2,0,L|79:174,1,69.9999945259247,10|0,0:1|0:0,0:0:0:0:
0,122,128139,2,0,L|17:27,1,69.9999945259247,2|0,0:1|0:0,0:0:0:0:
219,89,128431,6,0,P|139:119|149:16,1,209.999983577774,8|0,1:3|0:0,0:0:0:0:
297,25,129013,2,0,P|316:64|304:127,1,69.9999945259247,10|0,0:1|0:0,0:0:0:0:
417,104,129304,2,0,P|402:145|349:181,1,69.9999945259247,2|0,1:0|0:0,0:0:0:0:
165,243,129596,5,4,3:0:0:0:
254,255,129742,2,0,L|262:213,2,34.9999972629623,0|0|0,3:0|3:0|3:0,0:0:0:0:
343,267,130033,1,8,3:0:0:0:
422,325,130178,6,0,P|440:287|438:249,1,69.9999945259247,10|0,1:0|3:0,0:0:0:0:
491,175,130470,2,0,P|476:135|448:109,1,69.9999945259247,2|0,1:0|3:0,0:0:0:0:
282,166,130761,6,0,P|191:169|141:60,1,209.999983577774,8|0,1:3|3:0,0:0:0:0:
28,12,131343,2,0,L|13:110,1,69.9999945259247,10|0,0:1|0:0,0:0:0:0:
66,192,131635,2,0,L|51:290,1,69.9999945259247,2|0,1:0|0:0,0:0:0:0:
0,381,131926,6,0,L|216:349,1,209.999983577774,8|0,1:3|0:0,0:0:0:0:
328,380,132509,2,0,P|348:338|345:288,1,69.9999945259247,10|0,0:1|0:0,0:0:0:0:
248,240,132800,2,0,P|228:198|231:148,1,69.9999945259247,2|0,0:1|0:0,0:0:0:0:
429,24,133091,6,0,B|472:44|531:36|531:36|478:58|444:120,1,209.999983577774,8|0,1:3|0:0,0:0:0:0:
473,228,133674,2,0,L|372:207,1,69.9999945259247,10|0,0:1|0:0,0:0:0:0:
341,96,133965,2,0,L|272:110,1,69.9999945259247,2|0,1:0|0:0,0:0:0:0:
73,186,134256,6,0,L|102:24,2,139.999989051849,2|2|10,0:1|0:1|0:1,0:0:0:0:
142,353,135130,1,2,0:1:0:0:
230,218,135421,6,0,P|321:215|371:324,1,209.999983577774,8|0,1:3|3:0,0:0:0:0:
484,372,136003,2,0,L|499:274,1,69.9999945259247,10|0,0:1|0:0,0:0:0:0:
446,192,136295,2,0,L|461:94,1,69.9999945259247,2|0,1:0|0:0,0:0:0:0:
512,3,136586,6,0,L|296:35,1,209.999983577774,8|0,1:3|0:0,0:0:0:0:
184,4,137169,2,0,P|164:46|167:96,1,69.9999945259247,10|0,0:1|0:0,0:0:0:0:
264,144,137460,2,0,P|284:186|281:236,1,69.9999945259247,2|0,0:1|0:0,0:0:0:0:
83,360,137751,6,0,B|39:339|-19:348|-19:348|33:325|68:264,1,209.999983577774,8|0,1:3|0:0,0:0:0:0:
39,156,138334,2,0,L|140:177,1,69.9999945259247,10|0,0:1|0:0,0:0:0:0:
171,288,138625,2,0,L|239:273,1,69.9999945259247,2|0,1:0|0:0,0:0:0:0:
350,364,138916,5,4,3:0:0:0:
373,286,139062,2,0,L|410:297,2,34.9999972629623,0|0|0,3:0|3:0|3:0,0:0:0:0:
396,208,139353,1,0,0:0:0:0:
351,88,139499,6,0,P|377:100|399:127,1,49.999997615825,10|0,0:1|0:0,0:0:0:0:
293,164,139790,2,0,P|302:190|299:225,1,49.999997615825,2|0,0:1|0:0,0:0:0:0:
258,83,140081,5,0,0:0:0:0:
85,117,158722,6,0,L|78:53,1,59.9999953079355,0|0,1:0|0:0,0:0:0:0:
168,159,159305,2,0,L|175:95,1,59.9999953079355,0|0,1:0|0:0,0:0:0:0:
6,157,159887,6,0,L|-1:93,1,59.9999953079355,0|0,1:0|0:0,0:0:0:0:
247,199,160470,2,0,L|254:135,1,59.9999953079355,0|0,1:0|0:0,0:0:0:0:
115,344,161052,1,0,1:0:0:0:
115,344,161635,6,0,P|67:304|6:286,2,119.999990615871,0|0|0,1:0|1:0|1:0,0:0:0:0:
183,269,163091,1,0,0:0:0:0:
275,309,163382,6,0,P|316:322|342:319,1,59.9999953079355,0|0,1:0|0:0,0:0:0:0:
381,247,163965,2,0,P|340:234|314:237,1,59.9999953079355,0|0,1:0|0:0,0:0:0:0:
403,370,164547,6,0,P|441:350|457:329,1,59.9999953079355,0|0,1:0|0:0,0:0:0:0:
253,186,165130,2,0,P|214:205|198:226,1,59.9999953079355,0|0,1:0|0:0,0:0:0:0:
443,173,165712,1,0,1:0:0:0:
443,173,166295,6,0,P|459:154|476:119,1,59.9999953079355,0|0,1:0|0:0,0:0:0:0:
393,82,166877,2,0,P|391:56|378:20,1,59.9999953079355,0|0,1:0|0:0,0:0:0:0:
294,52,167460,2,0,P|275:35|240:18,1,59.9999953079355,0|0,1:0|0:0,0:0:0:0:
123,51,168042,6,0,L|135:139,1,79.99999618532,4|0,1:0|0:0,0:0:0:0:
103,159,168479,1,8,0:1:0:0:
103,159,168625,2,0,L|91:247,1,79.99999618532,0|8,1:0|0:1,0:0:0:0:
215,37,169208,6,0,L|227:125,1,79.99999618532,0|0,1:0|0:0,0:0:0:0:
11,145,169791,2,0,L|-1:233,1,79.99999618532,8|0,1:0|0:0,0:0:0:0:
266,336,170373,6,0,P|319:326|343:302,1,79.99999618532,4|0,1:0|0:0,0:0:0:0:
371,320,170809,1,8,0:1:0:0:
371,320,170955,2,0,P|401:275|401:241,1,79.99999618532,0|0,1:0|0:0,0:0:0:0:
512,149,171538,2,0,P|458:144|428:161,1,79.99999618532,0|8,1:0|0:1,0:0:0:0:
294,113,172120,2,0,P|317:161|346:178,1,79.99999618532,8|0,1:0|0:0,0:0:0:0:
119,303,172703,6,0,L|199:285,1,79.99999618532,4|0,1:0|0:0,0:0:0:0:
286,272,173140,1,8,0:1:0:0:
286,272,173285,2,0,L|206:254,1,79.99999618532,0|8,1:0|0:1,0:0:0:0:
34,242,173868,6,0,L|114:224,1,79.99999618532,0|0,1:0|0:0,0:0:0:0:
371,211,174450,2,0,L|291:193,1,79.99999618532,8|0,1:0|0:0,0:0:0:0:
172,176,175033,1,4,1:0:0:0:
172,176,175615,5,0,1:0:0:0:
263,101,175907,1,0,0:0:0:0:
382,138,176198,2,0,L|371:202,1,49.999997615825,4|0,1:3|3:0,0:0:0:0:
373,187,176416,1,0,3:0:0:0:
373,187,176489,1,0,3:0:0:0:
410,274,176635,1,0,3:0:0:0:
439,354,176780,6,0,B|375:382|330:364|348:359|301:328|234:362,1,199.9999904633,0|4,1:0|0:1,0:0:0:0:
165,350,177654,1,2,0:2:0:0:
113,288,177945,1,2,0:0:0:0:
111,207,178237,1,2,0:0:0:0:
151,137,178528,1,2,0:0:0:0:
224,105,178819,1,2,0:3:0:0:
300,126,179110,1,2,0:0:0:0:
374,154,179402,1,2,0:3:0:0:
452,137,179693,1,2,0:0:0:0:
500,73,179984,1,2,0:0:0:0:
426,45,180276,1,2,0:0:0:0:
348,62,180567,1,2,0:0:0:0:
300,126,180858,1,2,0:0:0:0:
290,205,181149,1,2,0:0:0:0:
230,258,181441,1,2,0:3:0:0:
150,267,181732,1,2,0:0:0:0:
360,337,182023,5,2,0:0:0:0:
350,258,182314,1,2,0:0:0:0:
290,205,182606,1,2,0:0:0:0:
210,196,182897,1,2,0:0:0:0:
137,229,183188,1,2,0:0:0:0:
60,205,183479,1,2,0:3:0:0:
20,135,183771,1,2,0:3:0:0:
36,57,184062,1,2,0:3:0:0:
102,13,184353,1,2,0:0:0:0:
180,28,184644,1,2,0:3:0:0:
219,97,184936,1,2,0:3:0:0:
205,175,185227,1,2,0:3:0:0:
254,111,185518,1,2,0:0:0:0:
329,85,185809,1,2,0:3:0:0:
406,104,186101,1,2,0:3:0:0:
453,168,186392,1,2,0:3:0:0:
356,11,186683,5,2,0:0:0:0:
329,85,186974,1,0,0:1:0:0:
348,162,187266,1,2,0:0:0:0:
412,209,187557,1,2,0:0:0:0:
433,285,187848,1,2,0:0:0:0:
398,357,188140,1,2,0:3:0:0:
321,378,188431,1,2,0:0:0:0:
256,331,188722,1,2,0:3:0:0:
256,251,189013,1,2,0:3:0:0:
303,186,189305,1,2,0:0:0:0:
303,266,189596,1,2,0:0:0:0:
256,331,189888,1,2,0:0:0:0:
176,338,190178,1,2,0:3:0:0:
109,293,190470,1,2,0:0:0:0:
102,213,190761,1,2,0:3:0:0:
148,147,191052,1,2,0:0:0:0:
7,105,191343,5,2,0:0:0:0:
28,182,191635,1,2,0:0:0:0:
102,213,191926,1,2,0:0:0:0:
179,190,192217,1,2,0:0:0:0:
247,116,192509,1,2,0:0:0:0:
341,82,192800,1,2,0:0:0:0:
447,137,193091,1,2,0:0:0:0:
484,250,193382,1,2,0:0:0:0:
396,359,193674,1,0,0:0:0:0:
258,334,193965,1,10,0:3:0:0:
207,182,194256,5,10,0:3:0:0:
324,74,194547,1,2,0:3:0:0:
447,201,194839,5,4,3:0:0:0:
365,224,194984,1,0,3:0:0:0:
365,224,195057,1,0,3:0:0:0:
365,224,195130,1,0,3:0:0:0:
283,247,195276,1,8,3:0:0:0:
207,182,195421,6,0,L|216:111,1,59.9999953079355,8|0,1:0|3:0,0:0:0:0:
82,50,195712,2,0,L|91:121,1,59.9999953079355,0|0,1:0|3:0,0:0:0:0:
0,229,196004,6,0,P|78:203|151:312,1,209.999983577774,8|0,1:3|3:0,0:0:0:0:
225,384,196586,2,0,L|242:285,1,69.9999945259247,10|0,0:1|0:0,0:0:0:0:
308,208,196877,2,0,L|319:276,1,69.9999945259247,2|0,1:0|0:0,0:0:0:0:
60,114,197169,6,0,L|269:127,1,209.999983577774,8|0,1:3|3:0,0:0:0:0:
381,0,197751,2,0,P|348:31|334:82,1,69.9999945259247,10|0,0:1|0:0,0:0:0:0:
370,140,198042,2,0,P|403:171|417:222,1,69.9999945259247,2|0,0:1|0:0,0:0:0:0:
373,342,198334,6,0,P|289:319|350:257,1,209.999983577774,8|0,1:3|3:0,0:0:0:0:
510,277,198916,2,0,L|418:293,1,69.9999945259247,10|0,0:1|0:0,0:0:0:0:
293,178,199208,2,0,L|201:162,1,69.9999945259247,2|0,1:0|0:0,0:0:0:0:
171,357,199499,6,0,P|168:287|131:228,2,139.999989051849,6|2|10,0:1|0:1|0:1,0:0:0:0:
223,77,200373,1,2,0:1:0:0:
512,155,200664,6,0,P|434:181|361:72,1,209.999983577774,8|0,1:3|3:0,0:0:0:0:
287,0,201246,2,0,L|270:99,1,69.9999945259247,10|0,0:1|0:0,0:0:0:0:
204,176,201537,2,0,L|192:107,1,69.9999945259247,2|0,1:0|0:0,0:0:0:0:
452,270,201829,6,0,L|242:256,1,209.999983577774,8|0,1:3|3:0,0:0:0:0:
131,384,202411,2,0,P|164:353|178:302,1,69.9999945259247,10|0,0:1|0:0,0:0:0:0:
142,244,202702,2,0,P|109:213|95:162,1,69.9999945259247,2|0,0:1|0:0,0:0:0:0:
138,41,202994,6,0,P|222:64|161:126,1,209.999983577774,8|0,1:3|3:0,0:0:0:0:
2,107,203576,2,0,L|94:91,1,69.9999945259247,10|0,0:1|0:0,0:0:0:0:
219,206,203868,2,0,L|311:222,1,69.9999945259247,2|0,1:0|0:0,0:0:0:0:
451,125,204159,5,8,3:0:0:0:
382,78,204305,1,0,3:0:0:0:
382,78,204377,1,0,3:0:0:0:
382,78,204450,1,0,3:0:0:0:
375,159,204596,1,4,3:0:0:0:
499,195,204742,6,0,P|505:239|497:271,1,69.9999945259247,10|0,1:0|3:0,0:0:0:0:
401,281,205033,2,0,P|374:316|345:333,1,69.9999945259247,2|0,1:0|3:0,0:0:0:0:
247,379,205324,6,0,L|269:165,1,209.999983577774,8|0,1:3|3:0,0:0:0:0:
225,73,205907,2,0,P|174:80|150:96,1,69.9999945259247,10|0,0:1|0:0,0:0:0:0:
68,46,206198,2,0,P|36:87|31:115,1,69.9999945259247,2|0,1:0|0:0,0:0:0:0:
56,336,206489,6,0,P|132:318|179:204,1,209.999983577774,8|0,1:3|3:0,0:0:0:0:
4,205,207072,2,0,L|82:217,1,69.9999945259247,10|0,0:1|0:0,0:0:0:0:
266,324,207363,2,0,L|336:314,1,69.9999945259247,2|0,0:1|0:0,0:0:0:0:
428,121,207654,6,0,B|444:61|503:62|503:62|545:111|486:175,1,209.999983577774,8|0,1:3|3:0,0:0:0:0:
349,220,208237,2,0,P|316:171|315:132,1,69.9999945259247,10|0,0:1|0:0,0:0:0:0:
464,252,208528,2,0,P|452:284|429:310,1,69.9999945259247,2|0,1:0|0:0,0:0:0:0:
142,350,208819,6,0,P|118:297|35:243,2,139.999989051849,6|2|10,0:1|0:1|0:1,0:0:0:0:
54,115,209693,1,2,0:1:0:0:
265,5,209984,6,0,L|243:219,1,209.999983577774,8|0,1:3|3:0,0:0:0:0:
287,311,210567,2,0,P|338:304|362:288,1,69.9999945259247,10|0,0:1|0:0,0:0:0:0:
444,338,210858,2,0,P|476:297|481:269,1,69.9999945259247,2|0,1:0|0:0,0:0:0:0:
456,48,211149,6,0,P|380:66|333:180,1,209.999983577774,8|0,1:3|3:0,0:0:0:0:
508,179,211732,2,0,L|430:167,1,69.9999945259247,10|0,0:1|0:0,0:0:0:0:
246,60,212023,2,0,L|176:70,1,69.9999945259247,2|0,0:1|0:0,0:0:0:0:
84,263,212314,6,0,B|68:323|9:322|9:322|-33:273|26:209,1,209.999983577774,8|0,1:3|3:0,0:0:0:0:
163,164,212897,2,0,P|196:213|197:252,1,69.9999945259247,10|0,0:1|0:0,0:0:0:0:
48,132,213188,2,0,P|60:100|83:74,1,69.9999945259247,2|0,1:0|0:0,0:0:0:0:
296,36,213479,5,4,3:0:0:0:
233,93,213625,1,0,3:0:0:0:
233,93,213698,1,0,3:0:0:0:
233,93,213771,1,0,3:0:0:0:
212,12,213916,1,8,3:0:0:0:
315,120,214062,6,0,L|305:206,1,69.9999945259247,10|0,1:0|3:0,0:0:0:0:
136,185,214353,2,0,L|146:271,1,69.9999945259247,2|0,1:0|3:0,0:0:0:0:
408,353,214644,6,0,P|468:322|469:232,1,159.99999237064,8|0,1:3|3:0,0:0:0:0:
403,154,215081,1,0,3:0:0:0:
323,274,215227,2,0,P|276:251|257:221,1,79.99999618532,10|0,0:1|0:0,0:0:0:0:
301,135,215518,2,0,P|297:82|313:51,1,79.99999618532,2|0,1:0|0:0,0:0:0:0:
138,30,215809,5,8,1:3:0:0:
60,35,215954,1,2,0:2:0:0:
10,95,216100,1,2,0:2:0:0:
18,173,216245,1,2,0:2:0:0:
79,221,216392,2,0,P|124:201|173:210,1,79.99999618532,10|2,0:1|0:2,0:0:0:0:
240,156,216683,2,0,P|279:185|296:231,1,79.99999618532,2|2,0:1|0:2,0:0:0:0:
236,365,216975,6,0,B|202:389|202:389|174:362|169:309|220:268,1,159.99999237064,8|0,1:3|3:0,0:0:0:0:
334,371,217411,1,0,3:0:0:0:
369,275,217557,2,0,L|469:289,1,79.99999618532,10|0,0:1|0:0,0:0:0:0:
497,150,217848,2,0,L|397:164,1,79.99999618532,2|0,1:0|0:0,0:0:0:0:
236,365,218140,5,2,0:1:0:0:
246,285,218285,1,2,0:2:0:0:
257,206,218431,1,2,0:1:0:0:
268,127,218576,1,2,0:2:0:0:
274,48,218722,2,0,P|324:33|371:39,1,79.99999618532,10|0,0:1|0:0,0:0:0:0:
406,269,219013,2,0,P|366:268|328:255,1,79.99999618532,2|2,0:1|0:2,0:0:0:0:
104,31,219305,6,0,P|44:62|43:152,1,159.99999237064,8|0,1:3|3:0,0:0:0:0:
109,230,219742,1,0,3:0:0:0:
189,110,219888,2,0,P|236:133|255:163,1,79.99999618532,10|0,0:1|0:0,0:0:0:0:
211,249,220179,2,0,P|215:302|199:333,1,79.99999618532,2|0,1:0|0:0,0:0:0:0:
374,354,220470,5,8,1:3:0:0:
451,348,220615,1,2,0:2:0:0:
501,288,220761,1,2,0:2:0:0:
493,210,220906,1,2,0:2:0:0:
432,162,221053,2,0,P|387:182|339:174,1,79.99999618532,10|2,0:1|0:2,0:0:0:0:
272,228,221344,2,0,P|232:198|215:152,1,79.99999618532,2|2,0:1|0:2,0:0:0:0:
276,19,221636,6,0,B|310:-5|310:-5|338:22|343:75|292:116,1,159.99999237064,8|0,1:3|0:0,0:0:0:0:
178,13,222072,1,2,0:2:0:0:
143,109,222218,2,0,L|43:95,1,79.99999618532,10|2,0:1|0:2,0:0:0:0:
15,234,222509,2,0,L|115:220,1,79.99999618532,2|2,1:0|0:2,0:0:0:0:
240,149,222800,5,4,3:0:0:0:
305,205,222945,1,0,3:0:0:0:
305,205,223018,1,0,3:0:0:0:
305,205,223091,1,0,3:0:0:0:
274,281,223237,1,8,3:0:0:0:
386,342,223382,6,0,P|362:305|351:258,1,79.99999618532,10|0,1:0|3:0,0:0:0:0:
145,225,223674,2,0,P|169:188|180:141,1,79.99999618532,2|0,1:0|3:0,0:0:0:0:
289,36,223965,6,0,L|464:16,1,159.99999237064,8|0,1:3|3:0,0:0:0:0:
352,155,224402,1,0,3:0:0:0:
485,127,224547,2,0,P|490:173|477:207,1,79.99999618532,10|0,0:1|0:0,0:0:0:0:
394,348,224839,2,0,P|399:308|387:270,1,79.99999618532,2|0,1:0|0:0,0:0:0:0:
275,252,225130,5,8,1:3:0:0:
241,321,225275,1,2,0:2:0:0:
165,333,225421,1,2,0:2:0:0:
111,279,225566,1,2,0:2:0:0:
124,202,225712,2,0,L|208:208,1,79.99999618532,10|2,0:1|0:2,0:0:0:0:
0,123,226004,2,0,L|84:117,1,79.99999618532,2|2,0:1|0:2,0:0:0:0:
278,2,226295,6,8,P|207:35|179:108,1,159.99999237064,8|0,1:3|3:0,0:0:0:0:
382,190,226732,1,0,3:0:0:0:
284,263,226877,2,0,P|260:204|266:162,1,79.99999618532,10|0,0:1|0:0,0:0:0:0:
479,116,227169,2,0,P|502:174|496:216,1,79.99999618532,2|0,1:0|0:0,0:0:0:0:
143,342,227460,5,2,0:1:0:0:
222,348,227605,1,2,0:2:0:0:
302,354,227751,1,2,0:1:0:0:
382,360,227896,1,2,0:2:0:0:
462,366,228042,2,0,L|476:277,1,79.99999618532,10|0,0:1|0:0,0:0:0:0:
306,43,228334,2,0,L|319:123,1,79.99999618532,2|2,0:1|0:2,0:0:0:0:
52,306,228625,6,0,P|138:314|194:183,1,239.99998855596,8|0,1:3|3:0,0:0:0:0:
0,198,229208,2,0,L|104:219,1,79.99999618532,10|0,0:1|0:0,0:0:0:0:
143,54,229499,2,0,L|247:33,1,79.99999618532,2|0,1:0|0:0,0:0:0:0:
446,345,229790,6,0,P|360:353|304:222,1,239.99998855596,8|0,1:3|3:0,0:0:0:0:
512,181,230373,2,0,L|408:202,1,79.99999618532,10|0,0:1|0:0,0:0:0:0:
312,25,230664,2,0,L|208:4,1,79.99999618532,2|0,0:1|0:0,0:0:0:0:
256,348,230955,6,0,B|216:231|295:270|256:113,1,239.99998855596,8|0,1:3|3:0,0:0:0:0:
36,82,231538,2,0,P|7:144|8:184,1,79.99999618532,10|0,0:1|0:0,0:0:0:0:
111,303,231829,2,0,P|82:241|83:201,1,79.99999618532,2|0,1:0|0:0,0:0:0:0:
135,5,232120,5,4,3:0:0:0:
155,88,232266,2,0,L|211:73,2,39.99999809266,0|0|0,3:0|3:0|3:0,0:0:0:0:
174,177,232557,1,8,3:0:0:0:
254,225,232703,5,10,1:0:0:0:
471,167,232994,2,0,B|372:142|416:194|315:167,1,159.99999237064,2|2,1:0|0:0,0:0:0:0:
