osu file format v14

[General]
AudioFilename: audio.mp3
AudioLeadIn: 0
PreviewTime: 63188
Countdown: 0
SampleSet: Soft
StackLeniency: 0.3
Mode: 0
LetterboxInBreaks: 0
StoryFireInFront: 0
WidescreenStoryboard: 0

[Editor]
DistanceSpacing: 1
BeatDivisor: 8
GridSize: 32
TimelineZoom: 1.6

[Metadata]
Title:Something Just Like This
TitleUnicode:Something Just Like This
Artist:The Chainsmokers & Coldplay
ArtistUnicode:The Chainsmokers & Coldplay
Creator:handsome
Version:Hard
Source:
Tags:memories do not open paris closer andrew taggart alex pall edm electronic pop electropop dancepop fanzhen0019 regou plaudible
BeatmapID:1312786
BeatmapSetID:611301

[Difficulty]
HPDrainRate:4
CircleSize:3.5
OverallDifficulty:6
ApproachRate:6.5
SliderMultiplier:1.599999904633
SliderTickRate:1

[Events]
//Background and Video events
0,0,"bg.jpg",0,0
//Break Periods
2,140281,157747
//Storyboard Layer 0 (Background)
//Storyboard Layer 1 (Fail)
//Storyboard Layer 2 (Pass)
//Storyboard Layer 3 (Foreground)
//Storyboard Sound Samples

[TimingPoints]
276,582.5242718447,4,2,1,20,1,0
9596,-166.6666666667,4,2,1,20,0,0
18916,-125,4,2,1,20,0,0
28237,-100,4,2,1,50,0,0
44547,-100,4,2,1,40,0,0
63771,-100,4,2,1,50,0,0
64062,-100,4,2,1,55,0,0
64353,-100,4,2,1,60,0,0
65518,-83.33333333333,4,2,1,80,0,0
82703,-100,4,2,1,70,0,0
82994,-100,4,2,1,60,0,0
83285,-100,4,2,1,50,0,0
83576,-100,4,2,1,40,0,0
83868,-100,4,2,1,30,0,0
84159,-125,4,2,1,40,0,0
93479,-100,4,2,1,50,0,0
102800,-100,4,2,1,60,0,0
119693,-100,4,2,1,60,0,0
120858,-100,4,2,1,80,0,0
121441,-83.33333333333,4,2,1,80,0,0
139499,-100,4,2,1,60,0,0
139790,-100,4,2,1,40,0,0
158722,-166.6666666667,4,2,1,50,0,0
168042,-125,4,2,1,60,0,0
177363,-100,4,2,1,50,0,0
192800,-100,4,2,1,55,0,0
193091,-100,4,2,1,60,0,0
193382,-100,4,2,1,65,0,0
193674,-100,4,2,1,70,0,0
193965,-100,4,2,1,75,0,0
194256,-100,4,2,1,80,0,0
194547,-100,4,2,1,85,0,0
194839,-100,4,2,1,90,0,0
196004,-83.33333333333,4,2,1,100,0,0
214644,-83.33333333333,4,2,1,100,0,1
232703,-40,4,2,1,80,0,1
232994,-100,4,2,1,60,0,1
233285,-40,4,2,1,40,0,0

[Colours]
Combo1 : 255,242,204
Combo2 : 255,215,215
Combo3 : 255,204,230
Combo4 : 230,204,255
Combo5 : 204,230,255
Combo6 : 204,255,230
Combo7 : 240,255,225

[HitObjects]
8,232,9596,6,0,P|44:209|101:210,1,95.99999134827,2|0,0:0|0:0,0:0:0:0:
141,289,10470,1,0,0:0:0:0:
185,204,10761,2,0,P|180:174|168:152,2,47.99999567413,0|0|0,0:0|0:0|0:0,0:0:0:0:
320,96,11635,1,0,0:0:0:0:
271,217,11926,2,0,P|269:257|283:316,1,95.99999134827,2|0,0:0|0:0,0:0:0:0:
457,271,12800,5,0,0:0:0:0:
353,354,13091,2,0,P|370:336|394:324,1,47.99999567413,0|0,0:0|0:0,0:0:0:0:
346,200,13674,2,0,P|370:199|396:207,1,47.99999567413,0|0,0:0|0:0,0:0:0:0:
295,285,14256,2,0,P|254:286|203:250,1,95.99999134827,2|0,0:0|0:0,0:0:0:0:
201,94,15130,5,0,0:0:0:0:
130,211,15421,2,0,L|133:162,1,47.99999567413,0|0,0:0|0:0,0:0:0:0:
277,156,16004,2,0,L|279:203,1,47.99999567413,0|0,0:0|0:0,0:0:0:0:
201,94,16586,1,2,0:0:0:0:
401,34,17460,5,0,0:0:0:0:
470,79,17751,2,0,P|464:106|448:130,1,47.99999567413,0|0,0:0|0:0,0:0:0:0:
484,201,18334,2,0,P|460:215|432:221,1,47.99999567413,0|0,0:0|0:0,0:0:0:0:
379,278,18916,2,0,L|276:260,2,95.99999427795,2|8|8,0:0|0:1|0:1,0:0:0:0:
176,357,20081,6,0,P|197:332|212:291,1,63.9999961853,0|0,0:0|0:0,0:0:0:0:
163,173,20664,2,0,P|189:191|214:227,1,63.9999961853,8|0,0:1|0:0,0:0:0:0:
39,298,21246,2,0,P|64:286|136:267,2,95.99999427795,2|8|8,0:0|0:1|0:1,0:0:0:0:
106,46,22703,6,0,P|69:29|43:25,2,63.9999961853,8|8|0,0:1|0:1|0:0,0:0:0:0:
195,25,23576,2,0,L|203:98,1,63.9999961853,2|0,0:0|0:0,0:0:0:0:
291,104,24159,2,0,L|283:177,1,63.9999961853,0|8,0:0|0:1,0:0:0:0:
273,262,24742,5,0,0:0:0:0:
377,245,25033,1,0,0:0:0:0:
394,349,25324,1,8,0:1:0:0:
290,366,25615,1,0,0:0:0:0:
273,262,25907,1,2,0:0:0:0:
464,119,26489,5,0,0:0:0:0:
464,119,26780,1,8,1:0:0:0:
464,119,27072,2,0,P|428:111|392:93,1,63.9999961853,0|8,0:0|0:1,0:0:0:0:
320,131,27654,2,0,P|300:99|287:61,1,63.9999961853,8|0,0:1|0:0,0:0:0:0:
334,4,28237,1,4,0:1:0:0:
22,202,29110,5,2,0:0:0:0:
22,202,29402,2,0,L|105:195,1,79.99999523163,0|2,0:0|0:0,0:0:0:0:
48,309,29984,2,0,L|131:302,1,79.99999523163,0|2,0:0|0:0,0:0:0:0:
180,233,30567,1,2,0:0:0:0:
367,203,31149,5,2,0:0:0:0:
351,114,31441,1,0,0:0:0:0:
427,63,31732,2,0,P|466:58|508:65,2,79.99999523163,2|0|2,0:0|0:0|0:0,0:0:0:0:
262,85,32606,5,0,0:0:0:0:
153,67,32897,2,0,L|175:151,1,79.99999523163,2|0,0:0|0:0,0:0:0:0:
74,171,33479,2,0,L|116:246,1,79.99999523163,2|0,0:0|0:0,0:0:0:0:
218,384,34062,5,2,0:0:0:0:
305,355,34353,1,0,0:0:0:0:
305,263,34644,1,0,0:0:0:0:
216,235,34936,1,0,0:0:0:0:
162,309,35227,1,2,0:0:0:0:
73,118,36101,5,2,0:0:0:0:
130,48,36392,2,0,P|161:43|213:53,1,79.99999523163,2|0,0:0|0:0,0:0:0:0:
283,7,36975,2,0,P|308:25|338:69,1,79.99999523163,2|0,0:0|0:0,0:0:0:0:
298,147,37557,1,2,0:0:0:0:
427,342,38431,5,2,0:0:0:0:
488,268,38722,2,0,P|489:239|476:188,2,79.99999523163,2|0|2,0:0|0:0|0:0,0:0:0:0:
397,258,39596,1,0,0:0:0:0:
336,322,39887,1,2,0:0:0:0:
56,320,40761,5,2,0:0:0:0:
102,241,41052,2,0,L|189:231,1,79.99999523163,2|0,0:0|0:0,0:0:0:0:
241,167,41635,2,0,L|327:179,1,79.99999523163,2|0,0:0|0:0,0:0:0:0:
386,243,42217,2,0,P|427:211|431:101,1,159.9999904633,2|0,0:0|0:0,0:0:0:0:
297,82,43091,5,2,0:0:0:0:
320,178,43382,2,0,L|241:167,1,79.99999523163,0|0,0:0|0:0,0:0:0:0:
181,231,43965,2,0,L|102:241,1,79.99999523163,2|0,0:0|0:0,0:0:0:0:
56,320,44547,1,2,0:0:0:0:
90,37,45130,6,0,P|78:61|73:126,1,79.99999523163,0|0,0:0|0:0,0:0:0:0:
0,171,45712,2,0,P|8:196|50:245,1,79.99999523163,0|0,0:0|0:0,0:0:0:0:
168,300,46295,5,0,0:0:0:0:
168,300,46586,2,0,P|180:276|185:211,1,79.99999523163,0|4,0:0|0:1,0:0:0:0:
258,166,47169,2,0,P|249:140|207:91,1,79.99999523163,0|0,0:0|0:0,0:0:0:0:
58,46,47751,6,0,L|46:98,2,39.99999761581,0|0|2,0:0|0:0|0:0,0:0:0:0:
139,63,48334,2,0,L|131:102,2,39.99999761581,0|0|2,0:0|0:0|0:0,0:0:0:0:
357,241,49208,6,0,L|453:221,2,79.99999523163,4|0|0,0:1|0:0|0:0,0:0:0:0:
292,308,50081,2,0,P|284:327|282:347,2,39.99999761581,0|0|2,0:0|0:0|0:0,0:0:0:0:
262,227,50664,2,0,P|243:234|227:246,2,39.99999761581,0|0|2,0:0|0:0|0:0,0:0:0:0:
323,160,51246,1,2,0:0:0:0:
250,101,51538,6,0,L|270:14,2,79.99999523163,4|0|0,0:1|0:0|0:0,0:0:0:0:
162,160,52411,2,0,L|154:107,2,39.99999761581,0|0|2,0:0|0:0|0:0,0:0:0:0:
114,267,52994,2,0,L|88:216,2,39.99999761581,0|0|2,0:0|0:0|0:0,0:0:0:0:
442,308,54159,5,0,0:0:0:0:
442,308,54450,2,0,L|360:316,1,79.99999523163,2|0,0:0|0:0,0:0:0:0:
500,215,55033,2,0,L|418:207,1,79.99999523163,2|0,0:0|0:0,0:0:0:0:
344,140,55615,5,2,0:0:0:0:
344,140,55907,2,0,L|262:148,1,79.99999523163,0|4,0:0|0:1,0:0:0:0:
402,47,56489,2,0,L|320:39,1,79.99999523163,0|0,0:0|0:0,0:0:0:0:
164,159,57072,6,0,P|166:181|179:208,2,39.99999761581,0|0|2,0:0|0:0|0:0,0:0:0:0:
224,44,57654,2,0,P|207:54|194:70,2,39.99999761581,0|0|2,0:0|0:0|0:0,0:0:0:0:
178,306,58528,6,0,P|138:305|80:258,2,79.99999523163,4|0|0,0:1|0:0|0:0,0:0:0:0:
270,337,59402,2,0,L|275:279,2,39.99999761581,0|0|2,0:0|0:0|0:0,0:0:0:0:
368,372,59984,2,0,L|363:314,2,39.99999761581,0|0|2,0:0|0:0|0:0,0:0:0:0:
442,284,60567,1,2,0:0:0:0:
382,216,60858,6,0,L|275:231,2,79.99999523163,4|0|0,0:1|0:0|0:0,0:0:0:0:
453,133,61732,2,0,L|512:141,2,39.99999761581,0|0|2,0:0|0:0|0:0,0:0:0:0:
467,38,62314,2,0,L|526:46,2,39.99999761581,0|0|2,0:0|0:0|0:0,0:0:0:0:
188,35,63188,6,0,L|195:118,1,79.99999523163,0|2,0:0|0:0,0:0:0:0:
262,182,63771,2,0,L|255:265,1,79.99999523163,2|2,0:0|0:0,0:0:0:0:
29,268,64353,5,4,3:0:0:0:
149,361,64644,1,0,3:0:0:0:
42,374,64936,5,0,1:0:0:0:
135,254,65227,1,0,1:0:0:0:
44,150,65518,6,0,L|203:174,1,143.9999870224,8|0,1:3|0:0,0:0:0:0:
266,136,66101,1,10,0:1:0:0:
266,136,66392,1,2,1:0:0:0:
407,47,66683,6,0,P|361:23|259:75,1,143.9999870224,8|0,1:3|0:0,0:0:0:0:
266,136,67266,1,10,0:1:0:0:
266,136,67557,1,2,0:1:0:0:
334,324,67848,6,0,B|360:282|360:282|333:173,1,143.9999870224,8|0,1:3|0:0,0:0:0:0:
266,136,68431,1,10,0:1:0:0:
266,136,68722,1,2,1:0:0:0:
139,201,69013,5,2,0:1:0:0:
139,201,69305,1,2,0:1:0:0:
146,58,69596,5,10,0:1:0:0:
185,129,69887,1,2,0:1:0:0:
364,98,70178,6,0,P|311:148|286:251,1,143.9999870224,8|0,1:3|0:0,0:0:0:0:
307,304,70761,1,10,0:1:0:0:
307,304,71052,1,2,1:0:0:0:
512,345,71343,6,0,L|347:366,1,143.9999870224,8|0,1:3|0:0,0:0:0:0:
307,304,71926,1,10,0:1:0:0:
307,304,72217,1,2,0:1:0:0:
96,342,72509,6,0,B|130:307|130:307|263:328,1,143.9999870224,8|0,1:3|0:0,0:0:0:0:
307,304,73091,1,10,0:1:0:0:
307,304,73382,1,2,1:0:0:0:
381,135,73674,5,4,3:0:0:0:
403,269,73965,1,0,3:0:0:0:
492,184,74256,5,10,1:0:0:0:
290,218,74547,1,2,1:0:0:0:
492,58,74839,6,0,L|327:45,1,143.9999870224,8|0,1:3|0:0,0:0:0:0:
241,123,75421,1,10,0:1:0:0:
241,123,75712,1,2,1:0:0:0:
169,294,76004,6,0,P|233:298|291:218,1,143.9999870224,8|0,1:3|0:0,0:0:0:0:
241,123,76586,1,10,0:1:0:0:
241,123,76877,1,2,0:1:0:0:
0,34,77169,6,0,B|54:37|54:37|62:32|62:32|163:39,1,143.9999870224,8|0,1:3|0:0,0:0:0:0:
241,123,77751,1,10,0:1:0:0:
241,123,78042,1,2,1:0:0:0:
114,215,78334,1,2,0:1:0:0:
114,215,78625,1,2,0:1:0:0:
220,268,78916,5,10,0:1:0:0:
176,353,79208,1,2,0:1:0:0:
361,377,79499,6,0,L|334:207,1,143.9999870224,8|0,1:3|0:0,0:0:0:0:
320,117,80081,1,10,0:1:0:0:
320,117,80373,1,2,1:0:0:0:
111,72,80664,6,0,P|154:145|243:138,1,143.9999870224,8|0,1:3|0:0,0:0:0:0:
320,117,81246,1,10,0:1:0:0:
320,117,81538,1,2,0:1:0:0:
512,29,81829,6,0,L|344:12,1,143.9999870224,8|0,1:3|0:0,0:0:0:0:
320,117,82411,1,10,0:1:0:0:
256,192,82703,12,2,84159,3:0:0:0:
104,328,85033,5,0,0:0:0:0:
50,255,85324,2,0,L|60:178,1,63.9999961853,0|0,3:0|0:0,0:0:0:0:
12,115,85907,2,0,L|41:43,1,63.9999961853,0|0,3:0|0:0,0:0:0:0:
127,55,86489,2,0,P|183:34|262:62,1,127.9999923706,2|0,3:0|3:0,0:0:0:0:
362,7,87363,5,0,0:0:0:0:
437,61,87654,2,0,L|432:125,1,63.9999961853,0|0,3:0|0:0,0:0:0:0:
333,161,88237,2,0,L|328:97,1,63.9999961853,0|0,3:0|0:0,0:0:0:0:
427,210,88819,2,0,P|459:242|451:347,1,127.9999923706,2|0,3:0|3:0,0:0:0:0:
330,349,89693,5,0,0:0:0:0:
236,324,89984,2,0,P|243:286|276:247,1,63.9999961853,0|0,3:0|0:0,0:0:0:0:
281,174,90567,2,0,P|317:161|367:170,1,63.9999961853,0|0,3:0|0:0,0:0:0:0:
186,201,91149,2,0,L|49:184,1,127.9999923706,2|0,3:0|3:0,0:0:0:0:
11,103,92023,5,0,0:0:0:0:
50,26,92314,1,0,3:0:0:0:
131,0,92606,1,0,0:0:0:0:
208,35,92897,1,0,3:0:0:0:
238,116,93188,1,0,0:0:0:0:
92,219,93479,6,0,L|235:194,1,119.9999928474,2|8,3:2|0:1,0:0:0:0:
220,207,94062,2,0,P|245:246|248:290,1,79.99999523163,0|8,3:0|0:1,0:0:0:0:
461,357,94644,6,0,L|473:263,1,79.99999523163,0|0,3:0|0:0,0:0:0:0:
387,235,95227,2,0,L|375:141,1,79.99999523163,8|0,3:1|0:0,0:0:0:0:
304,16,95809,6,0,P|280:43|284:147,1,119.9999928474,2|8,3:2|0:1,0:0:0:0:
283,134,96392,2,0,L|187:126,1,79.99999523163,0|8,3:0|0:1,0:0:0:0:
92,206,96975,5,0,3:0:0:0:
71,102,97266,2,0,L|56:12,2,79.99999523163,8|8|0,0:1|3:1|0:0,0:0:0:0:
92,206,98140,6,0,P|48:237|33:274,1,79.99999523163,2|0,3:2|0:0,0:0:0:0:
256,149,98722,2,0,P|251:95|226:63,1,79.99999523163,0|8,3:0|0:1,0:0:0:0:
223,319,99305,2,8,P|271:341|311:336,1,79.99999523163,0|0,3:0|0:0,0:0:0:0:
485,292,99887,5,8,3:1:0:0:
439,172,100178,1,0,0:0:0:0:
358,271,100470,1,0,3:0:0:0:
6,307,101052,5,2,3:2:0:0:
87,340,101343,1,8,0:1:0:0:
170,305,101635,2,0,L|181:214,1,79.99999523163,2|8,3:2|0:1,0:0:0:0:
86,94,102217,2,0,L|159:149,1,79.99999523163,2|0,3:2|0:0,0:0:0:0:
310,126,102800,2,8,L|225:161,2,79.99999523163,4|0|0,1:0|0:0|1:0,0:0:0:0:
452,39,103674,5,2,0:2:0:0:
400,119,103965,2,0,L|420:211,1,79.99999523163,2|0,1:2|0:0,0:0:0:0:
484,336,104547,1,2,1:2:0:0:
408,285,104839,1,0,0:0:0:0:
337,335,105130,2,0,P|294:344|238:340,1,79.99999523163,2|0,1:2|0:0,0:0:0:0:
150,380,105712,5,2,1:2:0:0:
177,293,106004,1,2,0:2:0:0:
129,216,106295,1,2,1:2:0:0:
40,202,106586,1,0,0:0:0:0:
196,155,106877,2,0,P|219:122|225:72,1,79.99999523163,2|0,1:2|0:0,0:0:0:0:
27,32,107460,6,0,L|35:121,1,79.99999523163,2|0,1:2|0:0,0:0:0:0:
121,0,108042,2,0,L|129:89,1,79.99999523163,2|0,1:2|0:0,0:0:0:0:
201,283,108625,6,0,L|208:203,1,79.99999523163,2|0,1:2|0:0,0:0:0:0:
106,251,109208,2,0,L|113:171,1,79.99999523163,0|0,1:0|0:0,0:0:0:0:
6,267,109790,2,0,L|13:187,2,79.99999523163,2|0|0,1:2|0:0|1:0,0:0:0:0:
79,378,110664,5,2,0:2:0:0:
152,302,110955,2,0,P|199:299|246:319,1,79.99999523163,2|0,1:2|3:0,0:0:0:0:
290,220,111538,2,0,P|325:251|344:298,1,79.99999523163,0|0,1:0|0:0,0:0:0:0:
445,259,112120,2,0,P|448:306|428:353,2,79.99999523163,2|0|0,1:2|0:0|1:0,0:0:0:0:
503,96,112994,5,2,0:2:0:0:
439,169,113285,2,0,L|345:157,1,79.99999523163,2|0,1:2|0:0,0:0:0:0:
386,23,113868,2,0,L|292:35,1,79.99999523163,2|0,1:2|0:0,0:0:0:0:
226,133,114450,2,0,L|132:121,2,79.99999523163,2|0|0,1:2|0:0|1:1,0:0:0:0:
246,311,115324,5,2,0:2:0:0:
322,354,115615,1,2,1:2:0:0:
408,332,115907,1,0,0:0:0:0:
456,256,116198,1,2,1:2:0:0:
439,169,116489,1,0,0:0:0:0:
270,224,116780,6,0,L|96:212,1,159.9999904633,2|0,1:2|1:0,0:0:0:0:
15,122,117654,5,2,0:2:0:0:
109,41,117945,2,0,P|137:82|141:132,1,79.99999523163,2|2,1:2|0:2,0:0:0:0:
243,188,118528,2,0,P|233:236|201:274,1,79.99999523163,2|0,1:2|0:0,0:0:0:0:
98,318,119110,1,2,1:2:0:0:
447,318,119693,5,2,1:2:0:0:
346,210,119984,1,0,1:0:0:0:
487,180,120275,2,0,L|517:140,2,39.99999761581,4|0|2,1:3|1:0|1:3,0:0:0:0:
349,320,120858,1,0,3:0:0:0:
319,316,121004,1,0,3:0:0:0:
289,313,121149,1,0,3:0:0:0:
259,310,121295,1,0,3:0:0:0:
229,307,121441,6,0,P|216:236|230:162,1,143.9999870224,8|0,1:3|3:0,0:0:0:0:
293,103,122023,1,10,0:1:0:0:
438,261,122314,1,2,1:0:0:0:
438,261,122606,6,0,P|383:307|311:332,1,143.9999870224,8|0,1:3|0:0,0:0:0:0:
229,307,123188,1,10,0:1:0:0:
294,104,123479,1,2,0:1:0:0:
294,104,123771,6,0,P|361:128|419:177,1,143.9999870224,8|0,1:3|0:0,0:0:0:0:
438,261,124353,1,10,0:1:0:0:
211,362,124644,5,2,1:0:0:0:
211,153,124936,1,2,0:1:0:0:
88,322,125227,1,2,0:1:0:0:
286,258,125518,1,10,0:1:0:0:
88,193,125809,1,2,0:1:0:0:
211,362,126101,6,0,P|191:261|149:216,1,143.9999870224,8|0,1:3|3:0,0:0:0:0:
88,193,126683,1,10,0:1:0:0:
371,67,126975,1,2,1:0:0:0:
371,67,127266,6,0,P|293:135|275:194,1,143.9999870224,8|0,1:3|0:0,0:0:0:0:
286,258,127848,1,10,0:1:0:0:
35,75,128140,1,2,0:1:0:0:
35,75,128431,6,0,P|133:107|193:94,1,143.9999870224,8|0,1:3|0:0,0:0:0:0:
243,54,129013,1,10,0:1:0:0:
392,215,129305,5,2,1:0:0:0:
330,70,129596,2,0,L|320:172,1,95.99999134827,4|0,3:0|3:0,0:0:0:0:
485,340,130178,2,0,L|475:244,1,95.99999134827,10|2,1:0|1:0,0:0:0:0:
443,56,130761,6,0,L|264:33,1,143.9999870224,8|0,1:3|3:0,0:0:0:0:
220,86,131343,1,10,0:1:0:0:
307,131,131635,1,2,1:0:0:0:
82,199,131926,6,0,L|261:176,1,143.9999870224,8|0,1:3|0:0,0:0:0:0:
305,229,132509,1,10,0:1:0:0:
218,274,132800,1,2,0:1:0:0:
443,342,133091,6,0,L|264:319,1,143.9999870224,8|0,1:3|0:0,0:0:0:0:
220,372,133674,1,10,0:1:0:0:
141,217,133965,1,2,1:0:0:0:
202,139,134256,5,2,0:1:0:0:
219,275,134547,1,2,0:1:0:0:
84,291,134839,1,10,0:1:0:0:
66,155,135130,1,2,0:1:0:0:
158,9,135421,6,0,P|194:56|191:166,1,143.9999870224,8|0,1:3|3:0,0:0:0:0:
141,217,136004,1,10,0:1:0:0:
77,62,136295,1,2,1:0:0:0:
325,99,136586,6,0,P|332:157|275:251,1,143.9999870224,8|0,1:3|0:0,0:0:0:0:
206,270,137169,1,10,0:1:0:0:
228,104,137460,1,2,0:1:0:0:
424,260,137751,6,0,P|401:314|304:367,1,143.9999870224,8|0,1:3|0:0,0:0:0:0:
235,348,138334,1,10,0:1:0:0:
320,169,138625,5,2,1:0:0:0:
153,85,138916,1,4,3:0:0:0:
164,272,139208,1,0,3:0:0:0:
288,149,139499,5,10,0:1:0:0:
152,121,139790,1,2,0:1:0:0:
196,254,140081,1,0,0:0:0:0:
176,215,158722,6,0,P|239:201|308:203,1,95.99999134827,0|0,1:0|1:0,0:0:0:0:
359,251,159596,1,0,0:0:0:0:
340,124,159887,2,0,P|296:103|250:90,2,95.99999134827,0|0|0,1:0|1:0|1:0,0:0:0:0:
94,347,161635,6,0,L|77:243,1,95.99999134827,0|0,1:0|1:0,0:0:0:0:
61,153,162509,1,0,0:0:0:0:
61,153,162800,1,0,1:0:0:0:
61,153,163091,1,0,0:0:0:0:
190,43,163382,6,0,P|161:101|151:149,1,95.99999134827,0|0,1:0|1:0,0:0:0:0:
236,269,164256,1,0,0:0:0:0:
303,195,164547,2,0,P|280:152|266:106,2,95.99999134827,0|0|0,1:0|1:0|1:0,0:0:0:0:
415,27,166295,6,0,P|441:61|452:80,1,47.99999567413,0|0,1:0|0:0,0:0:0:0:
491,148,166877,1,0,1:0:0:0:
408,174,167168,1,0,0:0:0:0:
358,244,167459,1,0,1:0:0:0:
359,330,167750,1,0,0:0:0:0:
209,356,168042,6,0,P|167:322|149:291,1,63.9999961853,4|0,1:0|0:0,0:0:0:0:
85,269,168479,1,8,0:1:0:0:
85,269,168625,2,0,P|79:215|88:180,1,63.9999961853,0|8,1:0|0:1,0:0:0:0:
22,109,169208,2,0,L|174:124,1,127.9999923706,0|8,1:0|1:0,0:0:0:0:
386,31,170373,6,0,L|372:111,1,63.9999961853,4|0,1:0|0:0,0:0:0:0:
442,149,170809,1,8,0:1:0:0:
442,149,170955,2,0,L|456:229,1,63.9999961853,0|0,1:0|0:0,0:0:0:0:
412,358,171538,2,0,P|357:338|319:255,1,127.9999923706,0|8,1:0|1:0,0:0:0:0:
359,203,172411,1,0,0:0:0:0:
234,260,172703,6,0,L|153:245,1,63.9999961853,4|0,1:0|0:0,0:0:0:0:
135,160,173140,1,8,0:1:0:0:
135,160,173285,2,0,L|216:145,1,63.9999961853,0|8,1:0|0:1,0:0:0:0:
57,16,173868,2,0,B|21:72|21:72|66:130,1,127.9999923706,0|8,1:0|1:0,0:0:0:0:
214,44,174742,2,0,L|133:29,1,63.9999961853,0|4,0:0|1:0,0:0:0:0:
306,351,175615,5,0,1:0:0:0:
424,314,175907,1,0,0:0:0:0:
450,194,176198,1,4,1:3:0:0:
359,110,176489,1,0,3:0:0:0:
241,147,176780,1,0,1:0:0:0:
216,267,177072,1,0,0:0:0:0:
29,284,177363,6,0,L|18:370,1,79.99999523163,4|2,0:1|0:2,0:0:0:0:
115,349,177945,2,0,L|125:269,1,79.99999523163,2|2,0:0|0:0,0:0:0:0:
120,34,178528,6,0,P|70:33|33:55,1,79.99999523163,2|2,0:0|0:3,0:0:0:0:
58,134,179110,2,0,P|108:135|145:113,1,79.99999523163,2|2,0:0|0:3,0:0:0:0:
329,148,179693,6,0,L|316:63,4,79.99999523163,2|2|2|2|2,0:0|0:0|0:0|0:0|0:0,0:0:0:0:
426,94,181149,1,2,0:0:0:0:
444,308,181441,5,2,0:3:0:0:
444,308,181732,1,2,0:0:0:0:
257,349,182023,6,0,L|348:329,1,79.99999523163,2|2,0:0|0:0,0:0:0:0:
347,237,182606,2,0,L|268:254,1,79.99999523163,2|2,0:0|0:0,0:0:0:0:
87,354,183188,6,0,P|71:308|80:255,1,79.99999523163,2|2,0:0|0:3,0:0:0:0:
5,206,183771,2,0,P|26:162|70:131,1,79.99999523163,2|2,0:3|0:3,0:0:0:0:
203,50,184353,5,2,0:0:0:0:
189,183,184644,2,0,L|179:280,2,79.99999523163,2|2|2,0:3|0:3|0:3,0:0:0:0:
292,9,185518,5,2,0:0:0:0:
315,217,185809,2,0,L|325:314,2,79.99999523163,2|2|2,0:3|0:3|0:3,0:0:0:0:
189,183,186683,5,2,0:0:0:0:
116,101,186975,2,0,P|129:42|157:14,1,79.99999523163,0|2,0:1|0:0,0:0:0:0:
244,88,187557,2,0,P|304:82|339:100,1,79.99999523163,2|2,0:0|0:0,0:0:0:0:
295,205,188140,2,0,P|319:260|312:299,1,79.99999523163,2|2,0:3|0:0,0:0:0:0:
199,290,188722,2,0,P|153:330|114:336,1,79.99999523163,2|2,0:3|0:3,0:0:0:0:
87,225,189305,6,0,P|34:194|16:159,4,79.99999523163,2|2|2|2|2,0:0|0:0|0:0|0:3|0:0,0:0:0:0:
169,161,190761,2,0,L|259:149,1,79.99999523163,2|2,0:3|0:0,0:0:0:0:
466,22,191343,6,0,P|439:58|430:99,1,79.99999523163,2|2,0:0|0:0,0:0:0:0:
343,134,191926,2,0,P|349:178|371:213,1,79.99999523163,2|2,0:0|0:0,0:0:0:0:
335,300,192509,2,0,P|370:327|412:336,1,79.99999523163,2|2,0:0|0:0,0:0:0:0:
483,245,193091,5,2,0:0:0:0:
483,245,193382,1,2,0:0:0:0:
483,245,193674,1,0,0:0:0:0:
425,105,193965,5,10,0:3:0:0:
377,204,194256,1,10,0:3:0:0:
267,211,194547,1,2,0:3:0:0:
205,119,194839,1,4,3:0:0:0:
219,310,195130,5,0,3:0:0:0:
377,204,195421,1,8,1:0:0:0:
205,119,195712,1,0,1:0:0:0:
267,211,196004,6,0,P|354:148|368:90,1,143.9999870224,8|0,1:3|3:0,0:0:0:0:
327,35,196586,1,10,0:1:0:0:
60,32,196877,6,0,L|81:89,1,47.99999567413,2|0,1:0|0:0,0:0:0:0:
21,157,197169,2,0,L|10:324,1,143.9999870224,8|0,1:3|3:0,0:0:0:0:
79,368,197751,1,10,0:1:0:0:
224,366,198042,6,0,L|245:309,1,47.99999567413,2|0,0:1|0:0,0:0:0:0:
185,241,198334,2,0,L|174:74,1,143.9999870224,8|0,1:3|3:0,0:0:0:0:
243,30,198916,1,10,0:1:0:0:
378,173,199208,1,2,1:0:0:0:
403,82,199499,5,6,0:1:0:0:
445,239,199790,1,2,0:1:0:0:
288,197,200081,1,10,0:1:0:0:
403,82,200373,1,2,0:1:0:0:
388,316,200664,6,0,B|325:307|325:307|318:313|318:313|217:295,1,143.9999870224,8|0,1:3|3:0,0:0:0:0:
169,350,201246,1,10,0:1:0:0:
32,217,201538,6,0,P|43:188|75:164,1,47.99999567413,2|0,1:0|0:0,0:0:0:0:
64,85,201829,2,0,P|129:63|209:96,1,143.9999870224,8|0,1:3|3:0,0:0:0:0:
285,61,202411,1,10,0:1:0:0:
173,249,202703,6,0,P|197:229|236:224,1,47.99999567413,2|0,0:1|0:0,0:0:0:0:
266,150,202994,2,0,P|333:163|386:232,1,143.9999870224,8|0,1:3|3:0,0:0:0:0:
453,278,203576,1,10,0:1:0:0:
301,357,203868,1,2,1:0:0:0:
175,142,204159,5,8,3:0:0:0:
139,244,204450,1,0,3:0:0:0:
194,338,204741,1,10,1:0:0:0:
301,357,205032,1,2,1:0:0:0:
388,100,205324,6,0,L|230:78,1,143.9999870224,8|0,1:3|3:0,0:0:0:0:
186,7,205907,1,10,0:1:0:0:
43,133,206198,6,0,P|75:156|97:190,1,47.99999567413,2|0,1:0|0:0,0:0:0:0:
181,151,206489,2,0,P|154:208|175:329,1,143.9999870224,8|0,1:3|3:0,0:0:0:0:
240,317,207072,1,10,0:1:0:0:
262,198,207363,6,0,P|294:175|316:141,1,47.99999567413,2|0,0:1|0:0,0:0:0:0:
400,180,207654,2,0,P|373:123|394:2,1,143.9999870224,8|0,1:3|3:0,0:0:0:0:
459,14,208237,1,10,0:1:0:0:
492,196,208528,1,2,1:0:0:0:
214,95,208819,5,6,0:1:0:0:
194,220,209110,1,2,0:1:0:0:
319,240,209402,1,10,0:1:0:0:
339,115,209693,1,2,0:1:0:0:
97,67,209984,6,0,B|77:114|77:114|104:223,1,143.9999870224,8|0,1:3|3:0,0:0:0:0:
128,290,210567,1,10,0:1:0:0:
384,369,210858,6,0,L|396:310,1,47.99999567413,2|0,1:0|0:0,0:0:0:0:
462,227,211149,2,0,L|315:240,1,143.9999870224,8|0,1:3|3:0,0:0:0:0:
228,253,211732,1,10,0:1:0:0:
189,19,212023,6,0,L|201:78,1,47.99999567413,2|0,0:1|0:0,0:0:0:0:
267,161,212314,2,0,L|120:148,1,143.9999870224,8|0,1:3|3:0,0:0:0:0:
33,135,212897,1,10,0:1:0:0:
105,291,213188,1,2,1:0:0:0:
324,230,213479,5,4,3:0:0:0:
138,377,213771,1,0,3:0:0:0:
352,311,214062,5,10,1:0:0:0:
105,291,214353,1,2,1:0:0:0:
252,379,214644,6,0,P|262:317|217:228,1,143.9999870224,8|0,1:3|3:0,0:0:0:0:
144,194,215227,1,10,0:1:0:0:
144,194,215518,1,2,1:0:0:0:
360,102,215809,5,8,1:3:0:0:
322,130,215954,1,2,0:2:0:0:
274,139,216100,1,2,0:2:0:0:
229,124,216245,1,2,0:2:0:0:
195,91,216392,2,0,L|211:39,3,47.99999567413,10|2|2|2,0:1|0:2|0:1|0:2,0:0:0:0:
108,54,216975,6,0,P|38:97|18:166,1,143.9999870224,8|0,1:3|3:0,0:0:0:0:
58,239,217557,1,10,0:1:0:0:
58,239,217848,1,2,1:0:0:0:
216,280,218140,5,2,0:1:0:0:
209,232,218285,1,2,0:2:0:0:
202,184,218431,1,2,0:1:0:0:
196,137,218576,1,2,0:2:0:0:
189,89,218722,1,10,0:1:0:0:
334,270,219013,1,2,0:1:0:0:
504,147,219305,6,0,B|434:157|434:157|433:165|433:165|352:174,1,143.9999870224,8|0,1:3|3:0,0:0:0:0:
313,89,219887,1,10,0:1:0:0:
313,89,220178,1,2,1:0:0:0:
59,188,220469,5,8,1:3:0:0:
98,161,220615,1,2,0:2:0:0:
145,154,220760,1,2,0:2:0:0:
190,169,220906,1,2,0:2:0:0:
225,201,221052,2,0,L|276:166,3,47.99999567413,10|2|2|2,0:1|0:2|0:1|0:2,0:0:0:0:
313,89,221635,6,0,P|374:140|454:127,1,143.9999870224,8|2,1:3|0:2,0:0:0:0:
488,51,222217,1,10,0:1:0:0:
488,51,222509,1,2,1:0:0:0:
336,239,222800,6,0,L|351:340,1,95.99999134827,4|0,3:0|3:0,0:0:0:0:
460,336,223382,2,0,L|445:241,1,95.99999134827,10|2,1:0|1:0,0:0:0:0:
146,294,223965,6,0,P|61:258|49:177,1,143.9999870224,8|0,1:3|3:0,0:0:0:0:
101,137,224547,1,10,0:1:0:0:
101,137,224839,1,2,1:0:0:0:
327,111,225130,5,8,1:3:0:0:
283,89,225275,1,2,0:2:0:0:
236,96,225421,1,2,0:2:0:0:
200,126,225566,1,2,0:2:0:0:
187,171,225712,2,0,L|198:236,3,47.99999567413,10|2|2|2,0:1|0:2|0:1|0:2,0:0:0:0:
270,274,226295,6,0,P|331:290|424:252,1,143.9999870224,8|0,1:3|3:0,0:0:0:0:
486,329,226877,1,10,0:1:0:0:
486,329,227169,1,2,1:0:0:0:
457,177,227460,5,2,0:1:0:0:
412,160,227605,1,2,0:2:0:0:
378,126,227751,1,2,0:1:0:0:
361,82,227896,1,2,0:2:0:0:
364,34,228042,1,10,0:1:0:0:
470,65,228334,1,2,0:1:0:0:
261,11,228625,6,0,L|237:180,1,143.9999870224,8|0,1:3|3:0,0:0:0:0:
300,224,229208,1,10,0:1:0:0:
300,224,229499,1,2,1:0:0:0:
122,53,229790,6,0,L|146:233,1,143.9999870224,8|0,1:3|3:0,0:0:0:0:
222,286,230373,1,10,0:1:0:0:
222,286,230664,1,2,0:1:0:0:
10,169,230955,6,0,L|69:335,1,143.9999870224,8|0,1:3|3:0,0:0:0:0:
202,375,231538,1,10,0:1:0:0:
344,320,231829,1,2,1:0:0:0:
399,217,232120,1,4,3:0:0:0:
388,110,232411,1,0,3:0:0:0:
327,52,232703,5,10,1:0:0:0:
327,52,232994,2,0,B|243:25|267:75|171:49,1,159.9999904633,2|2,1:0|0:0,0:0:0:0:
