osu file format v14

[General]
AudioFilename: audio.mp3
AudioLeadIn: 0
PreviewTime: -1
Countdown: 1
SampleSet: Normal
StackLeniency: 0.7
Mode: 0
LetterboxInBreaks: 0
WidescreenStoryboard: 0

[Editor]
DistanceSpacing: 2.6
BeatDivisor: 8
GridSize: 4
TimelineZoom: 1

[Metadata]
Title:Something Just Like This
TitleUnicode:Something Just Like This
Artist:The Chainsmokers & Coldplay
ArtistUnicode:The Chainsmokers & Coldplay
Creator:TyGeR OwN YeAh
Version:Something just like this
Source:
Tags:kk
BeatmapID:1304911
BeatmapSetID:619064

[Difficulty]
HPDrainRate:6
CircleSize:4.5
OverallDifficulty:9
ApproachRate:10
SliderMultiplier:1.4
SliderTickRate:1

[Events]
//Background and Video events
0,0,"osuuu.jpg",0,0
//Break Periods
//Storyboard Layer 0 (Background)
//Storyboard Layer 1 (Fail)
//Storyboard Layer 2 (Pass)
//Storyboard Layer 3 (Foreground)
//Storyboard Sound Samples

[TimingPoints]
339.887551308102,582.52427184466,4,1,0,100,1,0
18980,-200,4,1,0,100,0,0
23640,-100,4,1,0,100,0,0
28301,-200,4,1,0,100,0,0
32961,-100,4,1,0,100,0,0
50728,-200,4,1,0,100,0,0
51602,-100,4,1,0,100,0,0
55970,-200,4,1,0,100,0,0
58592,-100,4,1,0,100,0,0
60048,-200,4,1,0,100,0,0
65582,-50,4,1,0,100,0,0
84223,-100,4,1,0,100,0,0
102864,-200,4,1,0,100,0,0
106359,-100,4,1,0,100,0,0
109854,-200,4,1,0,100,0,0
119757,-100,4,1,0,100,0,0
121504,-50,4,1,0,100,0,0
129077,-100,4,1,0,100,0,0

[HitObjects]
97,113,9660,5,0,0:0:0:0:
460,288,11990,1,0,0:0:0:0:
92,276,14320,1,0,0:0:0:0:
352,48,16650,1,0,0:0:0:0:
312,328,18980,6,0,B|380:316|380:316|400:276|348:216,1,175
136,48,21310,2,0,B|88:72|108:108|108:108|60:128|96:192,1,175
288,340,23640,2,0,L|372:288,1,70
236,276,24223,2,0,L|184:220,1,70
288,224,24805,2,0,L|344:176,1,70
224,160,25388,1,0,0:0:0:0:
312,72,25679,1,0,0:0:0:0:
396,208,25970,1,0,0:0:0:0:
320,276,26553,6,0,P|280:312|236:324,2,70
340,232,27427,2,0,L|268:184,2,70
428,332,28301,2,0,B|472:312|472:312|468:288|424:260,1,105
216,160,29466,1,0,0:0:0:0:
368,264,29757,1,0,0:0:0:0:
220,276,30048,1,0,0:0:0:0:
376,128,30339,1,0,0:0:0:0:
156,88,30631,6,0,B|120:72|100:84|100:84|112:144,1,105
200,284,31796,1,0,0:0:0:0:
272,172,32087,1,0,0:0:0:0:
324,288,32378,1,0,0:0:0:0:
152,164,32669,1,0,0:0:0:0:
344,76,32961,2,0,L|408:48,1,70
404,176,33543,2,0,P|376:208|336:216,2,70
276,148,34417,2,0,P|240:128|188:136,2,70
368,280,35291,1,0,0:0:0:0:
316,176,36165,6,0,P|300:136|264:100,2,70
312,248,37038,2,0,L|256:296,1,70
120,272,37621,1,0,0:0:0:0:
40,156,37912,1,0,0:0:0:0:
208,204,38203,1,0,0:0:0:0:
80,80,38495,1,0,0:0:0:0:
180,32,38786,2,0,P|216:24|260:40,1,70
284,96,39369,2,0,P|316:112|352:96,1,70
440,168,39951,5,0,0:0:0:0:
316,216,40242,1,0,0:0:0:0:
432,256,40534,1,0,0:0:0:0:
304,312,40825,1,0,0:0:0:0:
208,344,41116,2,0,P|168:360|140:348,1,70
52,248,41699,2,0,P|36:204|52:172,1,70
160,76,42281,5,0,0:0:0:0:
248,224,42572,1,0,0:0:0:0:
364,140,42864,1,0,0:0:0:0:
104,172,43155,1,0,0:0:0:0:
332,272,43446,1,0,0:0:0:0:
228,92,43737,1,0,0:0:0:0:
92,288,44029,1,0,0:0:0:0:
364,136,44320,1,0,0:0:0:0:
120,80,44611,1,0,0:0:0:0:
132,304,45194,6,0,L|204:276,1,70
412,216,45776,1,0,0:0:0:0:
412,216,46068,1,0,0:0:0:0:
412,216,46359,1,0,0:0:0:0:
392,112,46650,2,0,P|356:80|312:64,1,70
132,92,47233,1,0,0:0:0:0:
112,268,47815,5,0,0:0:0:0:
196,216,47961,1,0,0:0:0:0:
260,292,48106,1,0,0:0:0:0:
92,124,48398,5,0,0:0:0:0:
176,72,48544,1,0,0:0:0:0:
240,148,48689,1,0,0:0:0:0:
416,104,48980,1,0,0:0:0:0:
352,240,49271,5,0,0:0:0:0:
352,240,49563,1,0,0:0:0:0:
352,240,49854,1,0,0:0:0:0:
224,308,50145,1,0,0:0:0:0:
160,240,50291,1,0,0:0:0:0:
64,308,50436,1,0,0:0:0:0:
48,168,50728,2,0,P|64:148|120:148,1,70
316,120,51602,6,0,L|388:104,2,70
56,232,52475,1,0,0:0:0:0:
128,156,52621,1,0,0:0:0:0:
208,256,52767,1,0,0:0:0:0:
136,232,53058,1,0,0:0:0:0:
208,156,53204,1,0,0:0:0:0:
288,256,53350,1,0,0:0:0:0:
400,188,53640,1,0,0:0:0:0:
332,76,53932,5,0,0:0:0:0:
192,40,54223,1,0,0:0:0:0:
60,116,54514,1,0,0:0:0:0:
48,256,54805,1,0,0:0:0:0:
192,336,55097,1,0,0:0:0:0:
288,288,55388,2,0,P|336:256|352:216,1,70
228,232,55970,6,0,P|236:204|236:148,1,70
64,108,56844,1,0,0:0:0:0:
268,96,57136,1,0,0:0:0:0:
356,156,57281,1,0,0:0:0:0:
248,244,57427,1,0,0:0:0:0:
388,72,57718,1,0,0:0:0:0:
476,132,57863,1,0,0:0:0:0:
368,220,58009,1,0,0:0:0:0:
152,316,58301,5,0,0:0:0:0:
92,232,58592,2,0,P|100:196|136:156,2,70
352,224,59466,1,0,0:0:0:0:
216,164,59611,1,0,0:0:0:0:
400,76,59757,1,0,0:0:0:0:
400,312,60048,2,0,B|376:332|376:332|332:336,1,70
180,324,60922,5,0,0:0:0:0:
64,248,61213,1,0,0:0:0:0:
120,84,61504,1,0,0:0:0:0:
416,208,61796,1,0,0:0:0:0:
328,268,61941,1,0,0:0:0:0:
452,328,62087,1,0,0:0:0:0:
352,140,62378,1,0,0:0:0:0:
264,200,62523,1,0,0:0:0:0:
388,260,62669,1,0,0:0:0:0:
208,336,62961,5,0,0:0:0:0:
120,264,63252,1,0,0:0:0:0:
248,184,63543,5,0,0:0:0:0:
256,184,63835,1,0,0:0:0:0:
256,192,64126,1,0,0:0:0:0:
248,188,64417,1,0,0:0:0:0:
248,176,64708,1,0,0:0:0:0:
256,176,65000,1,0,0:0:0:0:
256,184,65291,1,0,0:0:0:0:
144,256,65582,6,0,L|116:280,1,35
388,52,66165,6,0,L|428:80,1,35
100,148,66456,2,0,L|72:172,1,35
372,244,66747,2,0,L|412:272,1,35
132,76,67330,6,0,L|104:100,1,35
328,148,67621,2,0,L|368:176,1,35
144,272,67912,2,0,L|116:296,1,35
128,76,68495,6,0,L|164:112,1,35
368,100,68786,2,0,L|336:136,1,35
84,76,69077,2,0,L|120:112,1,35
400,96,69369,2,0,L|368:132,1,35
56,72,69660,2,0,L|92:108,1,35
424,92,69951,2,0,L|392:128,1,35
72,328,70242,5,0,0:0:0:0:
72,328,70825,5,0,0:0:0:0:
212,76,71116,1,0,0:0:0:0:
416,276,71407,1,0,0:0:0:0:
152,284,71990,5,0,0:0:0:0:
292,32,72281,1,0,0:0:0:0:
496,232,72572,1,0,0:0:0:0:
120,304,73155,6,0,B|104:272|128:232|128:232|212:252,1,140
48,160,73737,1,0,0:0:0:0:
216,200,73883,1,0,0:0:0:0:
44,160,74029,1,0,0:0:0:0:
216,200,74174,1,0,0:0:0:0:
440,64,74320,5,0,0:0:0:0:
304,136,74466,1,0,0:0:0:0:
440,64,74611,1,0,0:0:0:0:
304,136,74757,1,0,0:0:0:0:
344,304,74902,1,0,0:0:0:0:
76,248,75485,5,0,0:0:0:0:
368,240,75631,1,0,0:0:0:0:
288,84,75776,1,0,0:0:0:0:
232,320,75922,1,0,0:0:0:0:
128,76,76068,1,0,0:0:0:0:
128,72,76650,5,0,0:0:0:0:
356,212,76796,1,0,0:0:0:0:
432,92,76941,1,0,0:0:0:0:
132,208,77087,1,0,0:0:0:0:
404,332,77233,1,0,0:0:0:0:
104,152,77815,5,0,0:0:0:0:
312,64,77961,1,0,0:0:0:0:
128,180,78106,1,0,0:0:0:0:
340,108,78252,1,0,0:0:0:0:
136,212,78398,1,0,0:0:0:0:
384,172,78543,1,0,0:0:0:0:
140,260,78689,1,0,0:0:0:0:
400,260,78835,1,0,0:0:0:0:
68,328,78980,1,0,0:0:0:0:
248,124,79126,1,0,0:0:0:0:
384,328,79271,1,0,0:0:0:0:
148,176,79417,1,0,0:0:0:0:
408,152,79563,1,0,0:0:0:0:
408,152,80145,5,0,0:0:0:0:
116,284,80291,1,0,0:0:0:0:
108,72,80436,1,0,0:0:0:0:
400,288,80582,1,0,0:0:0:0:
368,52,80728,1,0,0:0:0:0:
368,52,81310,5,0,0:0:0:0:
120,276,81456,1,0,0:0:0:0:
436,136,81602,1,0,0:0:0:0:
144,112,81747,1,0,0:0:0:0:
352,320,81893,1,0,0:0:0:0:
144,272,82475,5,0,0:0:0:0:
404,192,82621,1,0,0:0:0:0:
320,132,82767,1,0,0:0:0:0:
428,288,82912,1,0,0:0:0:0:
72,336,83058,1,0,0:0:0:0:
248,256,83203,1,0,0:0:0:0:
88,104,83349,1,0,0:0:0:0:
204,344,83495,1,0,0:0:0:0:
416,208,83640,1,0,0:0:0:0:
228,100,83932,1,0,0:0:0:0:
88,104,84223,6,0,P|104:140|128:164,1,70
200,160,84805,2,0,P|232:188|252:220,1,70
384,256,85388,2,0,L|320:296,2,70
220,280,86262,1,0,0:0:0:0:
80,240,86553,2,0,P|72:196|52:176,1,70
100,96,87136,2,0,P|112:68|152:36,1,70
388,144,87718,6,0,L|440:196,2,70
400,272,88592,1,0,0:0:0:0:
280,312,88883,2,0,P|248:304|216:320,1,70
176,256,89466,2,0,P|144:276|124:312,1,70
136,68,90048,5,0,0:0:0:0:
368,164,90339,1,0,0:0:0:0:
136,168,90631,1,0,0:0:0:0:
368,80,90922,1,0,0:0:0:0:
156,68,91213,6,0,P|124:88|104:120,1,70
220,156,91796,2,0,P|208:188|216:232,1,70
372,308,92378,5,0,0:0:0:0:
192,236,92669,1,0,0:0:0:0:
368,232,92961,1,0,0:0:0:0:
192,320,93252,1,0,0:0:0:0:
88,236,93543,6,0,L|56:160,1,70
156,112,94126,2,0,L|184:40,1,70
356,128,94708,2,0,P|392:144|420:172,2,70
216,96,95582,1,0,0:0:0:0:
124,200,95873,2,0,L|92:276,1,70
212,248,96456,2,0,L|232:320,1,70
412,304,97038,5,0,0:0:0:0:
308,172,97330,1,0,0:0:0:0:
228,296,97621,1,0,0:0:0:0:
132,176,97912,1,0,0:0:0:0:
108,72,98203,6,0,L|184:64,1,70
104,280,98786,2,0,L|180:308,1,70
280,96,99369,2,0,L|352:56,1,70
280,256,99951,2,0,L|344:304,1,70
408,192,100534,1,0,0:0:0:0:
276,136,101116,6,0,B|248:112|204:104|208:104,2,70
204,216,101990,2,0,P|180:244|144:256,2,70
104,136,102864,2,0,B|84:80|84:80|112:40,1,105
260,64,104029,1,0,0:0:0:0:
416,160,104320,1,0,0:0:0:0:
388,60,104611,1,0,0:0:0:0:
200,172,104902,1,0,0:0:0:0:
372,208,105194,2,0,L|424:260,1,70
280,204,106068,5,0,0:0:0:0:
184,292,106359,2,0,L|108:312,1,70
192,100,106941,2,0,L|108:80,1,70
368,276,107524,5,0,0:0:0:0:
308,132,107815,1,0,0:0:0:0:
412,164,108106,1,0,0:0:0:0:
260,292,108398,1,0,0:0:0:0:
472,256,108689,1,0,0:0:0:0:
256,96,108980,1,0,0:0:0:0:
308,348,109271,1,0,0:0:0:0:
364,64,109563,1,0,0:0:0:0:
60,236,109854,2,0,B|108:216|108:216|136:168,1,105
80,76,111019,5,0,0:0:0:0:
268,136,111310,1,0,0:0:0:0:
184,56,111602,1,0,0:0:0:0:
136,232,111893,1,0,0:0:0:0:
388,312,112184,5,0,0:0:0:0:
388,312,112475,1,0,0:0:0:0:
388,312,112767,1,0,0:0:0:0:
388,312,113058,1,0,0:0:0:0:
232,184,113349,5,0,0:0:0:0:
164,308,113640,1,0,0:0:0:0:
412,224,113932,1,0,0:0:0:0:
132,104,114223,1,0,0:0:0:0:
216,248,114514,5,0,0:0:0:0:
216,248,114805,1,0,0:0:0:0:
216,248,115097,1,0,0:0:0:0:
216,248,115388,1,0,0:0:0:0:
336,152,115679,2,0,L|372:140,1,35
240,104,116262,2,0,L|248:68,1,35
256,192,116844,5,0,0:0:0:0:
256,192,117136,1,0,0:0:0:0:
256,192,117427,1,0,0:0:0:0:
256,192,117718,1,0,0:0:0:0:
256,192,118009,1,0,0:0:0:0:
256,192,118301,1,0,0:0:0:0:
256,192,118592,1,0,0:0:0:0:
256,192,118883,1,0,0:0:0:0:
256,192,119174,1,0,0:0:0:0:
320,120,119757,6,0,P|348:128|380:152,1,70
248,200,120339,2,0,L|180:244,2,70
384,112,121213,1,0,0:0:0:0:
108,96,121504,6,0,L|80:116,1,35
412,76,122087,2,0,L|440:104,1,35
380,156,122378,2,0,L|408:188,1,35
108,96,122669,2,0,L|80:124,1,35
412,76,123252,6,0,L|440:104,1,35
380,156,123543,2,0,L|408:188,1,35
108,96,123834,2,0,L|80:124,1,35
392,72,124417,6,0,L|416:100,1,35
104,64,124708,2,0,L|76:88,1,35
380,132,125000,2,0,L|404:164,1,35
104,128,125291,2,0,L|72:152,1,35
368,192,125582,2,0,L|392:220,1,35
116,176,125873,2,0,L|92:208,1,35
320,296,126165,1,0,0:0:0:0:
136,72,126747,5,0,0:0:0:0:
108,272,127038,1,0,0:0:0:0:
388,92,127330,1,0,0:0:0:0:
388,92,127912,1,0,0:0:0:0:
216,124,128203,1,0,0:0:0:0:
384,284,128495,1,0,0:0:0:0:
356,84,129077,2,0,P|312:80|272:92,1,70
352,200,129660,5,0,0:0:0:0:
464,136,129805,1,0,0:0:0:0:
352,200,129951,1,0,0:0:0:0:
464,136,130097,1,0,0:0:0:0:
240,200,130242,1,0,0:0:0:0:
116,148,130388,1,0,0:0:0:0:
240,200,130534,1,0,0:0:0:0:
116,148,130679,1,0,0:0:0:0:
392,304,130825,5,0,0:0:0:0:
136,72,131407,5,0,0:0:0:0:
364,168,131553,1,0,0:0:0:0:
240,40,131699,1,0,0:0:0:0:
168,184,131844,1,0,0:0:0:0:
404,80,131990,1,0,0:0:0:0:
404,80,132572,5,0,0:0:0:0:
140,112,132718,1,0,0:0:0:0:
288,216,132864,1,0,0:0:0:0:
344,32,133009,1,0,0:0:0:0:
96,240,133155,1,0,0:0:0:0:
216,60,133737,5,0,0:0:0:0:
416,84,133883,1,0,0:0:0:0:
196,120,134029,1,0,0:0:0:0:
432,140,134174,1,0,0:0:0:0:
184,176,134320,1,0,0:0:0:0:
456,204,134466,1,0,0:0:0:0:
184,224,134611,1,0,0:0:0:0:
468,256,134757,1,0,0:0:0:0:
128,332,134902,5,0,0:0:0:0:
308,136,135048,1,0,0:0:0:0:
416,336,135194,1,0,0:0:0:0:
88,240,135339,1,0,0:0:0:0:
428,104,135485,1,0,0:0:0:0:
144,88,136068,5,0,0:0:0:0:
348,272,136213,1,0,0:0:0:0:
336,100,136359,1,0,0:0:0:0:
148,276,136504,1,0,0:0:0:0:
144,88,136650,1,0,0:0:0:0:
