osu file format v14

[General]
AudioFilename: audio.mp3
AudioLeadIn: 0
PreviewTime: -1
Countdown: 0
SampleSet: None
StackLeniency: 0.7
Mode: 0
LetterboxInBreaks: 0
WidescreenStoryboard: 0

[Editor]
DistanceSpacing: 0.8
BeatDivisor: 4
GridSize: 16
TimelineZoom: 1

[Metadata]
Title:Something Just Like This
TitleUnicode:Something Just Like This
Artist:The Chainsmokers & Coldplay
ArtistUnicode:The Chainsmokers & Coldplay
Creator:RealXantoo
Version:Doo Doo Doo
Source:
Tags:
BeatmapID:1299752
BeatmapSetID:616273

[Difficulty]
HPDrainRate:6
CircleSize:5
OverallDifficulty:7
ApproachRate:9
SliderMultiplier:2.1
SliderTickRate:1

[Events]
//Background and Video events
0,0,"something just like this.png",0,0
//Break Periods
2,44874,47278
2,53612,56599
//Storyboard Layer 0 (Background)
//Storyboard Layer 1 (Fail)
//Storyboard Layer 2 (Pass)
//Storyboard Layer 3 (Foreground)
//Storyboard Sound Samples

[TimingPoints]
403,582.52427184466,4,1,0,100,1,0
403,-100,4,1,0,40,0,0
8121,-100,4,1,0,60,0,0
9723,-200,4,1,0,60,0,0
10451,-100,4,1,0,60,0,0
14383,-200,4,1,0,60,0,0
15111,-100,4,1,0,60,0,0
26325,-100,4,1,0,80,0,0
53703,-66.6666666666667,4,1,0,80,0,0
65645,-50,4,1,0,80,0,0
80208,-50,4,1,0,50,0,0
81082,-50,4,1,0,25,0,0

[Colours]
Combo1 : 101,79,204
Combo2 : 164,32,240
Combo3 : 37,185,239
Combo4 : 200,83,238
Combo5 : 0,0,255
Combo6 : 223,0,223

[HitObjects]
400,80,403,5,0,0:0:0:0:
320,320,985,2,0,B|256:288|256:288|272:192|176:144,1,210
320,48,2150,2,0,P|352:128|224:192,1,210
144,48,3315,1,0,0:0:0:0:
80,192,3898,1,0,0:0:0:0:
176,288,4189,2,0,B|272:256|240:96|96:128|160:256|304:160,1,315
368,64,5645,5,0,0:0:0:0:
480,144,5936,1,0,0:0:0:0:
352,128,6228,2,0,B|288:160|288:160|240:112|192:128,1,157.5
176,112,6810,1,0,0:0:0:0:
224,288,7102,1,0,0:0:0:0:
320,112,7393,2,0,P|336:80|352:144,1,157.5
320,160,7975,5,0,0:0:0:0:
208,304,8267,1,0,0:0:0:0:
176,128,8558,2,0,P|224:80|304:80,2,105
272,288,9432,1,0,0:0:0:0:
464,128,9723,6,0,P|448:48|432:32,1,105
256,64,10597,1,0,0:0:0:0:
208,256,10888,2,0,P|288:272|352:256,2,105
160,64,11762,1,0,0:0:0:0:
368,64,12053,2,0,P|416:144|400:272,1,210
288,96,12927,5,0,0:0:0:0:
176,256,13218,1,0,0:0:0:0:
320,80,13509,2,0,P|352:144|336:208,2,105
160,64,14383,2,0,L|112:176,1,105
304,272,15257,5,0,0:0:0:0:
176,144,15548,2,0,P|192:80|224:48,1,105
368,224,16131,1,0,0:0:0:0:
128,192,16422,1,0,0:0:0:0:
416,112,16713,2,0,P|432:224|400:336,1,210
256,320,17587,6,0,P|224:272|224:224,1,105
288,64,18169,1,0,0:0:0:0:
368,320,18461,2,0,P|288:320|240:272,1,105
144,64,19043,2,0,P|240:48|384:64,1,210
400,96,19771,1,0,0:0:0:0:
400,160,19917,2,0,L|304:224,1,105
176,320,20500,1,0,0:0:0:0:
272,64,20791,1,0,0:0:0:0:
416,304,21082,1,0,0:0:0:0:
416,304,21228,1,0,0:0:0:0:
416,304,21373,1,0,0:0:0:0:
352,96,21665,6,0,P|288:48|240:48,1,105
96,96,22247,1,0,0:0:0:0:
320,256,22538,1,0,0:0:0:0:
112,64,22830,1,0,0:0:0:0:
288,272,23121,2,0,P|352:224|384:192,2,105
160,192,23995,5,0,0:0:0:0:
256,64,24286,2,0,P|304:112|320:160,1,105
288,304,24869,2,0,L|224:320,1,52.5
224,320,25160,1,0,0:0:0:0:
176,192,25451,2,0,P|240:144|288:128,2,105
352,64,26616,5,0,0:0:0:0:
368,304,26907,1,0,0:0:0:0:
240,64,27199,2,0,P|192:112|160:208,1,157.5
160,224,27781,1,0,0:0:0:0:
352,288,28072,1,0,0:0:0:0:
224,64,28364,2,0,P|144:80|48:192,1,210
320,288,29237,5,0,0:0:0:0:
416,80,29529,1,0,0:0:0:0:
224,176,29820,1,0,0:0:0:0:
432,192,30111,2,0,P|416:112|368:80,1,105
176,48,30694,1,0,0:0:0:0:
64,224,31276,5,0,0:0:0:0:
288,304,31568,2,0,P|368:288|384:256,1,105
400,64,32150,1,0,0:0:0:0:
224,176,32441,2,0,L|160:224,1,52.5
160,224,32733,1,0,0:0:0:0:
320,304,33024,2,0,L|400:224,2,105
272,112,33898,1,0,0:0:0:0:
112,64,34189,6,0,P|96:128|112:208,1,105
320,224,34771,1,0,0:0:0:0:
160,48,35063,1,0,0:0:0:0:
240,288,35354,2,0,P|304:256|400:144,1,210
320,48,36228,6,0,P|224:64|192:96,1,105
160,256,36810,1,0,0:0:0:0:
384,96,37102,1,0,0:0:0:0:
256,304,37393,1,0,0:0:0:0:
224,32,37684,1,0,0:0:0:0:
384,176,38558,6,0,P|320:224|272:240,2,105
384,32,39432,1,0,0:0:0:0:
192,224,39723,1,0,0:0:0:0:
464,304,40014,2,0,P|480:224|416:80,1,210
224,80,40888,5,0,0:0:0:0:
128,256,41179,2,0,P|176:304|256:320,2,105
224,112,42053,1,0,0:0:0:0:
336,240,42344,1,0,0:0:0:0:
352,256,42636,1,0,0:0:0:0:
240,64,43218,6,0,P|160:96|128:128,1,105
144,272,43801,1,0,0:0:0:0:
288,160,44092,2,0,P|288:224|272:288,1,105
112,176,44674,1,0,0:0:0:0:
320,96,47878,5,0,0:0:0:0:
384,48,48024,1,0,0:0:0:0:
400,128,48169,1,0,0:0:0:0:
350,125,48461,5,0,0:0:0:0:
427,103,48607,1,0,0:0:0:0:
413,183,48752,1,0,0:0:0:0:
320,256,49043,5,0,0:0:0:0:
288,288,49335,1,0,0:0:0:0:
256,320,49626,1,0,0:0:0:0:
224,352,49917,1,0,0:0:0:0:
88,192,50208,5,0,0:0:0:0:
19,112,50354,1,0,0:0:0:0:
122,83,50499,1,0,0:0:0:0:
122,150,50791,5,0,0:0:0:0:
87,50,50937,1,0,0:0:0:0:
193,62,51082,1,0,0:0:0:0:
88,192,51228,5,0,0:0:0:0:
32,96,51374,1,0,0:0:0:0:
256,48,51665,5,0,0:0:0:0:
288,80,51956,1,0,0:0:0:0:
320,112,52247,1,0,0:0:0:0:
224,288,52538,5,0,0:0:0:0:
116,318,52684,1,0,0:0:0:0:
134,206,52829,1,0,0:0:0:0:
198,236,53121,5,0,0:0:0:0:
87,225,53267,1,0,0:0:0:0:
146,129,53412,1,0,0:0:0:0:
160,128,57199,5,0,0:0:0:0:
64,256,57344,1,0,0:0:0:0:
224,208,57490,1,0,0:0:0:0:
379,33,57781,5,0,0:0:0:0:
485,174,57926,1,0,0:0:0:0:
308,121,58072,1,0,0:0:0:0:
192,64,58364,6,0,L|96:224,1,157.500006008148
336,176,58946,2,0,L|432:336,1,157.500006008148
144,224,59529,5,0,0:0:0:0:
304,80,59674,1,0,0:0:0:0:
256,288,59820,1,0,0:0:0:0:
147,270,60111,5,0,0:0:0:0:
297,64,60257,1,0,0:0:0:0:
297,319,60402,1,0,0:0:0:0:
147,113,60548,1,0,0:0:0:0:
389,192,60694,1,0,0:0:0:0:
304,32,61859,5,0,0:0:0:0:
480,48,62004,1,0,0:0:0:0:
304,64,62150,1,0,0:0:0:0:
224,144,62441,5,0,0:0:0:0:
48,304,62587,1,0,0:0:0:0:
224,144,62733,2,0,P|295:107|221:159,1,315.000012016297
128,48,63606,5,0,0:0:0:0:
464,176,63898,1,0,0:0:0:0:
112,352,64189,1,0,0:0:0:0:
384,48,64480,1,0,0:0:0:0:
400,32,64771,1,0,0:0:0:0:
224,304,65063,1,0,0:0:0:0:
178,278,65208,1,0,0:0:0:0:
143,238,65354,1,0,0:0:0:0:
256,64,65645,6,0,B|464:64|464:64|368:160,1,315
384,144,66228,1,0,0:0:0:0:
160,368,66519,1,0,0:0:0:0:
288,32,66810,2,0,L|448:320,1,315
448,320,67393,1,0,0:0:0:0:
64,192,67684,1,0,0:0:0:0:
432,64,67975,2,0,L|464:48,1,26.25
336,336,68267,1,0,0:0:0:0:
176,48,68558,6,0,P|64:160|64:240,2,210
416,208,69432,1,0,0:0:0:0:
48,64,69723,1,0,0:0:0:0:
368,288,70014,2,0,P|464:176|464:80,1,210
304,32,70597,1,0,0:0:0:0:
64,256,70888,2,0,P|176:320|336:320,2,210
144,80,71762,1,0,0:0:0:0:
192,32,71907,1,0,0:0:0:0:
256,32,72053,2,0,P|384:96|432:224,1,210
448,336,72636,5,0,0:0:0:0:
128,160,72927,2,0,L|384:48,1,210
224,320,73509,2,0,L|144:112,1,210
384,208,74092,2,0,L|160:320,1,210
256,64,74674,2,0,L|352:224,1,105
320,176,74966,1,0,0:0:0:0:
128,304,75257,1,0,0:0:0:0:
336,32,75548,2,0,P|432:96|464:208,1,210
320,352,76131,1,0,0:0:0:0:
112,32,76422,1,0,0:0:0:0:
352,48,76713,6,0,L|464:256,2,210
160,288,77587,1,0,0:0:0:0:
256,32,77878,2,0,P|384:96|416:208,1,210
304,320,78461,1,0,0:0:0:0:
64,112,78752,1,0,0:0:0:0:
416,48,79043,1,0,0:0:0:0:
256,336,79335,1,0,0:0:0:0:
64,80,79626,2,0,P|192:32|320:16,1,210
400,80,80208,1,0,0:0:0:0:
416,240,80500,1,0,0:0:0:0:
288,320,80791,1,0,0:0:0:0:
112,160,81373,5,0,0:0:0:0:
208,64,81665,1,0,0:0:0:0:
336,32,81956,1,0,0:0:0:0:
