osu file format v14

[General]
AudioFilename: audio.mp3
AudioLeadIn: 0
PreviewTime: -1
Countdown: 1
SampleSet: Soft
StackLeniency: 0.7
Mode: 3
LetterboxInBreaks: 0
SpecialStyle: 0
WidescreenStoryboard: 0

[Editor]
Bookmarks: 104547
DistanceSpacing: 0.5
BeatDivisor: 8
GridSize: 32
TimelineZoom: 2.2

[Metadata]
Title:Something Just Like This
TitleUnicode:Something Just Like This
Artist:The Chainsmokers & Coldplay
ArtistUnicode:The Chainsmokers & Coldplay
Creator:Combistein
Version:Fairy tale
Source:
Tags:
BeatmapID:1862999
BeatmapSetID:891235

[Difficulty]
HPDrainRate:8
CircleSize:4
OverallDifficulty:8
ApproachRate:5
SliderMultiplier:1.4
SliderTickRate:1

[Events]
//Background and Video events
0,0,"the_walk_by_sheer_madness-dc8fyjz.jpg",0,0
//Break Periods
//Storyboard Layer 0 (Background)
//Storyboard Layer 1 (Fail)
//Storyboard Layer 2 (Pass)
//Storyboard Layer 3 (Foreground)
//Storyboard Sound Samples

[TimingPoints]
276,582.52427184466,4,2,0,5,1,0
65955,-83.3333333333333,4,2,0,5,0,0
66101,-100,4,2,0,5,0,0
66246,-83.3333333333333,4,2,0,5,0,0
66392,-100,4,2,0,5,0,0
66538,-83.3333333333333,4,2,0,5,0,0
66683,-100,4,2,0,5,0,0
67120,-83.3333333333333,4,2,0,5,0,0
67266,-100,4,2,0,5,0,0
67411,-83.3333333333333,4,2,0,5,0,0
67557,-100,4,2,0,5,0,0
67703,-83.3333333333333,4,2,0,5,0,0
67848,-100,4,2,0,5,0,0
68285,-83.3333333333333,4,2,0,5,0,0
68431,-100,4,2,0,5,0,0
68576,-83.3333333333333,4,2,0,5,0,0
68722,-100,4,2,0,5,0,0
68868,-83.3333333333333,4,2,0,5,0,0
69013,-100,4,2,0,5,0,0
69159,-83.3333333333333,4,2,0,5,0,0
69305,-100,4,2,0,5,0,0
69450,-83.3333333333333,4,2,0,5,0,0
69596,-100,4,2,0,5,0,0
69742,-83.3333333333333,4,2,0,5,0,0
69887,-100,4,2,0,5,0,0
70033,-83.3333333333333,4,2,0,5,0,0
70178,-100,4,2,0,5,0,0
70615,-83.3333333333333,4,2,0,5,0,0
70761,-100,4,2,0,5,0,0
70907,-83.3333333333333,4,2,0,5,0,0
71052,-100,4,2,0,5,0,0
71198,-83.3333333333333,4,2,0,5,0,0
71343,-100,4,2,0,5,0,0
71780,-83.3333333333333,4,2,0,5,0,0
71926,-100,4,2,0,5,0,0
72072,-83.3333333333333,4,2,0,5,0,0
72217,-100,4,2,0,5,0,0
72363,-83.3333333333333,4,2,0,5,0,0
72509,-100,4,2,0,5,0,0
72945,-83.3333333333333,4,2,0,5,0,0
73091,-100,4,2,0,5,0,0
73237,-83.3333333333333,4,2,0,5,0,0
73382,-100,4,2,0,5,0,0
73528,-83.3333333333333,4,2,0,5,0,0
73674,-100,4,2,0,5,0,0
75275,-83.3333333333333,4,2,0,5,0,0
75421,-100,4,2,0,5,0,0
75567,-83.3333333333333,4,2,0,5,0,0
75712,-100,4,2,0,5,0,0
75858,-83.3333333333333,4,2,0,5,0,0
76004,-100,4,2,0,5,0,0
76441,-83.3333333333333,4,2,0,5,0,0
76586,-100,4,2,0,5,0,0
76732,-83.3333333333333,4,2,0,5,0,0
76877,-100,4,2,0,5,0,0
77023,-83.3333333333333,4,2,0,5,0,0
77169,-100,4,2,0,5,0,0
77606,-83.3333333333333,4,2,0,5,0,0
77751,-100,4,2,0,5,0,0
77897,-83.3333333333333,4,2,0,5,0,0
78042,-100,4,2,0,5,0,0
78188,-83.3333333333333,4,2,0,5,0,0
78334,-100,4,2,0,5,0,0
78479,-83.3333333333333,4,2,0,5,0,0
78625,-100,4,2,0,5,0,0
78771,-83.3333333333333,4,2,0,5,0,0
78916,-100,4,2,0,5,0,0
79062,-83.3333333333333,4,2,0,5,0,0
79208,-100,4,2,0,5,0,0
79353,-83.3333333333333,4,2,0,5,0,0
79499,-100,4,2,0,5,0,0
79936,-83.3333333333333,4,2,0,5,0,0
80081,-100,4,2,0,5,0,0
80227,-83.3333333333333,4,2,0,5,0,0
80373,-100,4,2,0,5,0,0
80518,-83.3333333333333,4,2,0,5,0,0
80664,-100,4,2,0,5,0,0
81101,-83.3333333333333,4,2,0,5,0,0
81246,-100,4,2,0,5,0,0
81392,-83.3333333333333,4,2,0,5,0,0
81392,-83.3333333333333,4,2,0,5,0,0
81538,-100,4,2,0,5,0,0
81683,-83.3333333333333,4,2,0,5,0,0
81683,-83.3333333333333,4,2,0,5,0,0
81829,-100,4,2,0,5,0,0
82266,-83.3333333333333,4,2,0,5,0,0
82411,-100,4,2,0,5,0,0
82557,-83.3333333333333,4,2,0,5,0,0
82703,-100,4,2,0,5,0,0
121877,-83.3333333333333,4,2,0,5,0,0
122023,-100,4,2,0,5,0,0
122168,-83.3333333333333,4,2,0,5,0,0
122314,-100,4,2,0,5,0,0
122460,-83.3333333333333,4,2,0,5,0,0
122605,-100,4,2,0,5,0,0
123042,-83.3333333333333,4,2,0,5,0,0
123188,-100,4,2,0,5,0,0
123333,-83.3333333333333,4,2,0,5,0,0
123479,-100,4,2,0,5,0,0
123625,-83.3333333333333,4,2,0,5,0,0
123770,-100,4,2,0,5,0,0
124207,-83.3333333333333,4,2,0,5,0,0
124353,-100,4,2,0,5,0,0
124498,-83.3333333333333,4,2,0,5,0,0
124644,-100,4,2,0,5,0,0
124790,-83.3333333333333,4,2,0,5,0,0
124935,-100,4,2,0,5,0,0
125081,-83.3333333333333,4,2,0,5,0,0
125227,-100,4,2,0,5,0,0
125372,-83.3333333333333,4,2,0,5,0,0
125518,-100,4,2,0,5,0,0
125664,-83.3333333333333,4,2,0,5,0,0
125809,-100,4,2,0,5,0,0
125955,-83.3333333333333,4,2,0,5,0,0
126100,-100,4,2,0,5,0,0
126537,-83.3333333333333,4,2,0,5,0,0
126683,-100,4,2,0,5,0,0
126829,-83.3333333333333,4,2,0,5,0,0
126974,-100,4,2,0,5,0,0
127120,-83.3333333333333,4,2,0,5,0,0
127265,-100,4,2,0,5,0,0
127702,-83.3333333333333,4,2,0,5,0,0
127848,-100,4,2,0,5,0,0
127994,-83.3333333333333,4,2,0,5,0,0
128139,-100,4,2,0,5,0,0
128285,-83.3333333333333,4,2,0,5,0,0
128431,-100,4,2,0,5,0,0
128867,-83.3333333333333,4,2,0,5,0,0
129013,-100,4,2,0,5,0,0
129159,-83.3333333333333,4,2,0,5,0,0
129304,-100,4,2,0,5,0,0
129450,-83.3333333333333,4,2,0,5,0,0
129596,-100,4,2,0,5,0,0
131197,-83.3333333333333,4,2,0,5,0,0
131343,-100,4,2,0,5,0,0
131489,-83.3333333333333,4,2,0,5,0,0
131634,-100,4,2,0,5,0,0
131780,-83.3333333333333,4,2,0,5,0,0
131926,-100,4,2,0,5,0,0
132363,-83.3333333333333,4,2,0,5,0,0
132508,-100,4,2,0,5,0,0
132654,-83.3333333333333,4,2,0,5,0,0
132799,-100,4,2,0,5,0,0
132945,-83.3333333333333,4,2,0,5,0,0
133091,-100,4,2,0,5,0,0
133528,-83.3333333333333,4,2,0,5,0,0
133673,-100,4,2,0,5,0,0
133819,-83.3333333333333,4,2,0,5,0,0
133964,-100,4,2,0,5,0,0
134110,-83.3333333333333,4,2,0,5,0,0
134256,-100,4,2,0,5,0,0
134401,-83.3333333333333,4,2,0,5,0,0
134547,-100,4,2,0,5,0,0
134693,-83.3333333333333,4,2,0,5,0,0
134838,-100,4,2,0,5,0,0
134984,-83.3333333333333,4,2,0,5,0,0
135130,-100,4,2,0,5,0,0
135275,-83.3333333333333,4,2,0,5,0,0
135421,-100,4,2,0,5,0,0
135858,-83.3333333333333,4,2,0,5,0,0
136003,-100,4,2,0,5,0,0
136149,-83.3333333333333,4,2,0,5,0,0
136295,-100,4,2,0,5,0,0
136440,-83.3333333333333,4,2,0,5,0,0
136586,-100,4,2,0,5,0,0
137023,-83.3333333333333,4,2,0,5,0,0
137168,-100,4,2,0,5,0,0
137314,-83.3333333333333,4,2,0,5,0,0
137314,-83.3333333333333,4,2,0,5,0,0
137460,-100,4,2,0,5,0,0
137605,-83.3333333333333,4,2,0,5,0,0
137605,-83.3333333333333,4,2,0,5,0,0
137751,-100,4,2,0,5,0,0
138188,-83.3333333333333,4,2,0,5,0,0
138333,-100,4,2,0,5,0,0
138479,-83.3333333333333,4,2,0,5,0,0
138625,-100,4,2,0,5,0,0
177363,-29.4117647058824,4,2,0,5,0,0
177436,-500,4,2,0,5,0,0
177654,-29.4117647058824,4,2,0,5,0,0
177727,-500,4,2,0,5,0,0
177945,-29.4117647058824,4,2,0,5,0,0
178018,-500,4,2,0,5,0,0
178237,-29.4117647058824,4,2,0,5,0,0
178309,-500,4,2,0,5,0,0
178528,-29.4117647058824,4,2,0,5,0,0
178601,-500,4,2,0,5,0,0
178819,-29.4117647058824,4,2,0,5,0,0
178892,-500,4,2,0,5,0,0
179110,-29.4117647058824,4,2,0,5,0,0
179183,-500,4,2,0,5,0,0
179402,-29.4117647058824,4,2,0,5,0,0
179475,-500,4,2,0,5,0,0
179693,-29.4117647058824,4,2,0,5,0,0
179766,-500,4,2,0,5,0,0
179984,-29.4117647058824,4,2,0,5,0,0
180057,-500,4,2,0,5,0,0
180275,-29.4117647058824,4,2,0,5,0,0
180348,-500,4,2,0,5,0,0
180567,-29.4117647058824,4,2,0,5,0,0
180640,-500,4,2,0,5,0,0
180858,-29.4117647058824,4,2,0,5,0,0
180931,-500,4,2,0,5,0,0
181149,-29.4117647058824,4,2,0,5,0,0
181222,-500,4,2,0,5,0,0
181441,-29.4117647058824,4,2,0,5,0,0
181513,-500,4,2,0,5,0,0
181732,-29.4117647058824,4,2,0,5,0,0
181805,-500,4,2,0,5,0,0
182023,-29.4117647058824,4,2,0,5,0,0
182096,-500,4,2,0,5,0,0
182314,-29.4117647058824,4,2,0,5,0,0
182387,-500,4,2,0,5,0,0
182606,-29.4117647058824,4,2,0,5,0,0
182678,-500,4,2,0,5,0,0
182897,-29.4117647058824,4,2,0,5,0,0
182970,-500,4,2,0,5,0,0
183188,-29.4117647058824,4,2,0,5,0,0
183261,-500,4,2,0,5,0,0
183479,-29.4117647058824,4,2,0,5,0,0
183552,-500,4,2,0,5,0,0
183771,-29.4117647058824,4,2,0,5,0,0
183843,-500,4,2,0,5,0,0
184062,-29.4117647058824,4,2,0,5,0,0
184135,-500,4,2,0,5,0,0
184353,-29.4117647058824,4,2,0,5,0,0
184426,-500,4,2,0,5,0,0
184644,-29.4117647058824,4,2,0,5,0,0
184717,-500,4,2,0,5,0,0
184936,-29.4117647058824,4,2,0,5,0,0
185009,-500,4,2,0,5,0,0
185227,-29.4117647058824,4,2,0,5,0,0
185300,-500,4,2,0,5,0,0
185518,-29.4117647058824,4,2,0,5,0,0
185591,-500,4,2,0,5,0,0
185809,-29.4117647058824,4,2,0,5,0,0
185882,-500,4,2,0,5,0,0
186101,-29.4117647058824,4,2,0,5,0,0
186174,-500,4,2,0,5,0,0
186392,-29.4117647058824,4,2,0,5,0,0
186465,-500,4,2,0,5,0,0
186683,-29.4117647058824,4,2,0,5,0,0
186756,-500,4,2,0,5,0,0
186975,-29.4117647058824,4,2,0,5,0,0
187047,-500,4,2,0,5,0,0
187266,-29.4117647058824,4,2,0,5,0,0
187339,-500,4,2,0,5,0,0
187557,-29.4117647058824,4,2,0,5,0,0
187630,-500,4,2,0,5,0,0
187848,-29.4117647058824,4,2,0,5,0,0
187921,-500,4,2,0,5,0,0
188140,-29.4117647058824,4,2,0,5,0,0
188212,-500,4,2,0,5,0,0
188431,-29.4117647058824,4,2,0,5,0,0
188504,-500,4,2,0,5,0,0
188722,-29.4117647058824,4,2,0,5,0,0
188795,-500,4,2,0,5,0,0
189013,-29.4117647058824,4,2,0,5,0,0
189086,-500,4,2,0,5,0,0
189305,-29.4117647058824,4,2,0,5,0,0
189377,-500,4,2,0,5,0,0
189596,-29.4117647058824,4,2,0,5,0,0
189669,-500,4,2,0,5,0,0
189887,-29.4117647058824,4,2,0,5,0,0
189960,-500,4,2,0,5,0,0
190178,-29.4117647058824,4,2,0,5,0,0
190251,-500,4,2,0,5,0,0
190470,-29.4117647058824,4,2,0,5,0,0
190542,-500,4,2,0,5,0,0
190761,-29.4117647058824,4,2,0,5,0,0
190834,-500,4,2,0,5,0,0
191052,-29.4117647058824,4,2,0,5,0,0
191125,-500,4,2,0,5,0,0
191343,-29.4117647058824,4,2,0,5,0,0
191416,-500,4,2,0,5,0,0
191635,-29.4117647058824,4,2,0,5,0,0
191708,-500,4,2,0,5,0,0
191926,-29.4117647058824,4,2,0,5,0,0
191999,-500,4,2,0,5,0,0
192217,-29.4117647058824,4,2,0,5,0,0
192290,-500,4,2,0,5,0,0
192509,-29.4117647058824,4,2,0,5,0,0
192581,-500,4,2,0,5,0,0
192800,-29.4117647058824,4,2,0,5,0,0
192873,-500,4,2,0,5,0,0
193091,-29.4117647058824,4,2,0,5,0,0
193164,-500,4,2,0,5,0,0
193382,-29.4117647058824,4,2,0,5,0,0
193455,-500,4,2,0,5,0,0
193674,-29.4117647058824,4,2,0,5,0,0
193746,-500,4,2,0,5,0,0
193965,-100,4,2,0,5,0,0
196441,-83.3333333333333,4,2,0,5,0,0
196587,-100,4,2,0,5,0,0
196732,-83.3333333333333,4,2,0,5,0,0
196878,-100,4,2,0,5,0,0
197024,-83.3333333333333,4,2,0,5,0,0
197169,-100,4,2,0,5,0,0
197606,-83.3333333333333,4,2,0,5,0,0
197752,-100,4,2,0,5,0,0
197897,-83.3333333333333,4,2,0,5,0,0
198043,-100,4,2,0,5,0,0
198189,-83.3333333333333,4,2,0,5,0,0
198334,-100,4,2,0,5,0,0
198771,-83.3333333333333,4,2,0,5,0,0
198917,-100,4,2,0,5,0,0
199062,-83.3333333333333,4,2,0,5,0,0
199208,-100,4,2,0,5,0,0
199354,-83.3333333333333,4,2,0,5,0,0
199499,-100,4,2,0,5,0,0
199645,-83.3333333333333,4,2,0,5,0,0
199791,-100,4,2,0,5,0,0
199936,-83.3333333333333,4,2,0,5,0,0
200082,-100,4,2,0,5,0,0
200228,-83.3333333333333,4,2,0,5,0,0
200373,-100,4,2,0,5,0,0
200519,-83.3333333333333,4,2,0,5,0,0
200664,-100,4,2,0,5,0,0
201101,-83.3333333333333,4,2,0,5,0,0
201247,-100,4,2,0,5,0,0
201393,-83.3333333333333,4,2,0,5,0,0
201538,-100,4,2,0,5,0,0
201684,-83.3333333333333,4,2,0,5,0,0
201829,-100,4,2,0,5,0,0
202266,-83.3333333333333,4,2,0,5,0,0
202412,-100,4,2,0,5,0,0
202558,-83.3333333333333,4,2,0,5,0,0
202703,-100,4,2,0,5,0,0
202849,-83.3333333333333,4,2,0,5,0,0
202995,-100,4,2,0,5,0,0
203431,-83.3333333333333,4,2,0,5,0,0
203577,-100,4,2,0,5,0,0
203723,-83.3333333333333,4,2,0,5,0,0
203868,-100,4,2,0,5,0,0
204014,-83.3333333333333,4,2,0,5,0,0
204160,-100,4,2,0,5,0,0
205761,-83.3333333333333,4,2,0,5,0,0
205907,-100,4,2,0,5,0,0
206053,-83.3333333333333,4,2,0,5,0,0
206198,-100,4,2,0,5,0,0
206344,-83.3333333333333,4,2,0,5,0,0
206490,-100,4,2,0,5,0,0
206927,-83.3333333333333,4,2,0,5,0,0
207072,-100,4,2,0,5,0,0
207218,-83.3333333333333,4,2,0,5,0,0
207363,-100,4,2,0,5,0,0
207509,-83.3333333333333,4,2,0,5,0,0
207655,-100,4,2,0,5,0,0
208092,-83.3333333333333,4,2,0,5,0,0
208237,-100,4,2,0,5,0,0
208383,-83.3333333333333,4,2,0,5,0,0
208528,-100,4,2,0,5,0,0
208674,-83.3333333333333,4,2,0,5,0,0
208820,-100,4,2,0,5,0,0
208965,-83.3333333333333,4,2,0,5,0,0
209111,-100,4,2,0,5,0,0
209257,-83.3333333333333,4,2,0,5,0,0
209402,-100,4,2,0,5,0,0
209548,-83.3333333333333,4,2,0,5,0,0
209694,-100,4,2,0,5,0,0
209839,-83.3333333333333,4,2,0,5,0,0
209985,-100,4,2,0,5,0,0
210422,-83.3333333333333,4,2,0,5,0,0
210567,-100,4,2,0,5,0,0
210713,-83.3333333333333,4,2,0,5,0,0
210859,-100,4,2,0,5,0,0
211004,-83.3333333333333,4,2,0,5,0,0
211150,-100,4,2,0,5,0,0
211587,-83.3333333333333,4,2,0,5,0,0
211732,-100,4,2,0,5,0,0
211878,-83.3333333333333,4,2,0,5,0,0
211878,-83.3333333333333,4,2,0,5,0,0
212024,-100,4,2,0,5,0,0
212169,-83.3333333333333,4,2,0,5,0,0
212169,-83.3333333333333,4,2,0,5,0,0
212315,-100,4,2,0,5,0,0
212752,-83.3333333333333,4,2,0,5,0,0
212897,-100,4,2,0,5,0,0
213043,-83.3333333333333,4,2,0,5,0,0
213189,-100,4,2,0,5,0,0
215081,-83.3333333333333,4,2,0,5,0,0
215227,-100,4,2,0,5,0,0
215664,-83.3333333333333,4,2,0,5,0,0
215809,-100,4,2,0,5,0,0
217703,-83.3333333333333,4,2,0,5,0,0
217848,-100,4,2,0,5,0,0
217994,-83.3333333333333,4,2,0,5,0,0
218140,-100,4,2,0,5,0,0
221489,-83.3333333333333,4,2,0,5,0,0
221635,-100,4,2,0,5,0,0
222363,-83.3333333333333,4,2,0,5,0,0
222509,-100,4,2,0,5,0,0
223819,-83.3333333333333,4,2,0,5,0,0
223965,-100,4,2,0,5,0,0
224693,-83.3333333333333,4,2,0,5,0,0
224839,-100,4,2,0,5,0,0
224984,-83.3333333333333,4,2,0,5,0,0
225130,-100,4,2,0,5,0,0
225567,-83.3333333333333,4,2,0,5,0,0
225712,-100,4,2,0,5,0,0
226732,-83.3333333333333,4,2,0,5,0,0
226877,-100,4,2,0,5,0,0
228188,-83.3333333333333,4,2,0,5,0,0
228334,-100,4,2,0,5,0,0
228479,-83.3333333333333,4,2,0,5,0,0
228625,-100,4,2,0,5,0,0
229353,-83.3333333333333,4,2,0,5,0,0
229499,-100,4,2,0,5,0,0
229644,-83.3333333333333,4,2,0,5,0,0
229790,-100,4,2,0,5,0,0
230518,-83.3333333333333,4,2,0,5,0,0
230664,-100,4,2,0,5,0,0
230809,-83.3333333333333,4,2,0,5,0,0
230955,-100,4,2,0,5,0,0
231683,-83.3333333333333,4,2,0,5,0,0
231829,-100,4,2,0,5,0,0
231975,-83.3333333333333,4,2,0,5,0,0
232120,-100,4,2,0,5,0,0

[HitObjects]
448,192,276,128,0,1732:0:0:0:0:
64,192,858,1,0,0:0:0:0:
320,192,1149,1,0,0:0:0:0:
64,192,1441,1,0,0:0:0:0:
192,192,1732,128,0,2606:0:0:0:0:
64,192,2023,1,0,0:0:0:0:
320,192,2314,1,0,0:0:0:0:
64,192,2606,128,0,4062:0:0:0:0:
192,192,3188,1,0,0:0:0:0:
448,192,3479,1,0,0:0:0:0:
320,192,3771,1,0,0:0:0:0:
192,192,4062,128,0,4936:0:0:0:0:
448,192,4062,1,0,0:0:0:0:
64,192,4353,1,0,0:0:0:0:
320,192,4644,1,0,0:0:0:0:
320,192,4936,128,0,6392:0:0:0:0:
448,192,4936,1,0,0:0:0:0:
64,192,5518,1,0,0:0:0:0:
448,192,5809,1,0,0:0:0:0:
192,192,6101,1,0,0:0:0:0:
448,192,6392,128,0,7266:0:0:0:0:
64,192,6683,1,0,0:0:0:0:
320,192,6975,1,0,0:0:0:0:
64,192,7266,128,0,7994:0:0:0:0:
192,192,7994,128,0,9596:0:0:0:0:
448,192,8140,1,0,0:0:0:0:
320,192,8431,1,0,0:0:0:0:
320,192,8722,1,0,0:0:0:0:
64,192,9013,1,0,0:0:0:0:
64,192,9305,1,0,0:0:0:0:
448,192,9596,128,0,10178:0:0:0:0:
320,192,9596,1,0,0:0:0:0:
64,192,10470,1,0,0:0:0:0:
192,192,10761,1,0,0:0:0:0:
192,192,11052,1,0,0:0:0:0:
448,192,11343,1,0,0:0:0:0:
320,192,11635,1,0,0:0:0:0:
320,192,11926,128,0,12509:0:0:0:0:
192,192,11926,1,0,0:0:0:0:
64,192,12800,1,0,0:0:0:0:
448,192,13091,1,0,0:0:0:0:
448,192,13382,1,0,0:0:0:0:
64,192,13674,1,0,0:0:0:0:
320,192,13965,1,0,0:0:0:0:
192,192,14256,128,0,14839:0:0:0:0:
448,192,14256,128,0,14839:0:0:0:0:
320,192,15130,1,0,0:0:0:0:
64,192,15421,1,0,0:0:0:0:
64,192,15712,1,0,0:0:0:0:
448,192,16004,1,0,0:0:0:0:
192,192,16295,1,0,0:0:0:0:
320,192,16586,128,0,17169:0:0:0:0:
64,192,16586,128,0,17169:0:0:0:0:
192,192,17460,1,0,0:0:0:0:
448,192,17751,128,0,18042:0:0:0:0:
192,192,18042,1,0,0:0:0:0:
320,192,18334,128,0,18625:0:0:0:0:
64,192,18625,1,0,0:0:0:0:
64,192,18916,128,0,19499:0:0:0:0:
448,192,19353,1,0,0:0:0:0:
192,192,19499,128,0,20081:0:0:0:0:
320,192,19790,1,0,0:0:0:0:
64,192,20081,128,0,20373:0:0:0:0:
448,192,20373,1,0,0:0:0:0:
192,192,20664,128,0,20955:0:0:0:0:
64,192,20664,1,0,0:0:0:0:
320,192,20955,128,0,21246:0:0:0:0:
448,192,21246,128,0,21829:0:0:0:0:
64,192,21683,1,0,0:0:0:0:
320,192,21829,128,0,22411:0:0:0:0:
192,192,22120,1,0,0:0:0:0:
192,192,22411,1,0,0:0:0:0:
64,192,22703,1,0,0:0:0:0:
448,192,22703,1,0,0:0:0:0:
192,192,22994,128,0,23285:0:0:0:0:
320,192,23285,128,0,23576:0:0:0:0:
448,192,23576,1,0,0:0:0:0:
192,192,23868,128,0,24159:0:0:0:0:
448,192,24013,1,0,0:0:0:0:
64,192,24159,128,0,24450:0:0:0:0:
320,192,24450,1,0,0:0:0:0:
192,192,24450,1,0,0:0:0:0:
320,192,24742,1,0,0:0:0:0:
192,192,25033,1,0,0:0:0:0:
192,192,25324,1,0,0:0:0:0:
448,192,25324,128,0,25615:0:0:0:0:
64,192,25615,128,0,25907:0:0:0:0:
320,192,25907,1,0,0:0:0:0:
64,192,26343,1,0,0:0:0:0:
448,192,26489,128,0,26780:0:0:0:0:
192,192,26780,1,0,0:0:0:0:
320,192,27072,128,0,27363:0:0:0:0:
64,192,27363,128,0,27654:0:0:0:0:
448,192,27654,128,0,27945:0:0:0:0:
192,192,27945,128,0,28237:0:0:0:0:
320,192,28237,128,0,29110:0:0:0:0:
64,192,28237,1,0,0:0:0:0:
64,192,28528,1,0,0:0:0:0:
64,192,28819,1,0,0:0:0:0:
64,192,29110,1,0,0:0:0:0:
448,192,29110,128,0,29402:0:0:0:0:
64,192,29402,1,0,0:0:0:0:
320,192,29402,128,0,29693:0:0:0:0:
64,192,29693,128,0,29984:0:0:0:0:
192,192,29693,1,0,0:0:0:0:
448,192,29984,128,0,30275:0:0:0:0:
192,192,29984,1,0,0:0:0:0:
64,192,30275,128,0,30567:0:0:0:0:
192,192,30275,1,0,0:0:0:0:
448,192,30567,128,0,31149:0:0:0:0:
320,192,30567,1,0,0:0:0:0:
320,192,30858,1,0,0:0:0:0:
320,192,31149,1,0,0:0:0:0:
64,192,31149,128,0,31441:0:0:0:0:
320,192,31441,1,0,0:0:0:0:
448,192,31441,128,0,31732:0:0:0:0:
320,192,31732,1,0,0:0:0:0:
64,192,31732,128,0,32023:0:0:0:0:
192,192,32023,1,0,0:0:0:0:
320,192,32023,128,0,32314:0:0:0:0:
192,192,32314,1,0,0:0:0:0:
448,192,32314,128,0,32606:0:0:0:0:
192,192,32606,1,0,0:0:0:0:
320,192,32606,128,0,32897:0:0:0:0:
64,192,32897,1,0,0:0:0:0:
192,192,32897,128,0,33188:0:0:0:0:
64,192,33188,1,0,0:0:0:0:
448,192,33188,128,0,33479:0:0:0:0:
64,192,33479,1,0,0:0:0:0:
320,192,33479,128,0,33771:0:0:0:0:
64,192,33771,1,0,0:0:0:0:
192,192,33771,128,0,34062:0:0:0:0:
64,192,34062,1,0,0:0:0:0:
320,192,34062,128,0,34353:0:0:0:0:
448,192,34353,1,0,0:0:0:0:
192,192,34353,128,0,34644:0:0:0:0:
448,192,34644,1,0,0:0:0:0:
64,192,34644,128,0,34936:0:0:0:0:
448,192,34936,1,0,0:0:0:0:
320,192,34936,128,0,35227:0:0:0:0:
192,192,35227,1,0,0:0:0:0:
448,192,35227,128,0,36101:0:0:0:0:
192,192,35518,1,0,0:0:0:0:
192,192,35809,1,0,0:0:0:0:
192,192,36101,1,0,0:0:0:0:
64,192,36101,128,0,36392:0:0:0:0:
192,192,36392,1,0,0:0:0:0:
320,192,36392,128,0,36683:0:0:0:0:
64,192,36683,1,0,0:0:0:0:
448,192,36683,128,0,36975:0:0:0:0:
64,192,36975,1,0,0:0:0:0:
320,192,36975,128,0,37266:0:0:0:0:
192,192,37266,128,0,37557:0:0:0:0:
64,192,37266,1,0,0:0:0:0:
320,192,37557,128,0,38431:0:0:0:0:
64,192,37557,1,0,0:0:0:0:
448,192,37557,1,0,0:0:0:0:
448,192,37848,1,0,0:0:0:0:
448,192,38140,1,0,0:0:0:0:
448,192,38431,1,0,0:0:0:0:
64,192,38431,128,0,38722:0:0:0:0:
448,192,38722,1,0,0:0:0:0:
320,192,38722,128,0,39013:0:0:0:0:
192,192,39013,1,0,0:0:0:0:
64,192,39013,128,0,39305:0:0:0:0:
192,192,39305,1,0,0:0:0:0:
448,192,39305,128,0,39887:0:0:0:0:
192,192,39596,1,0,0:0:0:0:
64,192,39887,1,0,0:0:0:0:
320,192,39887,128,0,40761:0:0:0:0:
64,192,40178,1,0,0:0:0:0:
64,192,40470,1,0,0:0:0:0:
64,192,40761,1,0,0:0:0:0:
192,192,40761,128,0,41052:0:0:0:0:
64,192,41052,1,0,0:0:0:0:
448,192,41052,128,0,41343:0:0:0:0:
192,192,41343,1,0,0:0:0:0:
320,192,41343,128,0,41635:0:0:0:0:
192,192,41635,1,0,0:0:0:0:
64,192,41635,128,0,41926:0:0:0:0:
192,192,41926,1,0,0:0:0:0:
320,192,41926,128,0,42217:0:0:0:0:
448,192,42217,1,0,0:0:0:0:
192,192,42217,128,0,43091:0:0:0:0:
448,192,42509,1,0,0:0:0:0:
448,192,42800,1,0,0:0:0:0:
448,192,43091,1,0,0:0:0:0:
320,192,43091,128,0,43382:0:0:0:0:
448,192,43382,1,0,0:0:0:0:
64,192,43382,128,0,43674:0:0:0:0:
192,192,43674,1,0,0:0:0:0:
320,192,43674,128,0,43965:0:0:0:0:
192,192,43965,1,0,0:0:0:0:
448,192,43965,128,0,44256:0:0:0:0:
192,192,44256,1,0,0:0:0:0:
64,192,44256,128,0,44547:0:0:0:0:
320,192,44547,1,0,0:0:0:0:
448,192,44547,128,0,45130:0:0:0:0:
320,192,44839,1,0,0:0:0:0:
320,192,45130,1,0,0:0:0:0:
192,192,45130,128,0,45421:0:0:0:0:
320,192,45421,1,0,0:0:0:0:
64,192,45421,128,0,45712:0:0:0:0:
320,192,45712,1,0,0:0:0:0:
448,192,45712,128,0,46004:0:0:0:0:
64,192,46004,1,0,0:0:0:0:
192,192,46004,128,0,46295:0:0:0:0:
64,192,46295,1,0,0:0:0:0:
320,192,46295,128,0,46586:0:0:0:0:
64,192,46586,1,0,0:0:0:0:
448,192,46586,128,0,47169:0:0:0:0:
64,192,46877,1,0,0:0:0:0:
192,192,46877,1,0,0:0:0:0:
64,192,47169,1,0,0:0:0:0:
320,192,47169,1,0,0:0:0:0:
192,192,47460,1,0,0:0:0:0:
320,192,47460,1,0,0:0:0:0:
64,192,47751,1,0,0:0:0:0:
448,192,47751,1,0,0:0:0:0:
320,192,47897,1,0,0:0:0:0:
192,192,48042,1,0,0:0:0:0:
448,192,48042,1,0,0:0:0:0:
64,192,48334,1,0,0:0:0:0:
320,192,48334,1,0,0:0:0:0:
192,192,48479,1,0,0:0:0:0:
320,192,48625,1,0,0:0:0:0:
448,192,48625,1,0,0:0:0:0:
64,192,48625,128,0,49208:0:0:0:0:
192,192,48916,1,0,0:0:0:0:
448,192,48916,1,0,0:0:0:0:
320,192,49208,1,0,0:0:0:0:
192,192,49208,1,0,0:0:0:0:
64,192,49499,1,0,0:0:0:0:
448,192,49499,1,0,0:0:0:0:
192,192,49790,1,0,0:0:0:0:
448,192,49790,1,0,0:0:0:0:
64,192,50081,1,0,0:0:0:0:
448,192,50081,1,0,0:0:0:0:
320,192,50227,1,0,0:0:0:0:
64,192,50373,1,0,0:0:0:0:
192,192,50373,1,0,0:0:0:0:
192,192,50664,1,0,0:0:0:0:
320,192,50664,128,0,51246:0:0:0:0:
64,192,50955,128,0,51246:0:0:0:0:
192,192,51246,128,0,51538:0:0:0:0:
448,192,51538,1,0,0:0:0:0:
320,192,51538,1,0,0:0:0:0:
64,192,51829,1,0,0:0:0:0:
320,192,51829,1,0,0:0:0:0:
192,192,52120,1,0,0:0:0:0:
64,192,52120,1,0,0:0:0:0:
192,192,52411,1,0,0:0:0:0:
448,192,52411,1,0,0:0:0:0:
320,192,52557,1,0,0:0:0:0:
192,192,52703,1,0,0:0:0:0:
64,192,52703,1,0,0:0:0:0:
448,192,52703,1,0,0:0:0:0:
64,192,52994,1,0,0:0:0:0:
320,192,52994,1,0,0:0:0:0:
192,192,53140,1,0,0:0:0:0:
320,192,53285,1,0,0:0:0:0:
64,192,53285,1,0,0:0:0:0:
448,192,53285,128,0,53868:0:0:0:0:
64,192,53576,1,0,0:0:0:0:
192,192,53576,1,0,0:0:0:0:
192,192,53868,1,0,0:0:0:0:
320,192,53868,1,0,0:0:0:0:
320,192,54159,1,0,0:0:0:0:
64,192,54159,128,0,54450:0:0:0:0:
192,192,54450,128,0,54742:0:0:0:0:
448,192,54450,1,0,0:0:0:0:
448,192,54742,128,0,55033:0:0:0:0:
320,192,54742,1,0,0:0:0:0:
64,192,55033,128,0,55324:0:0:0:0:
192,192,55033,1,0,0:0:0:0:
320,192,55324,128,0,55615:0:0:0:0:
192,192,55324,1,0,0:0:0:0:
192,192,55615,128,0,55907:0:0:0:0:
448,192,55615,1,0,0:0:0:0:
448,192,55907,128,0,56489:0:0:0:0:
64,192,55907,1,0,0:0:0:0:
192,192,56198,1,0,0:0:0:0:
320,192,56198,1,0,0:0:0:0:
64,192,56489,128,0,56780:0:0:0:0:
192,192,56489,1,0,0:0:0:0:
320,192,56780,1,0,0:0:0:0:
448,192,56780,1,0,0:0:0:0:
64,192,57072,1,0,0:0:0:0:
192,192,57072,1,0,0:0:0:0:
320,192,57217,1,0,0:0:0:0:
64,192,57363,1,0,0:0:0:0:
448,192,57363,1,0,0:0:0:0:
448,192,57654,1,0,0:0:0:0:
320,192,57654,1,0,0:0:0:0:
192,192,57800,1,0,0:0:0:0:
448,192,57945,128,0,59110:0:0:0:0:
64,192,57945,1,0,0:0:0:0:
320,192,58237,1,0,0:0:0:0:
192,192,58237,1,0,0:0:0:0:
64,192,58528,1,0,0:0:0:0:
320,192,58528,1,0,0:0:0:0:
192,192,58819,1,0,0:0:0:0:
64,192,58819,1,0,0:0:0:0:
192,192,59110,1,0,0:0:0:0:
320,192,59110,1,0,0:0:0:0:
64,192,59402,1,0,0:0:0:0:
320,192,59402,1,0,0:0:0:0:
192,192,59547,1,0,0:0:0:0:
320,192,59693,1,0,0:0:0:0:
448,192,59693,1,0,0:0:0:0:
64,192,59984,1,0,0:0:0:0:
320,192,59984,128,0,60275:0:0:0:0:
448,192,59984,1,0,0:0:0:0:
192,192,60275,128,0,60567:0:0:0:0:
64,192,60567,128,0,60858:0:0:0:0:
448,192,60858,1,0,0:0:0:0:
192,192,60858,1,0,0:0:0:0:
192,192,61149,1,0,0:0:0:0:
320,192,61149,1,0,0:0:0:0:
320,192,61441,1,0,0:0:0:0:
448,192,61441,1,0,0:0:0:0:
64,192,61732,1,0,0:0:0:0:
320,192,61732,1,0,0:0:0:0:
192,192,61877,1,0,0:0:0:0:
320,192,62023,1,0,0:0:0:0:
448,192,62023,1,0,0:0:0:0:
64,192,62314,1,0,0:0:0:0:
448,192,62314,1,0,0:0:0:0:
320,192,62460,1,0,0:0:0:0:
192,192,62606,1,0,0:0:0:0:
64,192,62606,128,0,63188:0:0:0:0:
320,192,62897,1,0,0:0:0:0:
448,192,62897,1,0,0:0:0:0:
192,192,63188,1,0,0:0:0:0:
448,192,63188,1,0,0:0:0:0:
320,192,63479,128,0,63771:0:0:0:0:
64,192,63479,1,0,0:0:0:0:
192,192,63479,1,0,0:0:0:0:
448,192,63771,128,0,64062:0:0:0:0:
192,192,63771,1,0,0:0:0:0:
64,192,64062,128,0,64353:0:0:0:0:
192,192,64062,1,0,0:0:0:0:
320,192,64062,1,0,0:0:0:0:
448,192,64353,1,0,0:0:0:0:
320,192,64353,1,0,0:0:0:0:
192,192,64499,1,0,0:0:0:0:
320,192,64572,1,0,0:0:0:0:
64,192,64644,1,0,0:0:0:0:
192,192,64644,1,0,0:0:0:0:
448,192,64644,1,0,0:0:0:0:
320,192,64790,1,0,0:0:0:0:
448,192,64790,1,0,0:0:0:0:
320,192,64936,1,0,0:0:0:0:
64,192,64936,1,0,0:0:0:0:
64,192,65081,1,0,0:0:0:0:
192,192,65081,1,0,0:0:0:0:
320,192,65227,1,0,0:0:0:0:
64,192,65373,1,0,0:0:0:0:
448,192,65373,1,0,0:0:0:0:
192,192,65518,1,0,0:0:0:0:
64,192,65518,1,0,0:0:0:0:
320,192,65518,128,0,65955:0:0:0:0:
448,192,65955,1,0,0:0:0:0:
192,192,66101,1,0,0:0:0:0:
64,192,66101,128,0,66319:0:0:0:0:
320,192,66101,128,0,66319:0:0:0:0:
192,192,66392,128,0,66610:0:0:0:0:
448,192,66392,128,0,66610:0:0:0:0:
320,192,66683,128,0,67120:0:0:0:0:
64,192,66683,128,0,67120:0:0:0:0:
448,192,66683,1,0,0:0:0:0:
64,192,67266,1,0,0:0:0:0:
448,192,67266,1,0,0:0:0:0:
192,192,67266,128,0,67484:0:0:0:0:
320,192,67266,128,0,67484:0:0:0:0:
64,192,67557,128,0,67775:0:0:0:0:
448,192,67557,128,0,67775:0:0:0:0:
320,192,67848,1,0,0:0:0:0:
192,192,67848,128,0,68285:0:0:0:0:
64,192,67848,128,0,68285:0:0:0:0:
64,192,68431,1,0,0:0:0:0:
448,192,68431,1,0,0:0:0:0:
192,192,68431,128,0,68649:0:0:0:0:
320,192,68431,1,0,0:0:0:0:
320,192,68722,128,0,68941:0:0:0:0:
448,192,68722,128,0,68941:0:0:0:0:
64,192,68722,1,0,0:0:0:0:
192,192,68722,1,0,0:0:0:0:
192,192,69013,128,0,69232:0:0:0:0:
320,192,69013,128,0,69232:0:0:0:0:
64,192,69305,128,0,69523:0:0:0:0:
448,192,69305,128,0,69523:0:0:0:0:
192,192,69596,128,0,69814:0:0:0:0:
320,192,69596,128,0,69814:0:0:0:0:
64,192,69596,1,0,0:0:0:0:
448,192,69596,1,0,0:0:0:0:
64,192,69887,128,0,70106:0:0:0:0:
320,192,69887,128,0,70106:0:0:0:0:
448,192,70178,128,0,70615:0:0:0:0:
320,192,70178,128,0,70615:0:0:0:0:
64,192,70178,1,0,0:0:0:0:
192,192,70178,1,0,0:0:0:0:
320,192,70761,1,0,0:0:0:0:
448,192,70761,128,0,70979:0:0:0:0:
192,192,70761,128,0,70979:0:0:0:0:
64,192,70761,1,0,0:0:0:0:
192,192,71052,128,0,71271:0:0:0:0:
320,192,71052,128,0,71271:0:0:0:0:
64,192,71052,1,0,0:0:0:0:
64,192,71343,128,0,71780:0:0:0:0:
448,192,71343,128,0,71780:0:0:0:0:
320,192,71343,1,0,0:0:0:0:
320,192,71926,128,0,72144:0:0:0:0:
192,192,71926,128,0,72144:0:0:0:0:
64,192,71926,1,0,0:0:0:0:
448,192,71926,1,0,0:0:0:0:
192,192,72217,128,0,72436:0:0:0:0:
448,192,72217,128,0,72436:0:0:0:0:
448,192,72509,128,0,72945:0:0:0:0:
64,192,72509,128,0,72945:0:0:0:0:
320,192,72509,1,0,0:0:0:0:
192,192,73091,128,0,73309:0:0:0:0:
320,192,73091,128,0,73309:0:0:0:0:
64,192,73091,1,0,0:0:0:0:
448,192,73091,1,0,0:0:0:0:
448,192,73382,128,0,73601:0:0:0:0:
64,192,73382,128,0,73601:0:0:0:0:
192,192,73382,1,0,0:0:0:0:
192,192,73674,1,0,0:0:0:0:
320,192,73674,1,0,0:0:0:0:
192,192,73819,1,0,0:0:0:0:
64,192,73892,1,0,0:0:0:0:
192,192,73965,1,0,0:0:0:0:
448,192,73965,1,0,0:0:0:0:
320,192,74110,1,0,0:0:0:0:
448,192,74110,1,0,0:0:0:0:
64,192,74256,1,0,0:0:0:0:
192,192,74256,1,0,0:0:0:0:
320,192,74256,1,0,0:0:0:0:
192,192,74402,1,0,0:0:0:0:
192,192,74547,1,0,0:0:0:0:
448,192,74547,1,0,0:0:0:0:
64,192,74693,1,0,0:0:0:0:
320,192,74839,128,0,75275:0:0:0:0:
448,192,74839,128,0,75275:0:0:0:0:
192,192,74839,1,0,0:0:0:0:
192,192,75421,1,0,0:0:0:0:
320,192,75421,1,0,0:0:0:0:
64,192,75421,128,0,75640:0:0:0:0:
448,192,75421,128,0,75640:0:0:0:0:
192,192,75712,128,0,75931:0:0:0:0:
320,192,75712,128,0,75931:0:0:0:0:
64,192,75712,1,0,0:0:0:0:
192,192,76004,128,0,76441:0:0:0:0:
320,192,76004,128,0,76441:0:0:0:0:
448,192,76004,1,0,0:0:0:0:
192,192,76586,128,0,76805:0:0:0:0:
448,192,76586,128,0,76805:0:0:0:0:
320,192,76586,1,0,0:0:0:0:
64,192,76586,1,0,0:0:0:0:
64,192,76877,128,0,77096:0:0:0:0:
320,192,76877,128,0,77096:0:0:0:0:
448,192,77169,128,0,77606:0:0:0:0:
192,192,77169,128,0,77606:0:0:0:0:
64,192,77169,1,0,0:0:0:0:
64,192,77751,128,0,77970:0:0:0:0:
448,192,77751,128,0,77970:0:0:0:0:
192,192,77751,1,0,0:0:0:0:
320,192,78042,128,0,78261:0:0:0:0:
448,192,78042,128,0,78261:0:0:0:0:
64,192,78042,1,0,0:0:0:0:
64,192,78334,128,0,78552:0:0:0:0:
320,192,78334,128,0,78552:0:0:0:0:
192,192,78625,128,0,78843:0:0:0:0:
64,192,78625,128,0,78843:0:0:0:0:
64,192,78916,128,0,79135:0:0:0:0:
448,192,78916,128,0,79135:0:0:0:0:
320,192,78916,1,0,0:0:0:0:
192,192,79208,128,0,79426:0:0:0:0:
448,192,79208,128,0,79426:0:0:0:0:
64,192,79499,128,0,79936:0:0:0:0:
320,192,79499,1,0,0:0:0:0:
192,192,79499,128,0,79936:0:0:0:0:
192,192,80081,1,0,0:0:0:0:
64,192,80081,128,0,80300:0:0:0:0:
320,192,80081,128,0,80300:0:0:0:0:
448,192,80081,1,0,0:0:0:0:
192,192,80373,128,0,80591:0:0:0:0:
64,192,80373,1,0,0:0:0:0:
448,192,80373,128,0,80591:0:0:0:0:
192,192,80664,128,0,81101:0:0:0:0:
320,192,80664,1,0,0:0:0:0:
64,192,80664,128,0,81101:0:0:0:0:
64,192,81246,1,0,0:0:0:0:
192,192,81246,128,0,81465:0:0:0:0:
320,192,81246,128,0,81465:0:0:0:0:
64,192,81538,128,0,81756:0:0:0:0:
320,192,81538,128,0,81756:0:0:0:0:
448,192,81829,128,0,82266:0:0:0:0:
192,192,81829,128,0,82266:0:0:0:0:
64,192,81829,1,0,0:0:0:0:
64,192,82411,128,0,82630:0:0:0:0:
448,192,82411,128,0,82630:0:0:0:0:
192,192,82411,1,0,0:0:0:0:
448,192,82703,128,0,82921:0:0:0:0:
64,192,82703,1,0,0:0:0:0:
64,192,82994,128,0,83212:0:0:0:0:
320,192,82994,128,0,83212:0:0:0:0:
448,192,82994,1,0,0:0:0:0:
192,192,83285,128,0,83504:0:0:0:0:
320,192,83285,1,0,0:0:0:0:
64,192,83576,128,0,83795:0:0:0:0:
448,192,83576,1,0,0:0:0:0:
192,192,83722,1,0,0:0:0:0:
448,192,83868,128,0,84086:0:0:0:0:
64,192,83868,1,0,0:0:0:0:
320,192,84013,1,0,0:0:0:0:
64,192,84159,128,0,84742:0:0:0:0:
192,192,84159,128,0,84742:0:0:0:0:
320,192,84450,1,0,0:0:0:0:
320,192,84742,1,0,0:0:0:0:
448,192,84742,1,0,0:0:0:0:
192,192,85033,1,0,0:0:0:0:
192,192,85324,1,0,0:0:0:0:
448,192,85324,1,0,0:0:0:0:
320,192,85615,1,0,0:0:0:0:
320,192,85907,1,0,0:0:0:0:
192,192,85907,1,0,0:0:0:0:
64,192,86198,1,0,0:0:0:0:
64,192,86489,1,0,0:0:0:0:
448,192,86489,1,0,0:0:0:0:
320,192,86489,128,0,87072:0:0:0:0:
192,192,86780,1,0,0:0:0:0:
192,192,87072,1,0,0:0:0:0:
64,192,87072,1,0,0:0:0:0:
448,192,87363,1,0,0:0:0:0:
64,192,87654,1,0,0:0:0:0:
448,192,87654,1,0,0:0:0:0:
192,192,87945,1,0,0:0:0:0:
320,192,87945,1,0,0:0:0:0:
192,192,88237,1,0,0:0:0:0:
448,192,88237,1,0,0:0:0:0:
320,192,88528,1,0,0:0:0:0:
64,192,88528,1,0,0:0:0:0:
320,192,88819,1,0,0:0:0:0:
64,192,88819,128,0,89402:0:0:0:0:
192,192,89110,1,0,0:0:0:0:
192,192,89402,1,0,0:0:0:0:
320,192,89402,1,0,0:0:0:0:
448,192,89693,1,0,0:0:0:0:
192,192,89693,1,0,0:0:0:0:
64,192,89984,1,0,0:0:0:0:
448,192,89984,1,0,0:0:0:0:
192,192,90275,1,0,0:0:0:0:
192,192,90567,1,0,0:0:0:0:
320,192,90567,1,0,0:0:0:0:
64,192,90858,1,0,0:0:0:0:
64,192,91149,1,0,0:0:0:0:
448,192,91149,128,0,91732:0:0:0:0:
320,192,91441,1,0,0:0:0:0:
320,192,91732,1,0,0:0:0:0:
64,192,91732,1,0,0:0:0:0:
192,192,92023,1,0,0:0:0:0:
192,192,92314,1,0,0:0:0:0:
448,192,92314,1,0,0:0:0:0:
64,192,92606,1,0,0:0:0:0:
64,192,92897,1,0,0:0:0:0:
448,192,92897,1,0,0:0:0:0:
192,192,93188,1,0,0:0:0:0:
448,192,93188,1,0,0:0:0:0:
64,192,93479,128,0,94062:0:0:0:0:
448,192,93479,1,0,0:0:0:0:
320,192,93479,1,0,0:0:0:0:
320,192,93771,1,0,0:0:0:0:
192,192,93916,1,0,0:0:0:0:
320,192,94062,1,0,0:0:0:0:
448,192,94062,1,0,0:0:0:0:
320,192,94353,1,0,0:0:0:0:
448,192,94353,1,0,0:0:0:0:
64,192,94644,1,0,0:0:0:0:
320,192,94644,1,0,0:0:0:0:
192,192,94936,1,0,0:0:0:0:
64,192,94936,1,0,0:0:0:0:
192,192,95227,1,0,0:0:0:0:
448,192,95227,1,0,0:0:0:0:
320,192,95518,1,0,0:0:0:0:
64,192,95809,1,0,0:0:0:0:
448,192,95809,1,0,0:0:0:0:
192,192,95809,128,0,96392:0:0:0:0:
320,192,96101,1,0,0:0:0:0:
448,192,96246,1,0,0:0:0:0:
320,192,96392,1,0,0:0:0:0:
64,192,96392,1,0,0:0:0:0:
448,192,96683,1,0,0:0:0:0:
64,192,96683,1,0,0:0:0:0:
192,192,96975,1,0,0:0:0:0:
320,192,96975,1,0,0:0:0:0:
192,192,97266,1,0,0:0:0:0:
320,192,97557,1,0,0:0:0:0:
448,192,97557,1,0,0:0:0:0:
64,192,97703,1,0,0:0:0:0:
448,192,97848,1,0,0:0:0:0:
64,192,98140,1,0,0:0:0:0:
448,192,98140,1,0,0:0:0:0:
320,192,98431,1,0,0:0:0:0:
64,192,98576,1,0,0:0:0:0:
448,192,98722,1,0,0:0:0:0:
320,192,98722,1,0,0:0:0:0:
192,192,99013,1,0,0:0:0:0:
320,192,99013,1,0,0:0:0:0:
64,192,99305,1,0,0:0:0:0:
448,192,99305,1,0,0:0:0:0:
192,192,99596,1,0,0:0:0:0:
448,192,99596,1,0,0:0:0:0:
64,192,99887,1,0,0:0:0:0:
320,192,99887,1,0,0:0:0:0:
192,192,100178,1,0,0:0:0:0:
320,192,100470,1,0,0:0:0:0:
448,192,100470,128,0,101052:0:0:0:0:
320,192,101052,128,0,101635:0:0:0:0:
64,192,101052,1,0,0:0:0:0:
192,192,101343,1,0,0:0:0:0:
448,192,101635,1,0,0:0:0:0:
64,192,101635,128,0,102217:0:0:0:0:
448,192,101926,1,0,0:0:0:0:
320,192,102217,1,0,0:0:0:0:
192,192,102217,1,0,0:0:0:0:
320,192,102509,1,0,0:0:0:0:
64,192,102800,1,0,0:0:0:0:
448,192,102800,128,0,103382:0:0:0:0:
192,192,103382,1,0,0:0:0:0:
64,192,103382,1,0,0:0:0:0:
192,192,103674,1,0,0:0:0:0:
64,192,103965,1,0,0:0:0:0:
192,192,103965,1,0,0:0:0:0:
64,192,104256,1,0,0:0:0:0:
448,192,104256,1,0,0:0:0:0:
448,192,104547,1,0,0:0:0:0:
192,192,104547,1,0,0:0:0:0:
192,192,104839,1,0,0:0:0:0:
320,192,104839,1,0,0:0:0:0:
64,192,105130,1,0,0:0:0:0:
320,192,105130,1,0,0:0:0:0:
192,192,105130,128,0,105712:0:0:0:0:
320,192,105421,1,0,0:0:0:0:
448,192,105712,1,0,0:0:0:0:
64,192,105712,1,0,0:0:0:0:
320,192,105858,1,0,0:0:0:0:
64,192,106004,1,0,0:0:0:0:
448,192,106004,1,0,0:0:0:0:
192,192,106149,1,0,0:0:0:0:
320,192,106295,1,0,0:0:0:0:
448,192,106295,1,0,0:0:0:0:
64,192,106586,1,0,0:0:0:0:
448,192,106586,1,0,0:0:0:0:
64,192,106877,1,0,0:0:0:0:
192,192,106877,1,0,0:0:0:0:
320,192,107169,1,0,0:0:0:0:
320,192,107460,1,0,0:0:0:0:
448,192,107460,1,0,0:0:0:0:
192,192,107751,1,0,0:0:0:0:
192,192,108042,1,0,0:0:0:0:
64,192,108042,1,0,0:0:0:0:
192,192,108334,1,0,0:0:0:0:
320,192,108334,1,0,0:0:0:0:
64,192,108625,1,0,0:0:0:0:
320,192,108625,1,0,0:0:0:0:
320,192,108916,1,0,0:0:0:0:
448,192,108916,1,0,0:0:0:0:
64,192,109208,1,0,0:0:0:0:
448,192,109208,1,0,0:0:0:0:
64,192,109499,1,0,0:0:0:0:
192,192,109790,1,0,0:0:0:0:
448,192,109790,128,0,110373:0:0:0:0:
320,192,109790,1,0,0:0:0:0:
64,192,110081,1,0,0:0:0:0:
64,192,110373,1,0,0:0:0:0:
192,192,110373,1,0,0:0:0:0:
320,192,110664,128,0,110955:0:0:0:0:
448,192,110664,1,0,0:0:0:0:
64,192,110955,128,0,111246:0:0:0:0:
448,192,110955,1,0,0:0:0:0:
320,192,111101,1,0,0:0:0:0:
192,192,111246,128,0,111538:0:0:0:0:
448,192,111246,1,0,0:0:0:0:
320,192,111392,1,0,0:0:0:0:
448,192,111538,128,0,111829:0:0:0:0:
64,192,111538,1,0,0:0:0:0:
320,192,111683,1,0,0:0:0:0:
64,192,111829,128,0,112120:0:0:0:0:
192,192,111829,1,0,0:0:0:0:
320,192,111975,1,0,0:0:0:0:
448,192,112120,1,0,0:0:0:0:
192,192,112120,1,0,0:0:0:0:
320,192,112411,1,0,0:0:0:0:
192,192,112557,1,0,0:0:0:0:
320,192,112703,1,0,0:0:0:0:
448,192,112703,1,0,0:0:0:0:
64,192,112848,1,0,0:0:0:0:
192,192,112994,1,0,0:0:0:0:
320,192,112994,1,0,0:0:0:0:
448,192,113140,1,0,0:0:0:0:
64,192,113285,1,0,0:0:0:0:
192,192,113285,1,0,0:0:0:0:
192,192,113576,1,0,0:0:0:0:
448,192,113576,1,0,0:0:0:0:
320,192,113868,1,0,0:0:0:0:
448,192,113868,1,0,0:0:0:0:
64,192,114159,1,0,0:0:0:0:
64,192,114450,1,0,0:0:0:0:
320,192,114450,1,0,0:0:0:0:
192,192,114742,1,0,0:0:0:0:
448,192,114742,1,0,0:0:0:0:
320,192,115033,1,0,0:0:0:0:
448,192,115033,1,0,0:0:0:0:
64,192,115324,1,0,0:0:0:0:
64,192,115615,1,0,0:0:0:0:
448,192,115615,1,0,0:0:0:0:
320,192,115907,1,0,0:0:0:0:
320,192,116198,1,0,0:0:0:0:
64,192,116198,1,0,0:0:0:0:
192,192,116489,1,0,0:0:0:0:
192,192,116780,1,0,0:0:0:0:
448,192,116780,1,0,0:0:0:0:
64,192,117072,1,0,0:0:0:0:
448,192,117217,1,0,0:0:0:0:
192,192,117363,1,0,0:0:0:0:
64,192,117363,1,0,0:0:0:0:
192,192,117654,1,0,0:0:0:0:
448,192,117654,1,0,0:0:0:0:
320,192,117945,1,0,0:0:0:0:
448,192,117945,1,0,0:0:0:0:
64,192,118237,1,0,0:0:0:0:
448,192,118237,1,0,0:0:0:0:
192,192,118528,1,0,0:0:0:0:
448,192,118528,1,0,0:0:0:0:
64,192,118819,1,0,0:0:0:0:
448,192,118819,1,0,0:0:0:0:
64,192,119110,1,0,0:0:0:0:
192,192,119110,128,0,119693:0:0:0:0:
320,192,119110,1,0,0:0:0:0:
64,192,119693,1,0,0:0:0:0:
448,192,119693,128,0,119984:0:0:0:0:
320,192,119984,128,0,120275:0:0:0:0:
64,192,119984,128,0,120275:0:0:0:0:
192,192,119984,1,0,0:0:0:0:
448,192,120275,1,0,0:0:0:0:
192,192,120275,1,0,0:0:0:0:
64,192,120421,1,0,0:0:0:0:
320,192,120567,1,0,0:0:0:0:
448,192,120567,1,0,0:0:0:0:
192,192,120567,1,0,0:0:0:0:
320,192,120712,1,0,0:0:0:0:
64,192,120858,1,0,0:0:0:0:
448,192,120858,1,0,0:0:0:0:
192,192,121004,1,0,0:0:0:0:
192,192,121149,1,0,0:0:0:0:
320,192,121295,1,0,0:0:0:0:
320,192,121441,1,0,0:0:0:0:
448,192,121441,1,0,0:0:0:0:
192,192,121441,128,0,121877:0:0:0:0:
64,192,121441,1,0,0:0:0:0:
64,192,121877,1,0,0:0:0:0:
320,192,122023,1,0,0:0:0:0:
448,192,122023,128,0,122242:0:0:0:0:
192,192,122023,128,0,122242:0:0:0:0:
320,192,122314,128,0,122533:0:0:0:0:
64,192,122314,128,0,122533:0:0:0:0:
192,192,122606,128,0,123042:0:0:0:0:
448,192,122606,128,0,123042:0:0:0:0:
64,192,122606,1,0,0:0:0:0:
448,192,123188,1,0,0:0:0:0:
64,192,123188,1,0,0:0:0:0:
320,192,123188,128,0,123407:0:0:0:0:
192,192,123188,128,0,123407:0:0:0:0:
448,192,123479,128,0,123698:0:0:0:0:
64,192,123479,128,0,123698:0:0:0:0:
192,192,123771,1,0,0:0:0:0:
320,192,123771,128,0,124208:0:0:0:0:
448,192,123771,128,0,124208:0:0:0:0:
448,192,124353,1,0,0:0:0:0:
64,192,124353,1,0,0:0:0:0:
320,192,124353,128,0,124572:0:0:0:0:
192,192,124353,1,0,0:0:0:0:
192,192,124644,128,0,124863:0:0:0:0:
64,192,124644,128,0,124863:0:0:0:0:
448,192,124644,1,0,0:0:0:0:
320,192,124644,1,0,0:0:0:0:
320,192,124936,128,0,125154:0:0:0:0:
192,192,124936,128,0,125154:0:0:0:0:
448,192,125227,128,0,125445:0:0:0:0:
64,192,125227,128,0,125445:0:0:0:0:
320,192,125518,128,0,125737:0:0:0:0:
192,192,125518,128,0,125737:0:0:0:0:
448,192,125518,1,0,0:0:0:0:
64,192,125518,1,0,0:0:0:0:
448,192,125809,128,0,126028:0:0:0:0:
192,192,125809,128,0,126028:0:0:0:0:
64,192,126101,128,0,126538:0:0:0:0:
192,192,126101,128,0,126538:0:0:0:0:
448,192,126101,1,0,0:0:0:0:
320,192,126101,1,0,0:0:0:0:
192,192,126683,1,0,0:0:0:0:
64,192,126683,128,0,126902:0:0:0:0:
320,192,126683,128,0,126902:0:0:0:0:
448,192,126683,1,0,0:0:0:0:
320,192,126975,128,0,127193:0:0:0:0:
192,192,126975,128,0,127193:0:0:0:0:
448,192,126975,1,0,0:0:0:0:
448,192,127266,128,0,127703:0:0:0:0:
64,192,127266,128,0,127703:0:0:0:0:
192,192,127266,1,0,0:0:0:0:
192,192,127848,128,0,128067:0:0:0:0:
320,192,127848,128,0,128067:0:0:0:0:
448,192,127848,1,0,0:0:0:0:
64,192,127848,1,0,0:0:0:0:
320,192,128140,128,0,128358:0:0:0:0:
64,192,128140,128,0,128358:0:0:0:0:
64,192,128431,128,0,128868:0:0:0:0:
448,192,128431,128,0,128868:0:0:0:0:
192,192,128431,1,0,0:0:0:0:
320,192,129013,128,0,129232:0:0:0:0:
192,192,129013,128,0,129232:0:0:0:0:
448,192,129013,1,0,0:0:0:0:
64,192,129013,1,0,0:0:0:0:
64,192,129305,128,0,129523:0:0:0:0:
448,192,129305,128,0,129523:0:0:0:0:
320,192,129305,1,0,0:0:0:0:
320,192,129596,1,0,0:0:0:0:
192,192,129596,1,0,0:0:0:0:
320,192,129742,1,0,0:0:0:0:
192,192,129814,1,0,0:0:0:0:
64,192,129887,1,0,0:0:0:0:
448,192,129887,1,0,0:0:0:0:
192,192,130033,1,0,0:0:0:0:
64,192,130033,1,0,0:0:0:0:
448,192,130178,1,0,0:0:0:0:
320,192,130178,1,0,0:0:0:0:
192,192,130178,1,0,0:0:0:0:
320,192,130324,1,0,0:0:0:0:
320,192,130470,1,0,0:0:0:0:
64,192,130470,1,0,0:0:0:0:
448,192,130615,1,0,0:0:0:0:
192,192,130761,128,0,131198:0:0:0:0:
64,192,130761,128,0,131198:0:0:0:0:
320,192,130761,1,0,0:0:0:0:
320,192,131343,1,0,0:0:0:0:
192,192,131343,1,0,0:0:0:0:
448,192,131343,128,0,131562:0:0:0:0:
64,192,131343,128,0,131562:0:0:0:0:
320,192,131635,128,0,131853:0:0:0:0:
192,192,131635,128,0,131853:0:0:0:0:
448,192,131635,1,0,0:0:0:0:
320,192,131926,128,0,132363:0:0:0:0:
192,192,131926,128,0,132363:0:0:0:0:
64,192,131926,1,0,0:0:0:0:
320,192,132509,128,0,132727:0:0:0:0:
64,192,132509,128,0,132727:0:0:0:0:
192,192,132509,1,0,0:0:0:0:
448,192,132509,1,0,0:0:0:0:
448,192,132800,128,0,133018:0:0:0:0:
192,192,132800,128,0,133018:0:0:0:0:
64,192,133091,128,0,133528:0:0:0:0:
320,192,133091,128,0,133528:0:0:0:0:
448,192,133091,1,0,0:0:0:0:
448,192,133674,128,0,133892:0:0:0:0:
64,192,133674,128,0,133892:0:0:0:0:
320,192,133674,1,0,0:0:0:0:
192,192,133965,128,0,134183:0:0:0:0:
64,192,133965,128,0,134183:0:0:0:0:
448,192,133965,1,0,0:0:0:0:
448,192,134256,128,0,134475:0:0:0:0:
192,192,134256,128,0,134475:0:0:0:0:
320,192,134547,128,0,134766:0:0:0:0:
448,192,134547,128,0,134766:0:0:0:0:
448,192,134839,128,0,135057:0:0:0:0:
64,192,134839,128,0,135057:0:0:0:0:
192,192,134839,1,0,0:0:0:0:
320,192,135130,128,0,135348:0:0:0:0:
64,192,135130,128,0,135348:0:0:0:0:
448,192,135421,128,0,135858:0:0:0:0:
192,192,135421,1,0,0:0:0:0:
320,192,135421,128,0,135858:0:0:0:0:
320,192,136004,1,0,0:0:0:0:
448,192,136004,128,0,136222:0:0:0:0:
192,192,136004,128,0,136222:0:0:0:0:
64,192,136004,1,0,0:0:0:0:
320,192,136295,128,0,136513:0:0:0:0:
448,192,136295,1,0,0:0:0:0:
64,192,136295,128,0,136513:0:0:0:0:
320,192,136586,128,0,137023:0:0:0:0:
192,192,136586,1,0,0:0:0:0:
448,192,136586,128,0,137023:0:0:0:0:
448,192,137169,1,0,0:0:0:0:
320,192,137169,128,0,137387:0:0:0:0:
192,192,137169,128,0,137387:0:0:0:0:
64,192,137169,1,0,0:0:0:0:
448,192,137460,128,0,137678:0:0:0:0:
192,192,137460,128,0,137678:0:0:0:0:
64,192,137751,128,0,138188:0:0:0:0:
320,192,137751,128,0,138188:0:0:0:0:
448,192,137751,1,0,0:0:0:0:
448,192,138334,128,0,138552:0:0:0:0:
64,192,138334,128,0,138552:0:0:0:0:
320,192,138334,1,0,0:0:0:0:
64,192,138625,128,0,138843:0:0:0:0:
448,192,138625,1,0,0:0:0:0:
320,192,138625,128,0,138843:0:0:0:0:
448,192,138916,128,0,139135:0:0:0:0:
192,192,138916,128,0,139135:0:0:0:0:
64,192,138916,1,0,0:0:0:0:
320,192,139062,1,0,0:0:0:0:
320,192,139208,128,0,139426:0:0:0:0:
64,192,139208,1,0,0:0:0:0:
192,192,139353,1,0,0:0:0:0:
64,192,139499,1,0,0:0:0:0:
448,192,139499,128,0,139644:0:0:0:0:
320,192,139644,128,0,139790:0:0:0:0:
192,192,139790,128,0,139936:0:0:0:0:
64,192,139790,128,0,139936:0:0:0:0:
320,192,139936,128,0,140081:0:0:0:0:
448,192,140081,128,0,141538:0:0:0:0:
64,192,140955,1,0,0:0:0:0:
320,192,141246,1,0,0:0:0:0:
64,192,141538,128,0,143868:0:0:0:0:
320,192,141829,1,0,0:0:0:0:
448,192,142120,1,0,0:0:0:0:
192,192,142411,1,0,0:0:0:0:
448,192,143285,1,0,0:0:0:0:
448,192,143576,1,0,0:0:0:0:
192,192,143868,128,0,144742:0:0:0:0:
320,192,144159,1,0,0:0:0:0:
448,192,144450,1,0,0:0:0:0:
320,192,144742,128,0,146198:0:0:0:0:
64,192,145033,1,0,0:0:0:0:
192,192,145324,1,0,0:0:0:0:
64,192,145615,1,0,0:0:0:0:
448,192,145907,1,0,0:0:0:0:
64,192,146198,128,0,147072:0:0:0:0:
448,192,146489,1,0,0:0:0:0:
192,192,146780,1,0,0:0:0:0:
448,192,147072,128,0,148528:0:0:0:0:
320,192,147072,1,0,0:0:0:0:
64,192,147363,1,0,0:0:0:0:
192,192,147654,1,0,0:0:0:0:
320,192,147945,1,0,0:0:0:0:
320,192,148237,1,0,0:0:0:0:
64,192,148528,128,0,149402:0:0:0:0:
320,192,148819,1,0,0:0:0:0:
448,192,149110,1,0,0:0:0:0:
192,192,149402,128,0,150858:0:0:0:0:
320,192,149402,1,0,0:0:0:0:
320,192,150275,1,0,0:0:0:0:
64,192,150567,1,0,0:0:0:0:
320,192,150858,128,0,151732:0:0:0:0:
64,192,151149,1,0,0:0:0:0:
192,192,151441,1,0,0:0:0:0:
448,192,151732,128,0,153188:0:0:0:0:
64,192,151732,1,0,0:0:0:0:
320,192,152606,1,0,0:0:0:0:
320,192,152897,1,0,0:0:0:0:
64,192,153188,128,0,154062:0:0:0:0:
192,192,153188,1,0,0:0:0:0:
448,192,153479,1,0,0:0:0:0:
192,192,153771,1,0,0:0:0:0:
320,192,154062,128,0,155518:0:0:0:0:
448,192,154062,1,0,0:0:0:0:
64,192,154353,1,0,0:0:0:0:
192,192,154644,1,0,0:0:0:0:
448,192,154936,1,0,0:0:0:0:
64,192,155227,1,0,0:0:0:0:
192,192,155518,128,0,156392:0:0:0:0:
64,192,156101,1,0,0:0:0:0:
448,192,156392,128,0,158722:0:0:0:0:
320,192,156392,1,0,0:0:0:0:
64,192,156392,128,0,158722:0:0:0:0:
192,192,158722,1,0,0:0:0:0:
320,192,158722,1,0,0:0:0:0:
64,192,159305,1,0,0:0:0:0:
320,192,159305,1,0,0:0:0:0:
192,192,159596,128,0,159887:0:0:0:0:
320,192,159887,1,0,0:0:0:0:
448,192,159887,1,0,0:0:0:0:
320,192,160178,128,0,160470:0:0:0:0:
64,192,160470,1,0,0:0:0:0:
448,192,160470,1,0,0:0:0:0:
192,192,160761,128,0,161052:0:0:0:0:
64,192,161052,1,0,0:0:0:0:
320,192,161052,1,0,0:0:0:0:
192,192,161635,1,0,0:0:0:0:
64,192,161635,1,0,0:0:0:0:
320,192,161926,128,0,162217:0:0:0:0:
192,192,162217,1,0,0:0:0:0:
448,192,162217,1,0,0:0:0:0:
64,192,162509,128,0,162800:0:0:0:0:
448,192,162800,1,0,0:0:0:0:
192,192,162800,1,0,0:0:0:0:
320,192,163091,128,0,163382:0:0:0:0:
64,192,163382,1,0,0:0:0:0:
192,192,163382,1,0,0:0:0:0:
448,192,163674,128,0,163965:0:0:0:0:
320,192,163965,1,0,0:0:0:0:
192,192,163965,1,0,0:0:0:0:
64,192,164256,128,0,164547:0:0:0:0:
192,192,164547,1,0,0:0:0:0:
320,192,164547,1,0,0:0:0:0:
448,192,164839,128,0,165130:0:0:0:0:
64,192,165130,1,0,0:0:0:0:
320,192,165130,1,0,0:0:0:0:
64,192,165421,128,0,165712:0:0:0:0:
192,192,165712,1,0,0:0:0:0:
448,192,165712,1,0,0:0:0:0:
320,192,166295,1,0,0:0:0:0:
448,192,166295,1,0,0:0:0:0:
64,192,166586,128,0,166877:0:0:0:0:
192,192,166877,1,0,0:0:0:0:
320,192,166877,1,0,0:0:0:0:
448,192,167169,128,0,167460:0:0:0:0:
64,192,167460,1,0,0:0:0:0:
320,192,167460,1,0,0:0:0:0:
192,192,167751,128,0,168042:0:0:0:0:
64,192,168042,1,0,0:0:0:0:
448,192,168042,1,0,0:0:0:0:
64,192,168479,1,0,0:0:0:0:
192,192,168479,1,0,0:0:0:0:
320,192,168625,1,0,0:0:0:0:
448,192,168625,1,0,0:0:0:0:
192,192,168916,128,0,169208:0:0:0:0:
64,192,169208,1,0,0:0:0:0:
448,192,169208,1,0,0:0:0:0:
320,192,169499,128,0,169790:0:0:0:0:
64,192,169790,1,0,0:0:0:0:
448,192,169790,1,0,0:0:0:0:
192,192,170373,1,0,0:0:0:0:
64,192,170373,1,0,0:0:0:0:
192,192,170955,1,0,0:0:0:0:
448,192,170955,1,0,0:0:0:0:
64,192,171246,128,0,171538:0:0:0:0:
320,192,171538,1,0,0:0:0:0:
448,192,171538,1,0,0:0:0:0:
192,192,171829,128,0,172120:0:0:0:0:
64,192,172120,1,0,0:0:0:0:
448,192,172120,1,0,0:0:0:0:
320,192,172411,128,0,172703:0:0:0:0:
64,192,172703,1,0,0:0:0:0:
192,192,172703,1,0,0:0:0:0:
192,192,173285,1,0,0:0:0:0:
448,192,173285,1,0,0:0:0:0:
320,192,173576,128,0,173868:0:0:0:0:
64,192,173868,1,0,0:0:0:0:
448,192,173868,1,0,0:0:0:0:
192,192,174159,128,0,174450:0:0:0:0:
64,192,174450,1,0,0:0:0:0:
448,192,174450,1,0,0:0:0:0:
320,192,174742,128,0,175033:0:0:0:0:
192,192,175033,1,0,0:0:0:0:
64,192,175033,1,0,0:0:0:0:
320,192,175470,1,0,0:0:0:0:
448,192,175470,1,0,0:0:0:0:
192,192,175615,1,0,0:0:0:0:
64,192,175615,128,0,175907:0:0:0:0:
448,192,175907,128,0,176198:0:0:0:0:
64,192,176198,1,0,0:0:0:0:
192,192,176198,1,0,0:0:0:0:
192,192,176343,1,0,0:0:0:0:
320,192,176489,1,0,0:0:0:0:
448,192,176489,1,0,0:0:0:0:
320,192,176635,1,0,0:0:0:0:
64,192,176780,1,0,0:0:0:0:
192,192,176780,1,0,0:0:0:0:
448,192,176926,1,0,0:0:0:0:
192,192,177072,1,0,0:0:0:0:
320,192,177072,1,0,0:0:0:0:
64,192,177217,1,0,0:0:0:0:
448,192,177363,1,0,0:0:0:0:
192,192,177363,1,0,0:0:0:0:
448,192,177654,1,0,0:0:0:0:
448,192,177945,1,0,0:0:0:0:
448,192,178237,1,0,0:0:0:0:
448,192,178528,1,0,0:0:0:0:
320,192,178819,1,0,0:0:0:0:
320,192,179110,1,0,0:0:0:0:
320,192,179402,1,0,0:0:0:0:
192,192,179693,1,0,0:0:0:0:
192,192,179984,1,0,0:0:0:0:
192,192,180275,1,0,0:0:0:0:
192,192,180567,1,0,0:0:0:0:
192,192,180858,1,0,0:0:0:0:
192,192,181149,1,0,0:0:0:0:
320,192,181441,1,0,0:0:0:0:
192,192,181732,1,0,0:0:0:0:
64,192,182023,1,0,0:0:0:0:
64,192,182314,1,0,0:0:0:0:
64,192,182606,1,0,0:0:0:0:
64,192,182897,1,0,0:0:0:0:
64,192,183188,1,0,0:0:0:0:
192,192,183479,1,0,0:0:0:0:
192,192,183771,1,0,0:0:0:0:
192,192,184062,1,0,0:0:0:0:
192,192,184353,1,0,0:0:0:0:
320,192,184644,1,0,0:0:0:0:
320,192,184936,1,0,0:0:0:0:
192,192,185227,1,0,0:0:0:0:
192,192,185518,1,0,0:0:0:0:
320,192,185809,1,0,0:0:0:0:
320,192,186101,1,0,0:0:0:0:
320,192,186392,1,0,0:0:0:0:
448,192,186683,1,0,0:0:0:0:
64,192,186683,1,0,0:0:0:0:
448,192,186975,1,0,0:0:0:0:
64,192,186975,1,0,0:0:0:0:
448,192,187266,1,0,0:0:0:0:
64,192,187266,1,0,0:0:0:0:
448,192,187557,1,0,0:0:0:0:
64,192,187557,1,0,0:0:0:0:
448,192,187848,1,0,0:0:0:0:
64,192,187848,1,0,0:0:0:0:
320,192,188140,1,0,0:0:0:0:
64,192,188140,1,0,0:0:0:0:
320,192,188431,1,0,0:0:0:0:
64,192,188431,1,0,0:0:0:0:
320,192,188722,1,0,0:0:0:0:
64,192,188722,1,0,0:0:0:0:
320,192,189013,1,0,0:0:0:0:
64,192,189013,1,0,0:0:0:0:
192,192,189305,1,0,0:0:0:0:
448,192,189305,1,0,0:0:0:0:
192,192,189596,1,0,0:0:0:0:
448,192,189596,1,0,0:0:0:0:
192,192,189887,1,0,0:0:0:0:
448,192,189887,1,0,0:0:0:0:
192,192,190178,1,0,0:0:0:0:
448,192,190178,1,0,0:0:0:0:
192,192,190470,1,0,0:0:0:0:
448,192,190470,1,0,0:0:0:0:
320,192,190761,1,0,0:0:0:0:
64,192,190761,1,0,0:0:0:0:
192,192,191052,1,0,0:0:0:0:
448,192,191052,1,0,0:0:0:0:
64,192,191343,1,0,0:0:0:0:
448,192,191343,1,0,0:0:0:0:
192,192,191343,1,0,0:0:0:0:
64,192,191635,1,0,0:0:0:0:
448,192,191635,1,0,0:0:0:0:
320,192,191635,1,0,0:0:0:0:
64,192,191926,1,0,0:0:0:0:
448,192,191926,1,0,0:0:0:0:
192,192,191926,1,0,0:0:0:0:
64,192,192217,1,0,0:0:0:0:
448,192,192217,1,0,0:0:0:0:
320,192,192217,1,0,0:0:0:0:
64,192,192509,1,0,0:0:0:0:
448,192,192509,1,0,0:0:0:0:
192,192,192509,1,0,0:0:0:0:
192,192,192800,1,0,0:0:0:0:
448,192,192800,1,0,0:0:0:0:
320,192,192800,1,0,0:0:0:0:
192,192,193091,1,0,0:0:0:0:
448,192,193091,1,0,0:0:0:0:
64,192,193091,1,0,0:0:0:0:
192,192,193382,1,0,0:0:0:0:
448,192,193382,1,0,0:0:0:0:
320,192,193382,1,0,0:0:0:0:
192,192,193674,1,0,0:0:0:0:
448,192,193674,1,0,0:0:0:0:
64,192,193674,1,0,0:0:0:0:
64,192,193965,1,0,0:0:0:0:
192,192,193965,128,0,194256:0:0:0:0:
320,192,193965,1,0,0:0:0:0:
320,192,194256,1,0,0:0:0:0:
64,192,194256,1,0,0:0:0:0:
448,192,194256,128,0,194547:0:0:0:0:
192,192,194547,1,0,0:0:0:0:
64,192,194547,128,0,194839:0:0:0:0:
192,192,194839,1,0,0:0:0:0:
448,192,194839,1,0,0:0:0:0:
448,192,194984,1,0,0:0:0:0:
320,192,195057,1,0,0:0:0:0:
64,192,195130,1,0,0:0:0:0:
448,192,195130,1,0,0:0:0:0:
192,192,195275,1,0,0:0:0:0:
448,192,195275,1,0,0:0:0:0:
64,192,195421,1,0,0:0:0:0:
192,192,195421,1,0,0:0:0:0:
320,192,195567,1,0,0:0:0:0:
64,192,195567,1,0,0:0:0:0:
320,192,195712,1,0,0:0:0:0:
448,192,195712,1,0,0:0:0:0:
64,192,195858,1,0,0:0:0:0:
448,192,195858,1,0,0:0:0:0:
192,192,196004,1,0,0:0:0:0:
320,192,196004,128,0,196441:0:0:0:0:
64,192,196004,128,0,196441:0:0:0:0:
448,192,196441,1,0,0:0:0:0:
192,192,196586,1,0,0:0:0:0:
64,192,196586,128,0,196805:0:0:0:0:
320,192,196586,128,0,196805:0:0:0:0:
192,192,196877,128,0,197096:0:0:0:0:
448,192,196877,128,0,197096:0:0:0:0:
320,192,197169,128,0,197460:0:0:0:0:
64,192,197169,128,0,197460:0:0:0:0:
448,192,197169,1,0,0:0:0:0:
192,192,197460,1,0,0:0:0:0:
448,192,197460,1,0,0:0:0:0:
320,192,197606,1,0,0:0:0:0:
64,192,197751,1,0,0:0:0:0:
448,192,197751,1,0,0:0:0:0:
192,192,197751,128,0,197970:0:0:0:0:
320,192,197751,128,0,197970:0:0:0:0:
64,192,198042,128,0,198261:0:0:0:0:
448,192,198042,128,0,198261:0:0:0:0:
320,192,198334,1,0,0:0:0:0:
192,192,198334,128,0,198625:0:0:0:0:
64,192,198334,128,0,198625:0:0:0:0:
448,192,198625,1,0,0:0:0:0:
320,192,198771,1,0,0:0:0:0:
64,192,198916,1,0,0:0:0:0:
448,192,198916,1,0,0:0:0:0:
192,192,198916,128,0,199135:0:0:0:0:
320,192,198916,1,0,0:0:0:0:
320,192,199208,128,0,199426:0:0:0:0:
448,192,199208,128,0,199426:0:0:0:0:
64,192,199208,1,0,0:0:0:0:
192,192,199208,1,0,0:0:0:0:
192,192,199499,128,0,199717:0:0:0:0:
320,192,199499,128,0,199717:0:0:0:0:
64,192,199790,128,0,200009:0:0:0:0:
448,192,199790,128,0,200009:0:0:0:0:
192,192,200081,128,0,200300:0:0:0:0:
320,192,200081,128,0,200300:0:0:0:0:
64,192,200081,1,0,0:0:0:0:
448,192,200081,1,0,0:0:0:0:
64,192,200373,128,0,200591:0:0:0:0:
320,192,200373,128,0,200591:0:0:0:0:
448,192,200664,128,0,200955:0:0:0:0:
320,192,200664,128,0,200955:0:0:0:0:
64,192,200664,1,0,0:0:0:0:
192,192,200664,1,0,0:0:0:0:
192,192,200955,1,0,0:0:0:0:
192,192,201101,1,0,0:0:0:0:
320,192,201246,1,0,0:0:0:0:
448,192,201246,128,0,201465:0:0:0:0:
192,192,201246,128,0,201465:0:0:0:0:
64,192,201246,1,0,0:0:0:0:
192,192,201538,128,0,201756:0:0:0:0:
320,192,201538,128,0,201756:0:0:0:0:
64,192,201538,1,0,0:0:0:0:
64,192,201829,128,0,202047:0:0:0:0:
448,192,201829,128,0,202047:0:0:0:0:
320,192,201829,1,0,0:0:0:0:
320,192,202120,1,0,0:0:0:0:
192,192,202120,1,0,0:0:0:0:
192,192,202266,1,0,0:0:0:0:
320,192,202411,128,0,202630:0:0:0:0:
192,192,202411,128,0,202630:0:0:0:0:
64,192,202411,1,0,0:0:0:0:
448,192,202411,1,0,0:0:0:0:
192,192,202703,128,0,202921:0:0:0:0:
448,192,202703,128,0,202921:0:0:0:0:
448,192,202994,128,0,203285:0:0:0:0:
64,192,202994,128,0,203285:0:0:0:0:
320,192,202994,1,0,0:0:0:0:
320,192,203285,1,0,0:0:0:0:
192,192,203431,1,0,0:0:0:0:
192,192,203576,128,0,203795:0:0:0:0:
320,192,203576,128,0,203795:0:0:0:0:
64,192,203576,1,0,0:0:0:0:
448,192,203576,1,0,0:0:0:0:
448,192,203868,128,0,204086:0:0:0:0:
64,192,203868,128,0,204086:0:0:0:0:
192,192,203868,1,0,0:0:0:0:
192,192,204159,1,0,0:0:0:0:
320,192,204159,1,0,0:0:0:0:
448,192,204159,1,0,0:0:0:0:
192,192,204305,1,0,0:0:0:0:
320,192,204305,1,0,0:0:0:0:
64,192,204377,1,0,0:0:0:0:
192,192,204450,1,0,0:0:0:0:
448,192,204450,1,0,0:0:0:0:
320,192,204596,1,0,0:0:0:0:
448,192,204596,1,0,0:0:0:0:
64,192,204742,1,0,0:0:0:0:
192,192,204742,1,0,0:0:0:0:
320,192,204742,1,0,0:0:0:0:
320,192,204887,1,0,0:0:0:0:
64,192,204887,1,0,0:0:0:0:
192,192,205033,1,0,0:0:0:0:
448,192,205033,1,0,0:0:0:0:
64,192,205178,1,0,0:0:0:0:
320,192,205324,128,0,205761:0:0:0:0:
448,192,205324,128,0,205761:0:0:0:0:
192,192,205324,1,0,0:0:0:0:
192,192,205907,1,0,0:0:0:0:
320,192,205907,1,0,0:0:0:0:
64,192,205907,128,0,206125:0:0:0:0:
448,192,205907,128,0,206125:0:0:0:0:
192,192,206198,128,0,206416:0:0:0:0:
320,192,206198,128,0,206416:0:0:0:0:
64,192,206198,1,0,0:0:0:0:
192,192,206489,128,0,206780:0:0:0:0:
320,192,206489,128,0,206780:0:0:0:0:
448,192,206489,1,0,0:0:0:0:
64,192,206780,1,0,0:0:0:0:
192,192,206926,1,0,0:0:0:0:
192,192,207072,128,0,207290:0:0:0:0:
448,192,207072,128,0,207290:0:0:0:0:
320,192,207072,1,0,0:0:0:0:
64,192,207072,1,0,0:0:0:0:
64,192,207363,128,0,207581:0:0:0:0:
320,192,207363,128,0,207581:0:0:0:0:
448,192,207654,128,0,207945:0:0:0:0:
192,192,207654,128,0,207945:0:0:0:0:
64,192,207654,1,0,0:0:0:0:
64,192,207945,1,0,0:0:0:0:
320,192,208091,1,0,0:0:0:0:
64,192,208237,128,0,208455:0:0:0:0:
448,192,208237,128,0,208455:0:0:0:0:
192,192,208237,1,0,0:0:0:0:
320,192,208237,1,0,0:0:0:0:
320,192,208528,128,0,208746:0:0:0:0:
448,192,208528,128,0,208746:0:0:0:0:
64,192,208528,1,0,0:0:0:0:
192,192,208674,1,0,0:0:0:0:
64,192,208819,128,0,209038:0:0:0:0:
320,192,208819,128,0,209038:0:0:0:0:
448,192,208819,1,0,0:0:0:0:
192,192,209110,128,0,209329:0:0:0:0:
64,192,209110,128,0,209329:0:0:0:0:
64,192,209402,128,0,209620:0:0:0:0:
448,192,209402,128,0,209620:0:0:0:0:
320,192,209402,1,0,0:0:0:0:
192,192,209693,128,0,209911:0:0:0:0:
448,192,209693,128,0,209911:0:0:0:0:
64,192,209984,128,0,210421:0:0:0:0:
320,192,209984,1,0,0:0:0:0:
192,192,209984,128,0,210421:0:0:0:0:
448,192,210275,1,0,0:0:0:0:
320,192,210421,1,0,0:0:0:0:
192,192,210567,1,0,0:0:0:0:
64,192,210567,128,0,210785:0:0:0:0:
320,192,210567,128,0,210785:0:0:0:0:
448,192,210567,1,0,0:0:0:0:
192,192,210858,128,0,211076:0:0:0:0:
64,192,210858,1,0,0:0:0:0:
448,192,210858,128,0,211076:0:0:0:0:
192,192,211149,128,0,211586:0:0:0:0:
320,192,211149,1,0,0:0:0:0:
64,192,211149,128,0,211586:0:0:0:0:
448,192,211441,1,0,0:0:0:0:
448,192,211586,1,0,0:0:0:0:
64,192,211732,1,0,0:0:0:0:
192,192,211732,128,0,211950:0:0:0:0:
320,192,211732,128,0,211950:0:0:0:0:
64,192,212023,128,0,212242:0:0:0:0:
320,192,212023,128,0,212242:0:0:0:0:
448,192,212314,128,0,212751:0:0:0:0:
192,192,212314,128,0,212751:0:0:0:0:
64,192,212314,1,0,0:0:0:0:
64,192,212897,128,0,213115:0:0:0:0:
448,192,212897,128,0,213115:0:0:0:0:
192,192,212897,1,0,0:0:0:0:
448,192,213188,128,0,213407:0:0:0:0:
64,192,213188,1,0,0:0:0:0:
192,192,213188,128,0,213407:0:0:0:0:
192,192,213479,1,0,0:0:0:0:
64,192,213479,1,0,0:0:0:0:
320,192,213479,1,0,0:0:0:0:
192,192,213625,1,0,0:0:0:0:
448,192,213625,1,0,0:0:0:0:
320,192,213698,1,0,0:0:0:0:
192,192,213771,1,0,0:0:0:0:
64,192,213771,1,0,0:0:0:0:
192,192,213916,1,0,0:0:0:0:
320,192,213916,1,0,0:0:0:0:
320,192,214062,1,0,0:0:0:0:
448,192,214062,1,0,0:0:0:0:
64,192,214062,1,0,0:0:0:0:
192,192,214208,1,0,0:0:0:0:
192,192,214353,1,0,0:0:0:0:
64,192,214353,1,0,0:0:0:0:
320,192,214353,1,0,0:0:0:0:
320,192,214499,1,0,0:0:0:0:
192,192,214644,1,0,0:0:0:0:
320,192,214644,1,0,0:0:0:0:
448,192,214644,128,0,215154:0:0:0:0:
64,192,214644,128,0,215154:0:0:0:0:
64,192,215227,1,0,0:0:0:0:
448,192,215227,1,0,0:0:0:0:
192,192,215227,128,0,215445:0:0:0:0:
320,192,215227,128,0,215445:0:0:0:0:
192,192,215518,128,0,215737:0:0:0:0:
320,192,215518,128,0,215737:0:0:0:0:
64,192,215518,1,0,0:0:0:0:
448,192,215518,1,0,0:0:0:0:
64,192,215809,128,0,215955:0:0:0:0:
448,192,215809,128,0,215955:0:0:0:0:
192,192,215809,1,0,0:0:0:0:
320,192,215809,1,0,0:0:0:0:
192,192,215955,128,0,216101:0:0:0:0:
320,192,216101,128,0,216246:0:0:0:0:
448,192,216392,128,0,216538:0:0:0:0:
64,192,216392,128,0,216538:0:0:0:0:
192,192,216392,1,0,0:0:0:0:
320,192,216392,1,0,0:0:0:0:
320,192,216538,128,0,216683:0:0:0:0:
192,192,216683,128,0,216829:0:0:0:0:
320,192,216975,1,0,0:0:0:0:
192,192,216975,1,0,0:0:0:0:
64,192,216975,128,0,217193:0:0:0:0:
448,192,216975,128,0,217193:0:0:0:0:
320,192,217266,1,0,0:0:0:0:
64,192,217411,1,0,0:0:0:0:
448,192,217411,1,0,0:0:0:0:
448,192,217557,1,0,0:0:0:0:
64,192,217557,1,0,0:0:0:0:
320,192,217557,128,0,217775:0:0:0:0:
192,192,217557,128,0,217775:0:0:0:0:
320,192,217848,128,0,218067:0:0:0:0:
192,192,217848,128,0,218067:0:0:0:0:
448,192,217848,1,0,0:0:0:0:
64,192,217848,1,0,0:0:0:0:
448,192,218140,128,0,218285:0:0:0:0:
64,192,218140,128,0,218285:0:0:0:0:
320,192,218140,1,0,0:0:0:0:
192,192,218140,1,0,0:0:0:0:
320,192,218285,128,0,218431:0:0:0:0:
192,192,218431,128,0,218576:0:0:0:0:
448,192,218576,128,0,218722:0:0:0:0:
64,192,218722,128,0,218941:0:0:0:0:
192,192,218722,1,0,0:0:0:0:
320,192,218722,1,0,0:0:0:0:
64,192,219013,128,0,219232:0:0:0:0:
192,192,219013,128,0,219232:0:0:0:0:
64,192,219305,128,0,219669:0:0:0:0:
320,192,219305,128,0,219669:0:0:0:0:
448,192,219305,1,0,0:0:0:0:
192,192,219305,128,0,219669:0:0:0:0:
64,192,219742,128,0,219887:0:0:0:0:
448,192,219742,128,0,219887:0:0:0:0:
192,192,219887,1,0,0:0:0:0:
320,192,219887,1,0,0:0:0:0:
320,192,220178,128,0,220324:0:0:0:0:
64,192,220178,1,0,0:0:0:0:
448,192,220178,1,0,0:0:0:0:
192,192,220324,128,0,220470:0:0:0:0:
64,192,220470,1,0,0:0:0:0:
320,192,220470,1,0,0:0:0:0:
448,192,220470,128,0,220615:0:0:0:0:
64,192,220615,128,0,220761:0:0:0:0:
192,192,220761,128,0,220979:0:0:0:0:
320,192,220761,128,0,220979:0:0:0:0:
64,192,221052,1,0,0:0:0:0:
192,192,221052,1,0,0:0:0:0:
320,192,221052,128,0,221198:0:0:0:0:
448,192,221052,128,0,221198:0:0:0:0:
64,192,221198,128,0,221343:0:0:0:0:
192,192,221343,128,0,221562:0:0:0:0:
320,192,221343,128,0,221562:0:0:0:0:
64,192,221635,128,0,221853:0:0:0:0:
448,192,221635,128,0,221853:0:0:0:0:
192,192,221635,1,0,0:0:0:0:
320,192,221635,1,0,0:0:0:0:
192,192,221926,1,0,0:0:0:0:
320,192,222072,1,0,0:0:0:0:
448,192,222217,1,0,0:0:0:0:
192,192,222217,128,0,222436:0:0:0:0:
64,192,222217,128,0,222436:0:0:0:0:
320,192,222217,1,0,0:0:0:0:
192,192,222509,128,0,222727:0:0:0:0:
64,192,222509,128,0,222727:0:0:0:0:
320,192,222509,1,0,0:0:0:0:
192,192,222800,1,0,0:0:0:0:
320,192,222800,1,0,0:0:0:0:
448,192,222800,1,0,0:0:0:0:
64,192,222945,1,0,0:0:0:0:
320,192,222945,1,0,0:0:0:0:
192,192,223018,1,0,0:0:0:0:
320,192,223091,1,0,0:0:0:0:
448,192,223091,1,0,0:0:0:0:
192,192,223237,1,0,0:0:0:0:
320,192,223237,1,0,0:0:0:0:
64,192,223382,1,0,0:0:0:0:
192,192,223382,1,0,0:0:0:0:
448,192,223382,1,0,0:0:0:0:
320,192,223528,1,0,0:0:0:0:
64,192,223674,128,0,223892:0:0:0:0:
448,192,223674,128,0,223892:0:0:0:0:
192,192,223965,128,0,224183:0:0:0:0:
64,192,223965,128,0,224183:0:0:0:0:
448,192,223965,128,0,224183:0:0:0:0:
320,192,224256,1,0,0:0:0:0:
320,192,224402,1,0,0:0:0:0:
192,192,224547,1,0,0:0:0:0:
448,192,224547,1,0,0:0:0:0:
64,192,224547,128,0,224766:0:0:0:0:
64,192,224839,128,0,225057:0:0:0:0:
448,192,224839,128,0,225057:0:0:0:0:
320,192,224839,1,0,0:0:0:0:
192,192,225130,128,0,225275:0:0:0:0:
320,192,225130,1,0,0:0:0:0:
64,192,225130,1,0,0:0:0:0:
320,192,225275,128,0,225421:0:0:0:0:
448,192,225421,128,0,225640:0:0:0:0:
64,192,225421,128,0,225640:0:0:0:0:
320,192,225712,128,0,225858:0:0:0:0:
64,192,225712,1,0,0:0:0:0:
448,192,225712,1,0,0:0:0:0:
192,192,225712,128,0,225858:0:0:0:0:
448,192,225858,128,0,226004:0:0:0:0:
192,192,226004,128,0,226149:0:0:0:0:
64,192,226004,128,0,226149:0:0:0:0:
320,192,226149,128,0,226295:0:0:0:0:
448,192,226295,128,0,226805:0:0:0:0:
64,192,226295,128,0,226805:0:0:0:0:
192,192,226295,1,0,0:0:0:0:
64,192,226877,1,0,0:0:0:0:
448,192,226877,1,0,0:0:0:0:
320,192,226877,128,0,227023:0:0:0:0:
192,192,226877,128,0,227023:0:0:0:0:
64,192,227023,128,0,227169:0:0:0:0:
320,192,227169,1,0,0:0:0:0:
448,192,227169,1,0,0:0:0:0:
192,192,227169,128,0,227314:0:0:0:0:
320,192,227314,128,0,227460:0:0:0:0:
64,192,227460,128,0,227606:0:0:0:0:
192,192,227460,128,0,227606:0:0:0:0:
448,192,227606,128,0,227751:0:0:0:0:
320,192,227751,128,0,227897:0:0:0:0:
192,192,227751,128,0,227897:0:0:0:0:
64,192,227897,128,0,228042:0:0:0:0:
320,192,228042,1,0,0:0:0:0:
448,192,228042,128,0,228261:0:0:0:0:
192,192,228042,128,0,228261:0:0:0:0:
448,192,228334,128,0,228552:0:0:0:0:
64,192,228334,128,0,228552:0:0:0:0:
192,192,228625,128,0,228916:0:0:0:0:
320,192,228625,128,0,228916:0:0:0:0:
64,192,228625,1,0,0:0:0:0:
448,192,228625,1,0,0:0:0:0:
448,192,228916,1,0,0:0:0:0:
64,192,229062,1,0,0:0:0:0:
320,192,229062,1,0,0:0:0:0:
64,192,229208,1,0,0:0:0:0:
192,192,229208,1,0,0:0:0:0:
448,192,229208,128,0,229426:0:0:0:0:
448,192,229499,128,0,229717:0:0:0:0:
64,192,229499,128,0,229717:0:0:0:0:
192,192,229499,1,0,0:0:0:0:
192,192,229790,128,0,230009:0:0:0:0:
320,192,229790,128,0,230009:0:0:0:0:
64,192,229790,1,0,0:0:0:0:
448,192,230081,1,0,0:0:0:0:
64,192,230227,1,0,0:0:0:0:
448,192,230227,1,0,0:0:0:0:
192,192,230373,1,0,0:0:0:0:
320,192,230373,128,0,230591:0:0:0:0:
448,192,230373,128,0,230591:0:0:0:0:
64,192,230664,128,0,230882:0:0:0:0:
448,192,230664,128,0,230882:0:0:0:0:
192,192,230955,128,0,231174:0:0:0:0:
320,192,230955,128,0,231174:0:0:0:0:
64,192,230955,1,0,0:0:0:0:
448,192,231246,128,0,231465:0:0:0:0:
320,192,231538,1,0,0:0:0:0:
448,192,231538,1,0,0:0:0:0:
64,192,231538,1,0,0:0:0:0:
192,192,231538,128,0,231756:0:0:0:0:
192,192,231829,1,0,0:0:0:0:
320,192,231829,1,0,0:0:0:0:
64,192,231829,128,0,232120:0:0:0:0:
320,192,232120,1,0,0:0:0:0:
448,192,232120,1,0,0:0:0:0:
64,192,232266,1,0,0:0:0:0:
320,192,232266,1,0,0:0:0:0:
192,192,232339,1,0,0:0:0:0:
448,192,232411,1,0,0:0:0:0:
320,192,232411,1,0,0:0:0:0:
192,192,232557,1,0,0:0:0:0:
320,192,232557,1,0,0:0:0:0:
64,192,232703,1,0,0:0:0:0:
192,192,232703,1,0,0:0:0:0:
448,192,232703,1,0,0:0:0:0:
320,192,232848,1,0,0:0:0:0:
320,192,232994,1,0,0:0:0:0:
64,192,232994,1,0,0:0:0:0:
192,192,233140,1,0,0:0:0:0:
448,192,233285,1,0,0:0:0:0:
