osu file format v14

[General]
AudioFilename: audio.mp3
AudioLeadIn: 0
PreviewTime: 64302
Countdown: 0
SampleSet: Soft
StackLeniency: 0.7
Mode: 0
LetterboxInBreaks: 0
WidescreenStoryboard: 1

[Editor]
Bookmarks: 10380,28666,46952,65237,83523,101809,120095,138380,156666,165809,181809
DistanceSpacing: 1.1
BeatDivisor: 8
GridSize: 32
TimelineZoom: 1.7

[Metadata]
Title:Call You Mine (Hibell Remix)
TitleUnicode:Call You Mine (Hibell Remix)
Artist:The Chainsmokers & Bebe Rexha
ArtistUnicode:The Chainsmokers & Bebe Rexha
Creator:Asphyxia
Version:Collab Insane
Source:
Tags:Tomadoi Mirash KKipalt Jace Collab Collaboration Electronic EDM Electropop Pop English
BeatmapID:2226615
BeatmapSetID:1059539

[Difficulty]
HPDrainRate:6
CircleSize:4
OverallDifficulty:7
ApproachRate:9
SliderMultiplier:2
SliderTickRate:1

[Events]
//Background and Video events
0,0,"call u mine bg11.jpg",0,0
//Break Periods
2,101931,109702
//Storyboard Layer 0 (Background)
//Storyboard Layer 1 (Fail)
//Storyboard Layer 2 (Pass)
//Storyboard Layer 3 (Foreground)
//Storyboard Layer 4 (Overlay)
//Storyboard Sound Samples

[TimingPoints]
1160,571.428571428571,4,2,0,100,1,0
10302,-125,4,2,2,50,0,0
19588,-125,4,2,2,50,0,0
19731,-125,4,2,2,50,0,0
21874,-125,4,2,2,50,0,0
22159,-125,4,2,2,50,0,0
27874,-125,4,2,2,50,0,0
28017,-125,4,2,3,60,0,0
28588,-100,4,2,3,60,0,0
29230,-100,4,2,3,60,0,0
29301,-100,4,2,3,60,0,0
30159,-100,4,2,3,60,0,0
30302,-100,4,2,3,60,0,0
30444,-100,4,2,3,60,0,0
30588,-100,4,2,3,60,0,0
31088,-100,4,2,3,60,0,0
31302,-100,4,2,3,60,0,0
31659,-100,4,2,3,60,0,0
31873,-100,4,2,3,60,0,0
32159,-100,4,2,3,60,0,0
32302,-100,4,2,3,60,0,0
32444,-100,4,2,3,60,0,0
32588,-100,4,2,3,60,0,0
33373,-100,4,2,3,60,0,0
33587,-100,4,2,3,60,0,0
34444,-100,4,2,3,60,0,0
34588,-100,4,2,3,60,0,0
34730,-100,4,2,3,60,0,0
34874,-100,4,2,3,60,0,0
38088,-100,4,2,3,60,0,0
38159,-100,4,2,3,60,0,0
39301,-100,4,2,3,60,0,0
39445,-100,4,2,3,60,0,0
40373,-100,4,2,3,60,0,0
40444,-100,4,2,3,60,0,0
41301,-100,4,2,3,60,0,0
41445,-100,4,2,3,60,0,0
41587,-100,4,2,3,60,0,0
41731,-100,4,2,3,60,0,0
42516,-100,4,2,3,60,0,0
42730,-100,4,2,3,60,0,0
43587,-100,4,2,3,60,0,0
43731,-100,4,2,3,60,0,0
44945,-100,4,2,3,60,0,0
45017,-100,4,2,3,60,0,0
46159,-100,4,2,3,60,0,0
46302,-100,4,2,3,60,0,0
46445,-100,4,2,3,60,0,0
46588,-100,4,2,3,60,0,0
46730,-100,4,2,3,60,0,0
46874,-142.857142857143,4,2,3,40,0,0
53588,-142.857142857143,4,2,3,40,0,0
53731,-142.857142857143,4,2,3,40,0,0
54874,-142.857142857143,4,2,3,40,0,0
55159,-142.857142857143,4,2,3,40,0,0
55301,-142.857142857143,4,2,3,40,0,0
55445,-142.857142857143,4,2,3,40,0,0
56017,-125,4,2,3,50,0,0
57444,-125,4,2,3,50,0,0
57731,-125,4,2,3,50,0,0
58159,-125,4,2,3,50,0,0
58301,-125,4,2,3,50,0,0
60445,-125,4,2,3,50,0,0
60588,-125,4,2,3,50,0,0
64874,-250,4,2,3,60,0,0
65088,-250,4,2,3,60,0,0
65159,-66.6666666666667,4,2,4,70,0,0
72159,-66.6666666666667,4,2,4,70,0,0
72302,-66.6666666666667,4,2,4,70,0,0
73873,-66.6666666666667,4,2,4,70,0,0
74017,-66.6666666666667,4,2,4,70,0,0
74159,-66.6666666666667,4,2,4,70,0,0
74302,-66.6666666666667,4,2,4,70,0,0
74374,-66.6666666666667,4,2,4,70,0,0
74588,-66.6666666666667,4,2,4,70,0,0
78659,-66.6666666666667,4,2,4,70,0,0
78731,-66.6666666666667,4,2,4,70,0,0
80159,-66.6666666666667,4,2,4,70,0,0
80302,-66.6666666666667,4,2,4,70,0,0
81517,-66.6666666666667,4,2,4,70,0,0
81588,-66.6666666666667,4,2,4,70,0,0
82588,-100,4,2,4,50,0,0
83445,-100,4,2,3,60,0,0
91874,-100,4,2,3,60,0,0
92017,-100,4,2,3,60,0,0
101302,-100,4,2,3,60,0,0
101444,-100,4,2,3,60,0,0
101587,-100,4,2,3,60,0,0
101731,-100,4,2,3,40,0,0
110874,-142.857142857143,4,2,3,50,0,0
114730,-142.857142857143,4,2,3,50,0,0
114874,-142.857142857143,4,2,3,50,0,0
118445,-142.857142857143,4,2,3,50,0,0
119445,-142.857142857143,4,2,6,50,0,0
120017,-142.857142857143,4,2,7,40,0,0
124588,-111.111111111111,4,2,7,40,0,0
126874,-111.111111111111,4,2,3,50,0,0
127445,-111.111111111111,4,2,7,60,0,0
128302,-111.111111111111,4,2,3,50,0,0
128588,-111.111111111111,4,2,8,50,0,0
128874,-111.111111111111,4,2,3,50,0,0
129159,-66.6666666666666,4,2,3,70,0,0
129945,-66.6666666666666,4,2,3,70,0,0
130017,-66.6666666666666,4,2,3,70,0,0
130230,-66.6666666666666,4,2,3,70,0,0
130302,-66.6666666666666,4,2,3,70,0,0
131945,-66.6666666666666,4,2,3,70,0,0
132017,-66.6666666666666,4,2,3,70,0,0
133373,-66.6666666666666,4,2,3,70,0,0
133445,-66.6666666666666,4,2,3,70,0,0
136159,-66.6666666666666,4,2,3,70,0,0
136302,-66.6666666666666,4,2,3,70,0,0
136730,-66.6666666666666,4,2,3,70,0,0
136874,-66.6666666666666,4,2,3,70,0,0
137731,-100,4,2,3,60,0,0
138302,-100,4,2,3,70,0,0
138374,-100,4,2,3,70,0,0
138445,-100,4,2,3,70,0,0
138517,-100,4,2,3,70,0,0
138588,-100,4,2,3,70,0,0
138874,-66.6666666666667,4,2,3,70,0,0
140159,-66.6666666666667,4,2,3,70,0,0
140302,-66.6666666666667,4,2,3,70,0,0
144731,-66.6666666666667,4,2,3,70,0,0
144874,-66.6666666666667,4,2,3,70,0,0
146874,-66.6666666666667,4,2,3,60,0,0
147445,-66.6666666666667,4,2,3,80,0,0
149945,-66.6666666666667,4,2,3,80,0,0
150159,-66.6666666666667,4,2,3,80,0,0
150516,-66.6666666666667,4,2,3,80,0,0
150874,-66.6666666666667,4,2,3,80,0,0
151802,-66.6666666666667,4,2,3,80,0,0
151874,-66.6666666666667,4,2,3,80,0,0
154445,-66.6666666666667,4,2,3,80,0,0
154588,-66.6666666666667,4,2,3,80,0,0
156159,-66.6666666666667,4,2,3,60,0,0
156230,-66.6666666666667,4,2,3,60,0,0
156588,-66.6666666666667,4,2,3,80,0,0
156659,-66.6666666666667,4,2,3,80,0,0
156731,-66.6666666666667,4,2,3,80,0,0
156802,-66.6666666666667,4,2,3,80,0,0
156874,-66.6666666666667,4,2,3,80,0,0
157374,-66.6666666666667,4,2,3,80,0,0
157445,-66.6666666666667,4,2,3,80,0,0
158374,-66.6666666666667,4,2,3,80,0,0
158588,-66.6666666666667,4,2,3,80,0,0
159802,-66.6666666666667,4,2,3,80,0,0
159874,-66.6666666666667,4,2,3,80,0,0
159945,-66.6666666666667,4,2,3,80,0,0
160017,-66.6666666666667,4,2,3,80,0,0
161945,-66.6666666666667,4,2,3,80,0,0
162017,-66.6666666666667,4,2,3,80,0,0
162731,-66.6666666666667,4,2,3,80,0,0
162874,-66.6666666666667,4,2,3,80,0,0
163517,-66.6666666666667,4,2,3,80,0,0
163588,-66.6666666666667,4,2,3,80,0,0
163659,-66.6666666666667,4,2,3,80,0,0
163731,-66.6666666666667,4,2,3,80,0,0
164159,-66.6666666666667,4,2,3,80,0,0
164302,-66.6666666666667,4,2,3,80,0,0
165302,-66.6666666666667,4,2,3,60,0,0
165445,-66.6666666666667,4,2,3,60,0,0
165588,-66.6666666666667,4,2,3,60,0,0
165659,-66.6666666666667,4,2,3,60,0,0
165730,-66.6666666666667,4,2,3,60,0,0
180017,-66.6666666666667,4,2,3,50,0,0
180588,-66.6666666666667,4,2,3,40,0,0
181731,-66.6666666666667,4,2,3,60,0,0

[Colours]
Combo1 : 255,168,81
Combo2 : 196,255,196
Combo3 : 255,81,81
Combo4 : 205,12,40
Combo5 : 111,208,255
Combo6 : 255,255,128

[HitObjects]
48,378,9731,6,0,B|16:264|97:307|57:168,1,200,0|0,0:0|3:0,0:0:0:0:
61,184,10588,2,0,P|82:193|111:202,1,40
217,302,10874,2,0,P|208:262|204:219,1,80,10|0,0:0|0:0,0:0:0:0:
309,137,11302,1,0,0:0:0:0:
309,137,11445,2,0,P|295:154|280:171,1,40
194,57,11731,2,0,P|207:71|219:87,1,40,0|0,3:0|0:0,0:0:0:0:
361,46,12017,2,0,L|449:35,1,80,10|0,0:0|0:0,0:0:0:0:
435,236,12588,5,0,3:0:0:0:
435,236,12802,1,0,0:0:0:0:
435,236,13017,1,0,0:0:0:0:
328,192,13159,2,0,P|323:226|321:281,1,80,10|0,0:0|0:0,0:0:0:0:
133,382,13731,2,0,P|164:352|279:342,1,160,0|10,0:0|0:0,0:0:0:0:
359,351,14588,1,0,3:0:0:0:
437,322,14874,5,0,3:0:0:0:
359,351,15159,2,0,P|358:332|354:309,1,40
256,237,15445,2,0,P|256:198|261:157,1,80,10|0,0:0|0:0,0:0:0:0:
328,122,15874,1,0,0:0:0:0:
178,83,16017,2,0,P|198:88|220:99,1,40
319,21,16302,2,0,P|299:26|277:37,1,40,0|0,3:0|0:0,0:0:0:0:
168,167,16588,2,0,P|134:160|89:145,1,80,10|0,2:0|2:0,2:0:0:0:
76,304,17159,5,0,3:0:0:0:
76,304,17374,1,0,0:0:0:0:
76,304,17588,1,0,0:0:0:0:
6,260,17731,2,0,P|15:221|20:179,1,80,10|0,0:0|0:0,0:0:0:0:
193,347,18302,2,0,P|184:308|179:266,1,80,0|0,0:0|3:0,0:0:0:0:
244,74,18874,5,10,0:0:0:0:
138,132,19017,2,0,P|187:149|246:204,1,120,0|0,0:0|3:0,0:0:0:0:
238,192,19588,1,0,0:0:0:0:
375,114,19731,2,0,P|349:120|333:129,1,40
380,196,20017,2,0,P|417:197|461:211,1,80,10|0,0:0|0:0,0:0:0:0:
380,196,20445,1,0,0:0:0:0:
512,317,20588,6,0,P|506:298|504:272,1,40
469,86,20874,2,0,P|463:105|460:124,1,40,0|0,3:0|0:0,0:0:0:0:
458,212,21159,1,10,0:0:0:0:
429,5,21445,1,0,0:0:0:0:
261,134,21731,5,0,3:0:0:0:
364,109,21874,2,0,P|358:145|355:196,1,80
285,298,22302,2,0,P|303:286|330:275,1,40,10|0,0:0|0:0,0:0:0:0:
187,201,22588,2,0,P|168:192|152:181,1,40
0,279,22874,1,0,0:0:0:0:
34,359,23159,1,0,3:0:0:0:
117,330,23445,1,10,0:0:0:0:
83,250,23730,1,0,3:0:0:0:
34,359,24017,5,0,3:0:0:0:
201,294,24302,2,0,P|225:300|245:309,1,40
165,225,24588,2,0,P|156:177|148:135,1,80,10|0,0:0|0:0,0:0:0:0:
220,106,25017,1,0,0:0:0:0:
68,128,25159,2,0,P|79:111|88:86,1,40
269,162,25445,2,0,P|258:145|249:120,1,40,0|0,3:0|0:0,0:0:0:0:
311,67,25731,2,0,P|349:80|397:86,1,80,10|0,0:0|0:0,0:0:0:0:
509,229,26302,5,0,3:0:0:0:
509,229,26517,1,0,0:0:0:0:
509,229,26731,1,0,0:0:0:0:
360,251,26874,2,0,P|372:233|381:202,1,40,10|0,0:0|0:0,0:0:0:0:
478,68,27159,2,0,P|489:84|496:103,1,40
363,124,27445,6,0,P|322:106|271:98,1,80,0|0,0:0|3:0,0:0:0:0:
363,124,27874,1,0,0:0:0:0:
205,38,28017,5,8,0:0:0:0:
268,92,28159,1,0,0:0:0:0:
205,148,28302,1,0,0:0:0:0:
450,333,28588,6,0,P|380:308|337:298,1,100,0|0,3:0|1:0,0:0:0:0:
307,246,29017,1,0,0:0:0:0:
279,315,29159,2,0,P|285:331|287:348,2,25,8|0|0,0:0|0:0|0:0,0:0:0:0:
134,259,29445,2,0,L|35:276,2,100,0|0|0,1:0|1:0|3:0,0:0:0:0:
198,222,30159,1,0,0:0:0:0:
223,294,30302,2,0,P|215:330|211:357,1,50,8|0,0:0|0:0,0:0:0:0:
141,379,30588,6,0,P|137:324|129:262,1,100,0|0,1:0|3:0,0:0:0:0:
214,144,31088,1,0,0:0:0:0:
312,253,31302,1,0,0:0:0:0:
173,218,31445,2,0,P|167:175|155:111,1,100,8|0,0:0|1:0,0:0:0:0:
261,162,31874,1,0,0:0:0:0:
261,162,32017,6,0,L|334:185,1,50,0|0,1:0|0:0,0:0:0:0:
404,264,32302,2,0,L|451:248,1,50,0|0,3:0|0:0,0:0:0:0:
493,115,32588,2,0,P|411:117|381:169,1,100,8|0,0:0|3:0,0:0:0:0:
407,153,32945,1,0,0:0:0:0:
407,153,33017,1,0,0:0:0:0:
407,153,33088,1,0,0:0:0:0:
407,153,33159,2,0,L|388:69,2,75,0|0|0,3:0|0:0|0:0,0:0:0:0:
311,275,33731,6,0,P|241:261|197:216,1,100,8|0,0:0|1:0,0:0:0:0:
211,170,34159,1,0,0:0:0:0:
152,216,34302,2,0,P|93:215|62:211,1,50
286,198,34588,2,0,P|345:197|376:193,1,50,0|0,3:0|0:0,0:0:0:0:
204,56,34874,2,0,P|209:113|211:182,1,100,8|0,0:0|1:0,0:0:0:0:
210,231,35302,1,0,0:0:0:0:
146,8,35445,6,0,P|86:35|30:157,1,200,0|8,3:0|0:0,0:0:0:0:
139,194,36302,1,0,1:0:0:0:
256,138,36588,1,0,1:0:0:0:
351,234,36874,1,0,3:0:0:0:
496,194,37159,1,0,0:0:0:0:
496,194,37302,1,0,3:0:0:0:
311,100,37731,6,0,L|253:113,1,50,0|0,3:0|0:0,0:0:0:0:
186,92,38017,1,0,1:0:0:0:
186,92,38088,1,0,0:0:0:0:
186,92,38159,1,0,0:0:0:0:
186,92,38231,1,0,0:0:0:0:
186,92,38302,2,0,P|197:148|201:193,1,100,8|0,0:0|1:0,0:0:0:0:
205,266,38731,5,0,0:0:0:0:
269,222,38874,2,0,P|296:208|323:201,1,50,0|0,1:0|0:0,0:0:0:0:
132,236,39159,2,0,P|105:250|78:257,1,50,0|0,3:0|0:0,0:0:0:0:
234,338,39445,1,8,0:0:0:0:
186,92,39731,1,0,1:0:0:0:
441,162,40017,6,0,L|406:227,1,50,0|0,3:0|0:0,0:0:0:0:
343,275,40302,2,0,L|333:234,2,25,0|0|0,1:0|0:0|0:0,0:0:0:0:
271,173,40588,2,0,P|310:159|355:103,1,100,8|0,0:0|1:0,0:0:0:0:
333,42,41017,1,0,0:0:0:0:
188,84,41159,6,0,P|196:142|198:159,1,50,0|0,1:0|0:0,0:0:0:0:
255,303,41445,2,0,P|258:278|261:253,1,50,0|0,3:0|0:0,0:0:0:0:
68,202,41731,2,0,P|116:203|191:209,1,100,8|0,0:0|3:0,0:0:0:0:
165,222,42088,1,0,0:0:0:0:
165,222,42159,1,0,0:0:0:0:
165,222,42231,1,0,0:0:0:0:
165,222,42302,2,0,P|155:273|149:308,2,75,0|0|0,3:0|0:0|0:0,0:0:0:0:
442,266,42874,6,0,P|379:282|304:288,1,100,8|0,0:0|1:0,0:0:0:0:
279,245,43302,1,0,0:0:0:0:
277,321,43445,2,0,P|287:371|292:394,1,50,0|0,1:0|0:0,0:0:0:0:
208,279,43731,1,0,3:0:0:0:
256,170,44017,1,8,0:0:0:0:
190,77,44302,1,0,1:0:0:0:
434,38,44588,6,0,B|385:71|385:71|317:27,1,100,0|0,3:0|1:0,0:0:0:0:
343,45,44945,1,0,0:0:0:0:
336,41,45017,1,0,0:0:0:0:
329,37,45088,1,0,0:0:0:0:
322,33,45159,1,8,0:0:0:0:
150,146,45445,1,0,1:0:0:0:
263,318,45731,1,0,1:0:0:0:
435,205,46017,1,0,3:0:0:0:
385,141,46159,1,0,0:0:0:0:
358,214,46302,1,8,0:0:0:0:
410,274,46445,1,0,0:0:0:0:
263,178,46588,6,0,L|200:198,1,50,0|0,3:0|0:0,0:0:0:0:
0,191,46874,6,0,L|153:228,1,139.999995727539,6|8,0:0|0:0,0:0:0:0:
216,355,47731,1,0,0:0:0:0:
216,355,47874,1,0,0:0:0:0:
216,355,48017,2,0,L|202:283,1,69.9999978637696,2|0,0:0|0:3,0:0:0:0:
136,223,48588,2,0,L|122:151,1,69.9999978637696,10|0,0:0|0:0,0:0:0:0:
240,45,49159,5,2,0:0:0:0:
325,76,49445,1,0,0:0:0:0:
296,162,49731,1,10,0:0:0:0:
211,131,50017,1,2,0:0:0:0:
211,131,50159,1,0,0:0:0:0:
211,131,50302,1,0,0:0:0:0:
326,52,50588,1,0,0:0:0:0:
153,7,50874,2,0,P|187:18|234:27,1,69.9999978637696,10|0,0:0|0:0,0:0:0:0:
421,127,51445,6,0,P|356:133|303:193,1,139.999995727539,2|8,0:3|0:0,0:0:0:0:
283,334,52302,1,0,0:0:0:0:
283,334,52445,1,0,0:0:0:0:
283,334,52588,2,0,P|275:298|256:262,1,69.9999978637696,2|0,0:0|0:0,0:0:0:0:
165,265,53159,2,0,P|133:245|94:233,1,69.9999978637696,10|0,0:0|0:0,0:0:0:0:
102,234,53588,1,0,0:0:0:0:
102,234,53731,1,2,0:0:0:0:
14,348,54017,2,0,P|46:338|84:335,2,69.9999978637696,0|8|2,0:0|0:0|0:0,0:0:0:0:
14,348,54731,1,0,0:0:0:0:
14,348,54874,1,0,0:0:0:0:
176,384,55159,6,0,P|170:362|166:330,1,34.9999989318848
80,258,55445,2,0,P|91:238|111:212,1,34.9999989318848,10|0,0:0|0:0,0:0:0:0:
136,66,55731,2,0,P|157:60|189:56,1,34.9999989318848
328,130,56017,5,6,3:2:0:0:
328,130,56588,2,0,P|313:90|310:45,1,80,8|0,0:0|0:0,0:0:0:0:
178,151,57017,1,0,0:0:0:0:
178,151,57159,2,0,P|193:111|196:66,1,80,2|0,3:2|0:0,0:0:0:0:
308,221,57731,2,0,L|404:243,1,80,10|0,0:0|0:0,0:0:0:0:
385,238,58159,2,0,L|379:197,1,40,0|2,0:0|3:2,0:0:0:0:
230,259,58588,5,0,0:0:0:0:
387,334,58874,1,10,0:0:0:0:
301,384,59159,1,0,0:0:0:0:
301,384,59302,1,0,0:0:0:0:
301,384,59445,2,0,P|303:342|301:304,1,80,2|0,3:2|0:0,0:0:0:0:
463,365,60017,1,8,0:0:0:0:
254,225,60445,5,0,0:0:0:0:
254,225,60588,2,0,P|292:221|338:212,1,80,2|0,3:2|3:0,0:0:0:0:
185,276,61159,1,10,3:2:0:0:
185,276,61445,1,0,3:0:0:0:
81,91,61731,2,0,P|76:132|68:172,1,80,2|0,3:2|3:0,0:0:0:0:
254,225,62302,2,0,P|246:185|241:146,1,80,10|0,3:2|3:0,0:0:0:0:
351,29,62874,5,2,3:2:0:0:
368,32,62945,1,0,0:0:0:0:
385,35,63017,1,0,0:0:0:0:
402,39,63088,1,0,0:0:0:0:
419,43,63159,1,0,0:0:0:0:
436,47,63231,1,0,0:0:0:0:
453,51,63302,1,0,0:0:0:0:
470,55,63374,1,0,0:0:0:0:
487,59,63445,2,0,L|485:30,7,20,10|0|0|0|2|0|0|0,0:0|0:0|0:0|0:0|0:0|0:0|0:0|0:0,0:0:0:0:
91,198,64588,5,8,0:0:0:0:
314,310,64874,2,0,L|308:277,1,30,0|0,3:0|0:0,0:0:0:0:
288,209,65159,6,0,P|278:307|266:380,1,150.000005722046,6|0,3:2|0:0,0:0:0:0:
199,335,65588,1,0,0:0:0:0:
376,180,65731,2,0,P|365:105|358:31,1,150.000005722046,10|0,0:0|0:0,0:0:0:0:
227,99,66159,2,0,P|222:148|216:184,1,75.0000028610231,0|2,3:0|0:0,0:0:0:0:
469,263,66445,2,0,P|463:225|460:188,1,75.0000028610231,0|2,0:0|3:2,0:0:0:0:
436,116,66731,1,0,0:0:0:0:
273,222,66874,2,0,P|266:296|255:370,2,150.000005722046,10|0|2,0:0|0:0|3:2,0:0:0:0:
289,144,67588,5,0,0:0:0:0:
347,234,67731,1,2,0:0:0:0:
262,296,67874,1,0,0:0:0:0:
204,206,68017,2,0,P|212:164|216:124,1,75.0000028610231,10|0,0:0|0:0,0:0:0:0:
186,60,68302,1,0,0:0:0:0:
204,206,68445,2,0,P|208:243|215:280,1,75.0000028610231,0|2,3:0|0:0,0:0:0:0:
105,227,68731,1,0,0:0:0:0:
271,340,68874,2,0,P|308:335|345:328,1,75.0000028610231,2|0,3:2|0:0,0:0:0:0:
155,329,69159,2,0,P|77:344|0:353,1,150.000005722046,10|0,0:0|0:0,0:0:0:0:
18,200,69588,5,0,0:0:0:0:
18,200,69659,1,0,0:0:0:0:
18,200,69731,2,0,P|22:237|29:274,1,75.0000028610231,2|0,3:2|0:0,0:0:0:0:
110,265,70017,1,2,0:0:0:0:
110,265,70159,1,0,0:0:0:0:
63,128,70302,6,0,P|137:119|210:104,1,150.000005722046,10|2,0:0|0:0,0:0:0:0:
381,151,70731,2,0,P|365:216|359:249,2,75.0000028610231,0|2|0,3:0|0:0|0:0,0:0:0:0:
207,197,71159,1,0,3:2:0:0:
276,268,71302,1,0,0:0:0:0:
46,240,71445,2,0,P|120:232|193:217,1,150.000005722046,8|2,0:0|0:0,0:0:0:0:
225,150,71874,1,0,0:0:0:0:
424,156,72017,5,2,3:2:0:0:
424,156,72159,1,0,0:0:0:0:
391,253,72302,1,0,0:0:0:0:
391,253,72445,1,0,0:0:0:0:
473,334,72588,2,0,P|488:260|496:186,1,150.000005722046,8|2,0:0|0:0,0:0:0:0:
424,156,73017,1,8,3:2:0:0:
289,131,73302,5,8,0:0:0:0:
241,188,73445,1,8,3:2:0:0:
139,144,73731,6,0,P|96:155|58:163,1,75.0000028610231,8|0,0:0|0:0,0:0:0:0:
37,230,74017,1,2,0:0:0:0:
37,230,74159,1,0,0:0:0:0:
113,43,74302,5,6,3:2:0:0:
113,43,74374,1,0,0:0:0:0:
113,43,74445,1,0,0:0:0:0:
113,43,74517,1,0,0:0:0:0:
113,43,74588,1,0,0:0:0:0:
184,68,74731,1,0,0:0:0:0:
237,18,74874,2,0,B|281:12|281:12|348:113,1,150.000005722046,10|0,0:0|0:0,0:0:0:0:
320,171,75302,5,0,3:0:0:0:
460,85,75445,2,0,L|444:162,1,75.0000028610231,2|0,0:0|0:0,0:0:0:0:
394,217,75731,2,0,L|410:294,1,75.0000028610231,2|0,3:2|0:0,0:0:0:0:
470,338,76017,1,10,0:0:0:0:
500,267,76159,2,0,L|505:218,2,37.5000014305115
399,364,76445,1,0,0:0:0:0:
296,259,76588,6,0,B|254:246|254:246|225:283,1,75.0000028610231,2|0,3:2|0:0,0:0:0:0:
70,303,76874,2,0,B|112:290|112:290|141:327,1,75.0000028610231,2|0,0:0|0:0,0:0:0:0:
34,155,77159,2,0,L|187:174,1,150.000005722046,10|0,0:0|0:0,0:0:0:0:
244,126,77588,2,0,P|222:82|178:64,1,75.0000028610231,0|2,3:0|0:0,0:0:0:0:
257,203,77874,1,0,0:0:0:0:
389,143,78017,1,2,3:2:0:0:
276,39,78159,1,0,0:0:0:0:
272,218,78302,6,0,P|239:268|224:368,1,150.000005722046,10|0,0:0|0:0,0:0:0:0:
240,364,78659,1,0,0:0:0:0:
240,364,78731,1,0,0:0:0:0:
240,364,78802,1,0,0:0:0:0:
240,364,78874,2,0,L|320:372,1,75.0000028610231,6|0,3:2|0:0,0:0:0:0:
370,318,79159,1,0,0:0:0:0:
325,255,79302,1,0,0:0:0:0:
178,303,79445,6,0,P|189:228|209:156,1,150.000005722046,10|0,0:0|0:0,0:0:0:0:
75,276,79874,2,0,P|87:315|96:362,1,75.0000028610231,0|2,3:0|0:0,0:0:0:0:
71,96,80159,1,0,0:0:0:0:
141,136,80302,2,0,P|129:175|120:222,1,75.0000028610231,0|0,3:0|0:0,0:0:0:0:
236,305,80588,5,10,0:0:0:0:
343,181,80731,1,0,0:0:0:0:
220,84,80874,1,0,0:0:0:0:
208,165,81017,1,0,0:0:0:0:
281,134,81159,6,0,B|328:158|328:158|423:61,1,150.000005722046,6|0,3:2|0:0,0:0:0:0:
396,88,81517,1,0,0:0:0:0:
396,88,81588,1,0,0:0:0:0:
396,88,81659,1,0,0:0:0:0:
396,88,81731,1,10,0:0:0:0:
415,179,81874,1,0,0:0:0:0:
426,256,82017,1,2,0:0:0:0:
430,335,82159,1,0,3:0:0:0:
426,256,82302,2,0,L|339:284,1,75.0000028610231,2|0,0:0|0:0,0:0:0:0:
415,179,82588,2,0,L|514:202,1,100,0|0,3:0|0:0,0:0:0:0:
270,384,83445,5,4,3:2:0:0:
270,384,83731,2,0,P|275:356|282:324,1,50,0|0,1:0|0:0,0:0:0:0:
150,220,84017,2,0,P|196:246|248:268,1,100,8|0,0:0|1:0,0:0:0:0:
309,224,84445,1,0,0:0:0:0:
264,114,84588,2,0,P|255:137|247:168,1,50,0|0,1:0|0:0,0:0:0:0:
406,205,84874,2,0,P|396:181|391:157,1,50,0|0,3:0|0:0,0:0:0:0:
248,96,85159,2,0,P|203:91|144:83,1,100,8|0,0:0|1:0,0:0:0:0:
28,2,85731,5,0,3:0:0:0:
28,2,85945,1,0,0:0:0:0:
28,2,86159,1,0,0:0:0:0:
33,152,86302,2,0,P|43:132|55:91,1,50,8|0,0:0|0:0,0:0:0:0:
193,208,86588,2,0,P|170:198|140:195,1,50,0|0,1:0|0:0,0:0:0:0:
7,308,86874,2,0,P|48:284|107:275,1,100,0|0,1:0|3:0,0:0:0:0:
206,378,87445,1,8,0:0:0:0:
296,173,87731,2,0,L|288:149,2,25,0|0|0,3:0|0:0|0:0,0:0:0:0:
216,215,88017,6,0,B|341:169|302:261|420:215,1,200,0|8,3:0|0:0,0:0:0:0:
512,121,88874,1,0,1:0:0:0:
512,121,89017,1,0,0:0:0:0:
512,121,89159,2,0,P|503:143|497:174,1,50,0|0,1:0|0:0,0:0:0:0:
365,97,89445,2,0,P|359:72|350:49,1,50,0|0,3:0|0:0,0:0:0:0:
172,64,89731,2,0,P|218:74|276:84,1,100,8|0,0:0|1:0,0:0:0:0:
53,166,90302,5,0,3:0:0:0:
53,166,90517,1,0,0:0:0:0:
53,166,90731,1,0,0:0:0:0:
145,51,90874,2,0,P|147:76|155:108,1,50,8|0,0:0|0:0,0:0:0:0:
18,238,91159,2,0,P|23:213|25:188,1,50,0|0,1:0|0:0,0:0:0:0:
184,253,91445,2,0,L|289:284,1,100,0|0,1:0|3:0,0:0:0:0:
332,232,91874,1,0,0:0:0:0:
130,383,92017,6,0,P|139:263|140:178,1,200,8|4,0:0|3:2,0:0:0:0:
196,137,92731,1,0,0:0:0:0:
28,148,92874,2,0,P|52:145|80:139,1,50,0|0,1:0|0:0,0:0:0:0:
196,137,93159,2,0,P|246:149|301:151,1,100,8|0,0:0|1:0,0:0:0:0:
352,105,93588,1,0,0:0:0:0:
477,194,93731,2,0,P|461:170|449:147,1,50,0|0,1:0|0:0,0:0:0:0:
309,279,94017,2,0,P|324:255|337:232,1,50,0|0,3:0|0:0,0:0:0:0:
512,301,94302,2,0,P|462:306|411:324,1,100,8|0,0:0|1:0,0:0:0:0:
233,384,94874,5,0,3:0:0:0:
233,384,95088,1,0,0:0:0:0:
233,384,95302,1,0,0:0:0:0:
299,240,95445,2,0,P|304:269|314:299,1,50,8|0,0:0|0:0,0:0:0:0:
142,338,95731,2,0,P|148:314|152:289,1,50,0|0,1:0|0:0,0:0:0:0:
30,165,96017,2,0,P|66:191|121:219,1,100,0|0,1:0|3:0,0:0:0:0:
253,144,96588,1,8,0:0:0:0:
151,123,96874,2,0,L|161:159,2,25,0|0|0,3:0|0:0|0:0,0:0:0:0:
290,52,97159,6,0,L|355:72,1,50,0|0,3:0|0:0,0:0:0:0:
443,203,97445,2,0,L|427:136,1,50,0|0,1:0|0:0,0:0:0:0:
502,25,97731,2,0,L|411:79,1,100,8|0,0:0|1:0,0:0:0:0:
502,25,98159,1,0,0:0:0:0:
289,172,98302,2,0,P|312:182|339:197,1,50,0|0,1:0|0:0,0:0:0:0:
454,290,98588,2,0,P|432:301|409:311,1,50,0|0,3:0|0:0,0:0:0:0:
266,384,98874,2,0,P|280:339|287:285,1,100,8|0,0:0|1:0,0:0:0:0:
209,89,99445,5,0,3:0:0:0:
209,89,99659,1,0,0:0:0:0:
209,89,99874,1,0,0:0:0:0:
350,153,100017,2,0,P|323:160|297:173,1,50,8|0,0:0|0:0,0:0:0:0:
142,264,100302,2,0,P|164:274|188:280,1,50,0|0,3:0|0:0,0:0:0:0:
207,185,100588,5,0,1:0:0:0:
252,377,100874,1,0,3:0:0:0:
289,304,101159,5,8,0:0:0:0:
129,353,101302,2,0,L|60:373,2,50,0|0|0,0:0|3:0|0:0,0:0:0:0:
21,323,101731,5,6,0:0:0:0:
208,170,110302,5,10,0:0:0:0:
306,211,110588,1,0,0:0:0:0:
302,0,110874,6,0,P|292:52|276:160,1,139.999995727539,4|10,3:2|0:0,0:0:0:0:
278,138,111731,1,0,0:0:0:0:
416,280,112017,6,0,P|405:210|392:141,1,139.999995727539,2|10,3:2|0:0,0:0:0:0:
392,141,112874,1,0,0:0:0:0:
337,207,113159,5,2,3:2:0:0:
186,167,113445,1,0,0:0:0:0:
146,318,113731,1,10,0:0:0:0:
297,358,114017,1,0,0:0:0:0:
297,358,114159,1,0,0:0:0:0:
297,358,114302,2,0,L|289:306,1,34.9999989318848,2|0,3:2|0:0,0:0:0:0:
238,266,114588,2,0,L|230:214,1,34.9999989318848
272,169,114874,1,8,0:0:0:0:
237,101,115445,5,2,3:2:0:0:
291,166,115636,1,2,3:2:0:0:
375,193,115826,1,0,3:0:0:0:
298,196,116017,5,10,3:2:0:0:
200,218,116207,1,2,3:2:0:0:
168,314,116398,1,0,3:0:0:0:
172,225,116588,5,2,3:2:0:0:
223,125,116779,1,2,3:2:0:0:
195,19,116969,1,0,3:0:0:0:
201,117,117159,5,10,3:2:0:0:
320,54,117350,1,2,3:2:0:0:
142,6,117540,1,0,3:0:0:0:
81,55,117731,6,0,P|91:129|93:230,1,139.999995727539,2|8,0:0|0:0,0:0:0:0:
101,201,118445,1,0,0:0:0:0:
101,201,118588,2,0,P|159:193|245:187,1,139.999995727539
316,204,119302,5,0,0:0:0:0:
263,258,119445,2,0,P|258:274|254:291,1,34.9999989318848,8|0,0:0|0:0,0:0:0:0:
296,351,119731,2,0,P|300:367|304:384,1,34.9999989318848,2|0,0:0|0:0,0:0:0:0:
448,321,120017,5,2,0:0:0:0:
391,259,120302,1,0,0:0:0:0:
483,196,120588,1,8,0:0:0:0:
357,106,120874,1,2,0:3:0:0:
437,63,121017,6,0,L|442:90,2,17.4999994659424,2|0|2,0:3|0:0|0:3,0:0:0:0:
345,89,121302,2,0,L|302:80,1,34.9999989318848,2|2,0:3|0:3,0:0:0:0:
345,89,121731,2,0,L|302:80,1,34.9999989318848,8|0,0:0|0:0,0:0:0:0:
237,159,122017,5,2,0:3:0:0:
162,178,122159,1,2,0:3:0:0:
66,135,122302,6,0,P|76:209|82:279,2,139.999995727539,2|8|2,0:3|0:0|0:3,0:0:0:0:
125,85,123588,1,2,0:3:0:0:
8,47,123731,1,2,0:3:0:0:
125,85,124017,1,8,0:0:0:0:
200,74,124159,1,2,0:3:0:0:
247,13,124302,1,2,0:3:0:0:
218,103,124445,1,2,0:3:0:0:
320,195,124588,6,0,P|313:175|309:139,1,44.999998626709,2|0,0:3|0:0,0:0:0:0:
160,220,124874,2,0,P|167:200|171:164,1,44.999998626709,2|0,0:3|0:0,0:0:0:0:
316,293,125159,2,0,L|410:315,1,89.9999972534181,8|2,0:0|0:3,0:0:0:0:
455,265,125588,1,0,0:0:0:0:
493,377,125731,2,0,P|488:355|485:329,1,44.999998626709,2|2,0:3|0:3,0:0:0:0:
394,210,126017,2,0,P|396:187|401:165,1,44.999998626709,2|2,0:3|0:3,0:0:0:0:
512,29,126302,5,8,0:0:0:0:
478,107,126445,1,2,0:3:0:0:
397,78,126588,1,2,0:3:0:0:
431,0,126731,1,2,0:3:0:0:
490,130,126874,5,2,3:2:0:0:
487,154,126945,1,0,0:0:0:0:
476,176,127017,1,0,0:0:0:0:
456,191,127088,1,0,0:0:0:0:
433,209,127159,1,0,0:0:0:0:
420,235,127231,1,0,0:0:0:0:
418,264,127302,1,0,0:0:0:0:
427,291,127374,1,0,0:0:0:0:
446,312,127445,2,0,L|479:305,7,22.4999993133545,10|0|0|0|2|0|0|2,0:0|0:0|0:0|0:0|0:0|0:0|0:0|0:0,0:0:0:0:
65,378,128588,5,8,0:0:0:0:
65,378,128874,1,2,3:2:0:0:
247,310,129159,6,0,P|239:195|234:79,1,225.000008583069,6|0,3:2|0:0,0:0:0:0:
376,232,129731,2,0,L|487:258,1,112.500004291535,10|0,0:0|0:0,0:0:0:0:
485,257,130017,1,0,0:0:0:0:
312,151,130159,2,0,L|269:163,1,37.5000014305115,0|0,3:0|0:0,0:0:0:0:
176,261,130302,2,0,P|185:228|192:171,1,75.0000028610231,2|0,0:0|0:0,0:0:0:0:
285,251,130588,2,0,P|290:288|300:324,1,75.0000028610231,2|0,3:2|0:0,0:0:0:0:
76,102,130874,6,0,P|152:90|228:74,2,150.000005722046,10|0|2,0:0|0:0|3:2,0:0:0:0:
76,25,131588,1,0,0:0:0:0:
143,179,131731,1,2,0:0:0:0:
23,164,131874,1,0,0:0:0:0:
23,164,131945,1,0,0:0:0:0:
23,164,132017,1,10,0:0:0:0:
306,41,132302,5,0,0:0:0:0:
201,106,132445,1,0,3:0:0:0:
305,199,132588,2,0,P|293:162|289:113,1,75.0000028610231,2|0,0:0|0:0,0:0:0:0:
212,223,132874,2,0,P|207:260|195:295,1,75.0000028610231,2|0,3:2|0:0,0:0:0:0:
408,328,133159,2,0,P|380:309|298:291,1,112.500004291535,10|0,0:0|0:0,0:0:0:0:
304,290,133445,1,0,0:0:0:0:
304,290,133517,1,0,0:0:0:0:
304,290,133588,1,0,0:0:0:0:
304,290,133659,1,0,0:0:0:0:
322,306,133731,6,0,P|329:342|333:379,1,75.0000028610231,2|0,3:2|0:0,0:0:0:0:
386,227,134017,2,0,P|389:189|397:153,1,75.0000028610231
152,139,134302,2,0,P|226:150|299:163,1,150.000005722046,10|2,0:0|0:0,0:0:0:0:
386,227,134731,1,0,3:0:0:0:
395,59,134874,6,0,P|387:100|372:141,1,75.0000028610231,2|0,0:0|0:0,0:0:0:0:
502,241,135159,2,0,P|490:205|483:168,1,75.0000028610231,0|0,3:0|0:0,0:0:0:0:
297,278,135445,2,0,L|142:313,1,150.000005722046,8|2,0:0|0:0,0:0:0:0:
17,82,136017,5,2,3:2:0:0:
17,82,136159,1,0,0:0:0:0:
136,165,136302,1,0,0:0:0:0:
136,165,136445,1,0,0:0:0:0:
12,259,136588,2,0,L|31:177,1,75.0000028610231,8|0,0:0|0:0,0:0:0:0:
12,259,136874,1,2,0:0:0:0:
181,61,137017,2,0,L|103:85,1,75.0000028610231,0|0,3:0|0:0,0:0:0:0:
109,83,137302,1,8,0:0:0:0:
249,212,137445,5,8,3:2:0:0:
136,165,137588,1,0,0:0:0:0:
337,155,137731,6,0,P|341:255|343:377,1,200,2|6,0:0|3:2,0:0:0:0:
342,354,138374,1,0,0:0:0:0:
342,354,138445,1,0,0:0:0:0:
342,354,138517,1,0,0:0:0:0:
342,354,138588,1,0,0:0:0:0:
425,303,138731,1,0,0:0:0:0:
316,258,138874,2,0,P|271:264|160:284,1,150.000005722046,10|0,0:0|0:0,0:0:0:0:
138,373,139302,6,0,P|177:360|212:357,1,75.0000028610231,0|2,3:0|0:0,0:0:0:0:
70,234,139588,2,0,P|90:289|94:326,2,75.0000028610231,0|2|0,0:0|3:2|0:0,0:0:0:0:
9,193,140017,1,10,0:0:0:0:
79,157,140159,1,0,0:0:0:0:
79,157,140231,1,0,0:0:0:0:
79,157,140302,1,0,0:0:0:0:
141,205,140445,1,0,0:0:0:0:
239,106,140588,6,0,P|184:126|147:130,1,75.0000028610231,2|0,3:2|0:0,0:0:0:0:
108,80,140874,1,2,0:0:0:0:
108,80,141017,1,0,0:0:0:0:
236,25,141159,2,0,P|285:34|394:58,1,150.000005722046,10|0,0:0|0:0,0:0:0:0:
459,47,141588,2,0,P|450:84|443:129,1,75.0000028610231,0|2,3:0|0:0,0:0:0:0:
372,136,141874,1,0,0:0:0:0:
417,249,142017,2,0,P|426:286|433:331,1,75.0000028610231,2|0,3:2|0:0,0:0:0:0:
340,208,142302,2,0,P|291:217|182:241,1,150.000005722046,10|0,0:0|0:0,0:0:0:0:
344,374,142731,5,0,0:0:0:0:
344,374,142802,1,0,0:0:0:0:
344,374,142874,2,0,P|337:332|333:295,1,75.0000028610231,2|0,3:2|0:0,0:0:0:0:
212,308,143159,1,0,0:0:0:0:
212,308,143302,1,0,0:0:0:0:
92,331,143445,2,0,P|99:289|103:252,1,75.0000028610231,10|0,0:0|0:0,0:0:0:0:
148,198,143731,1,2,0:0:0:0:
123,126,143874,1,0,3:0:0:0:
266,21,144017,6,0,P|270:58|288:188,1,150.000005722046,2|2,0:0|3:2,0:0:0:0:
348,212,144445,2,0,P|343:249|337:286,1,75.0000028610231,0|10,0:0|0:0,0:0:0:0:
276,329,144731,1,0,0:0:0:0:
276,329,144802,1,0,0:0:0:0:
276,329,144874,1,2,0:0:0:0:
337,375,145017,1,0,0:0:0:0:
448,272,145159,5,2,3:2:0:0:
431,199,145302,1,0,0:0:0:0:
416,127,145445,2,0,P|442:106|479:80,1,75.0000028610231
382,24,145731,2,0,P|378:88|344:200,1,150.000005722046,8|2,0:0|0:0,0:0:0:0:
340,348,146159,2,0,P|319:294|305:267,1,75.0000028610231,0|0,3:0|0:0,0:0:0:0:
167,175,146445,2,0,P|232:186|260:199,2,75.0000028610231,0|0|0,0:0|3:0|0:0,0:0:0:0:
167,175,147445,6,0,L|90:197,1,75.0000028610231,6|0,3:2|0:0,0:0:0:0:
284,121,147731,2,0,L|211:100,1,75.0000028610231
258,234,148017,2,0,P|302:222|423:213,1,150.000005722046,10|0,0:0|0:0,0:0:0:0:
459,156,148445,1,0,3:0:0:0:
305,149,148588,6,0,P|305:99|301:67,1,75.0000028610231,2|0,0:0|0:0,0:0:0:0:
256,211,148874,2,0,P|253:279|258:375,2,150.000005722046,2|10|0,3:2|0:0|3:0,0:0:0:0:
219,144,149588,1,0,0:0:0:0:
68,231,149731,6,0,P|6:285|-1:316,2,112.500004291535,2|0|0,3:2|0:0|0:0,0:0:0:0:
122,294,150302,2,0,L|221:271,2,75.0000028610231,8|0|0,0:0|0:0|0:0,0:0:0:0:
255,332,150731,1,0,0:0:0:0:
318,293,150874,6,0,B|354:298|354:298|369:348,1,75.0000028610231,2|0,0:0|0:0,0:0:0:0:
304,177,151159,2,0,B|268:182|268:182|253:232,1,75.0000028610231,2|0,3:2|0:0,0:0:0:0:
359,107,151445,2,0,B|396:126|396:126|377:223,1,150.000005722046,10|0,0:0|0:0,0:0:0:0:
394,227,151802,1,0,0:0:0:0:
394,227,151874,1,0,0:0:0:0:
394,227,151945,1,0,0:0:0:0:
394,227,152017,2,0,L|492:207,1,75.0000028610231,6|0,3:2|0:0,0:0:0:0:
502,142,152302,6,0,L|332:119,2,150.000005722046,0|10|2,0:0|0:0|0:0,0:0:0:0:
505,216,153017,1,0,3:0:0:0:
404,288,153159,2,0,L|417:375,1,75.0000028610231,2|0,0:0|0:0,0:0:0:0:
262,363,153445,2,0,P|294:321|298:202,2,150.000005722046,2|10|2,3:2|0:0|0:0,0:0:0:0:
186,353,154159,1,0,0:0:0:0:
39,301,154302,5,2,3:2:0:0:
110,268,154445,1,0,0:0:0:0:
102,343,154588,1,2,0:0:0:0:
39,301,154731,1,0,0:0:0:0:
14,194,154874,6,0,L|29:111,1,75.0000028610231,8|0,0:0|0:0,0:0:0:0:
91,182,155159,1,2,0:0:0:0:
166,65,155302,6,0,L|179:138,1,75.0000028610231,0|0,3:0|0:0,0:0:0:0:
244,183,155588,1,0,0:0:0:0:
327,307,155731,6,0,L|340:233,1,75.0000028610231,0|0,3:0|0:0,0:0:0:0:
395,171,156017,1,8,0:0:0:0:
491,208,156159,6,0,L|448:223,1,37.5000014305115,2|0,0:3|0:0,0:0:0:0:
142,377,156588,5,6,3:2:0:0:
142,377,156659,1,0,0:0:0:0:
142,377,156731,1,0,0:0:0:0:
142,377,156802,1,0,0:0:0:0:
142,377,156874,1,0,0:0:0:0:
308,321,157017,1,0,0:0:0:0:
127,282,157159,6,0,P|132:243|134:203,1,75.0000028610231,10|0,0:0|0:0,0:0:0:0:
133,207,157374,1,0,0:0:0:0:
133,207,157445,1,0,0:0:0:0:
211,292,157588,5,0,3:0:0:0:
301,246,157731,2,0,P|303:283|307:320,1,75.0000028610231,2|0,0:0|0:0,0:0:0:0:
403,133,158017,2,0,P|400:95|396:58,1,75.0000028610231,2|0,3:2|0:0,0:0:0:0:
222,80,158302,1,10,0:0:0:0:
236,92,158374,1,0,0:0:0:0:
252,100,158445,1,0,0:0:0:0:
269,105,158517,1,0,0:0:0:0:
287,106,158588,1,0,0:0:0:0:
313,13,158731,1,0,0:0:0:0:
175,158,158874,5,2,3:2:0:0:
95,179,159017,1,0,0:0:0:0:
34,272,159159,6,0,P|41:308|45:345,1,75.0000028610231
15,120,159445,2,0,P|7:83|3:46,1,75.0000028610231,10|0,0:0|0:0,0:0:0:0:
135,0,159731,6,0,L|183:12,1,37.5000014305115,2|0,0:0|0:0,0:0:0:0:
220,82,159874,2,0,L|268:94,1,37.5000014305115,0|0,3:0|0:0,0:0:0:0:
369,151,160017,6,0,L|297:171,1,75.0000028610231,2|0,0:0|0:0,0:0:0:0:
196,264,160302,2,0,L|268:284,1,75.0000028610231,2|0,3:2|0:0,0:0:0:0:
490,384,160588,6,0,P|473:301|465:223,1,150.000005722046,10|0,0:0|0:0,0:0:0:0:
378,49,161017,5,0,0:0:0:0:
378,49,161088,1,0,0:0:0:0:
378,49,161159,2,0,P|410:58|465:67,1,75.0000028610231,6|0,3:2|0:0,0:0:0:0:
326,146,161445,5,0,0:0:0:0:
291,70,161588,1,0,0:0:0:0:
243,177,161731,2,0,P|207:166|170:164,1,75.0000028610231,10|0,0:0|0:0,0:0:0:0:
169,164,161945,1,0,0:0:0:0:
169,164,162017,1,0,0:0:0:0:
274,352,162159,6,0,P|278:310|288:271,1,75.0000028610231,0|2,3:0|0:0,0:0:0:0:
95,292,162445,2,0,P|91:334|81:373,1,75.0000028610231,0|2,0:0|3:2,0:0:0:0:
194,269,162731,1,0,0:0:0:0:
31,209,162874,6,0,P|109:199|184:179,2,150.000005722046,8|2|0,0:0|0:0|3:0,0:0:0:0:
31,209,163517,1,0,0:0:0:0:
31,209,163588,1,0,0:0:0:0:
31,209,163659,1,0,0:0:0:0:
31,209,163731,1,2,0:0:0:0:
126,115,163874,5,0,0:0:0:0:
36,5,164017,2,0,P|35:41|29:91,1,75.0000028610231,8|0,0:0|0:0,0:0:0:0:
204,184,164302,5,2,0:0:0:0:
212,88,164445,2,0,P|216:125|217:162,1,75.0000028610231,0|0,3:0|0:0,0:0:0:0:
300,84,164731,5,0,0:0:0:0:
491,134,164874,2,0,B|401:116|432:155|341:152,2,150.000005722046,2|8|0,3:2|0:0|0:0,0:0:0:0:
479,54,165588,2,0,L|489:18,2,37.5000014305115,0|0|6,0:0|0:0|0:0,0:0:0:0:
