osu file format v14

[General]
AudioFilename: audio.mp3
AudioLeadIn: 0
PreviewTime: 11097
Countdown: 0
SampleSet: Soft
StackLeniency: 0.7
Mode: 0
LetterboxInBreaks: 0
WidescreenStoryboard: 1

[Editor]
DistanceSpacing: 0.49
BeatDivisor: 16
GridSize: 32
TimelineZoom: 2.5

[Metadata]
Title:B2 - An autumnal equinox
TitleUnicode:B2 - An autumnal equinox
Artist:The Caretaker
ArtistUnicode:The Caretaker
Creator:Velamy
Version:stage 6 - bluirre's dwindling memories
Source:
Tags:marlon merlone bluirre blu arutama itstwokay its two kay stage 1 everywhere at the end of time classical instrumental ambient slow calm piano Leyland Kirby turntable music hall ballroom dementia experimental In a little second hand store turner Layton & Clarence Johnstone 1933 l&j keysound keysounds keysounding
BeatmapID:4019497
BeatmapSetID:1590324

[Difficulty]
HPDrainRate:6
CircleSize:10
OverallDifficulty:6
ApproachRate:8
SliderMultiplier:0.7
SliderTickRate:1

[Events]
//Background and Video events
0,0,"stage 6.jpg",0,0
//Break Periods
//Storyboard Layer 0 (Background)
//Storyboard Layer 1 (Fail)
//Storyboard Layer 2 (Pass)
//Storyboard Layer 3 (Foreground)
//Storyboard Layer 4 (Overlay)
//Storyboard Sound Samples

[TimingPoints]
78,1000,4,2,3,34,1,0
78,-83.3333333333333,4,2,3,34,0,0
328,-83.3333333333333,4,2,20,5,0,0
411,-83.3333333333333,4,2,3,34,0,0
578,1100.91743119266,4,2,9,34,1,0
578,-83.3333333333333,4,2,9,34,0,0
1128,-83.3333333333333,4,2,20,5,0,0
1495,-83.3333333333333,4,2,20,5,0,0
1678,1224.48979591837,4,2,5,34,1,0
1678,-125,4,2,5,34,0,8
2137,-125,4,2,20,5,0,8
2290,1200,4,2,2,34,1,0
2290,-126.792447810922,4,2,2,34,0,8
2590,-126.792447810922,4,2,20,5,0,8
2665,-100,4,2,2,22,0,8
2890,923.076923076923,4,2,8,22,1,0
2890,-100,4,2,8,22,0,8
3236,-100,4,2,20,5,0,8
3351,1355.93220338983,4,2,7,34,1,0
3351,-83.3333333333333,4,2,7,34,0,0
4028,1387.28323699422,4,2,3,34,1,0
4028,-83.3333333333333,4,2,3,34,0,0
4721,1121.4953271028,4,2,10,34,1,0
4721,-76.9230769230769,4,2,10,34,0,0
5001,-76.9230769230769,4,2,20,5,0,0
5141,-100,4,2,10,16,0,0
5351,-100,4,2,20,5,0,0
5492,-133.333333333333,4,2,10,16,0,0
5702,-133.333333333333,4,2,20,5,0,0
5842,-76.9230769230769,4,2,3,34,0,0
6543,-76.9230769230769,4,2,20,5,0,0
6683,-200,4,2,9,24,0,8
7244,-100,4,2,9,24,0,8
7384,-100,4,2,20,5,0,8
7524,1237.11340206186,4,2,3,24,1,0
7524,-400,4,2,3,24,0,8
8142,-100,4,2,3,24,0,8
8297,-100,4,2,20,5,0,8
8451,1159.42028985507,4,2,10,24,1,0
8451,-125,4,2,10,14,0,8
9610,1487.91072535648,4,2,10,14,1,0
10792,-125,4,2,10,14,0,8
11097,1000,4,2,3,34,1,0
11097,-83.3333333333333,4,2,3,34,0,0
11347,-83.3333333333333,4,2,20,5,0,0
11430,-83.3333333333333,4,2,3,34,0,0
11597,1100.91743119266,4,2,9,34,1,0
11597,-83.3333333333333,4,2,9,34,0,0
12147,-83.3333333333333,4,2,20,5,0,0
12514,-83.3333333333333,4,2,20,5,0,0
12697,1224.48979591837,4,2,5,34,1,0
12697,-125,4,2,5,34,0,8
13156,-125,4,2,20,5,0,8
13309,1200,4,2,2,34,1,0
13309,-125.999998047352,4,2,2,34,0,8
13609,-125.999998047352,4,2,20,5,0,8
13684,-100,4,2,2,22,0,8
13909,923.076923076923,4,2,8,22,1,0
13909,-100,4,2,8,22,0,8
14197,-100,4,2,20,5,0,8
14370,1355.93220338983,4,2,7,34,1,0
14370,-83.3333333333333,4,2,7,29,0,0
15047,1387.28323699422,4,2,3,29,1,0
15047,-83.3333333333333,4,2,3,29,0,0
15740,1121.4953271028,4,2,10,34,1,0
15740,-76.9230769230769,4,2,10,34,0,0
16020,-76.9230769230769,4,2,20,5,0,0
16160,-100,4,2,10,16,0,0
16370,-100,4,2,20,5,0,0
16511,-133.333333333333,4,2,10,16,0,0
16721,-133.333333333333,4,2,20,5,0,0
16861,-76.9230769230769,4,2,3,34,0,0
17562,-76.9230769230769,4,2,20,5,0,0
17702,-200,4,2,9,24,0,8
18263,-100,4,2,9,24,0,8
18403,-100,4,2,20,5,0,8
18543,1237.11340206186,4,2,3,24,1,0
18543,-400,4,2,3,24,0,8
19161,-100,4,2,3,24,0,8
19316,-100,4,2,20,5,0,8
19470,1159.42028985507,4,2,10,24,1,0
19470,-125,4,2,10,14,0,8
20629,1480.56755089451,4,2,10,14,1,0
21807,-125,4,2,10,14,0,8
22109,1000,4,2,3,34,1,0
22109,-83.3333333333333,4,2,3,34,0,0
22359,-83.3333333333333,4,2,20,5,0,0
22442,-83.3333333333333,4,2,3,34,0,0
22609,1100.91743119266,4,2,9,34,1,0
22609,-100,4,2,9,34,0,0
23159,-100,4,2,20,5,0,0
23526,-100,4,2,20,5,0,0
23709,1224.48979591837,4,2,5,34,1,0
23709,-100,4,2,5,34,0,8
24091,-100,4,2,20,5,0,8
24321,1200,4,2,2,34,1,0
24321,-101.76767885089,4,2,2,34,0,8
24621,-101.76767885089,4,2,20,5,0,8
24696,-100,4,2,2,22,0,8
24921,923.076923076923,4,2,8,22,1,0
24921,-100,4,2,8,22,0,8
25267,-100,4,2,20,5,0,8
25382,1355.93220338983,4,2,7,34,1,0
25382,-100,4,2,7,29,0,8
26059,1387.28323699422,4,2,3,29,1,0
26059,-100,4,2,3,29,0,8
26405,-100,4,2,3,29,0,8
26752,1121.4953271028,4,2,10,34,1,0
26752,-83.3333333333333,4,2,10,34,0,0
27032,-83.3333333333333,4,2,20,5,0,0
27172,-100,4,2,10,16,0,0
27382,-100,4,2,20,5,0,0
27523,-200,4,2,10,16,0,0
27733,-200,4,2,20,5,0,0
27873,-76.9230769230769,4,2,3,34,0,0
28574,-76.9230769230769,4,2,20,5,0,0
28714,-200,4,2,9,24,0,8
29415,-200,4,2,20,5,0,8
29555,1237.11340206186,4,2,3,24,1,0
29555,-400,4,2,3,24,0,8
30173,-100,4,2,3,24,0,8
30328,-100,4,2,20,5,0,8
30482,1159.42028985507,4,2,10,24,1,0
30482,-100,4,2,10,14,0,8
31641,1485.14851485149,4,2,10,14,1,0
32822,-100,4,2,10,14,0,8
33126,1000,4,2,3,34,1,0
33126,-100,4,2,3,34,0,0
33376,-100,4,2,20,5,0,0
33459,-100,4,2,3,34,0,0
33626,1100.91743119266,4,2,9,34,1,0
33626,-100,4,2,9,34,0,0
34176,-100,4,2,20,5,0,0
34520,-100,4,2,20,5,0,0
34726,1224.48979591837,4,2,5,34,1,0
34726,-100,4,2,5,28,0,8
35185,-100,4,2,20,5,0,8
35338,1200,4,2,2,28,1,0
35338,-101.76767885089,4,2,2,28,0,8
35563,-101.76767885089,4,2,20,5,0,8
35713,-100,4,2,2,22,0,8
35938,923.076923076923,4,2,8,22,1,0
35938,-100,4,2,8,22,0,8
36224,-100,4,2,20,5,0,8
36399,1355.93220338983,4,2,7,22,1,0
36399,-100,4,2,7,16,0,8
37076,1387.28323699422,4,2,3,16,1,0
37076,-100,4,2,3,16,0,8
37422,-100,4,2,3,16,0,8
37769,1121.4953271028,4,2,10,16,1,0
37769,-76.9230769230769,4,2,10,16,0,0
38049,-76.9230769230769,4,2,20,5,0,0
38189,-200,4,2,10,11,0,0
38399,-200,4,2,20,5,0,0
38540,-400,4,2,10,11,0,0
38750,-400,4,2,20,5,0,0
38890,-76.9230769230769,4,2,3,14,0,0
39521,-76.9230769230769,4,2,20,5,0,0
39660,-200,4,2,9,14,0,8
40362,-200,4,2,20,5,0,8
40572,1237.11340206186,4,2,3,12,1,0
40572,-400,4,2,3,12,0,8
41345,-400,4,2,20,5,0,8
41499,1159.42028985507,4,2,10,12,1,0
41499,-100,4,2,10,12,0,8
42507,-100,4,2,20,5,0,8
42655,-100,4,2,10,10,0,8

[Colours]
Combo1 : 145,145,145
Combo2 : 0,128,192
Combo3 : 128,128,64
Combo4 : 119,189,140

[HitObjects]
0,390,78,6,0,B|10:387|15:390|18:400,1,20.9999993591309,6|0,0:0|0:0,0:0:0:0:
18,399,453,1,0,0:0:0:0:
0,411,578,2,0,L|71:397,1,73.4999977569581,2|0,0:1|0:0,0:0:0:0:
104,403,1678,2,0,B|98:414|86:412,1,21,2|0,0:1|0:0,0:0:0:0:
104,403,2290,2,0,B|106:400|113:399|117:402,1,13.8020836467308,2|0,0:1|0:0,0:0:0:0:
116,401,2665,1,2,0:1:0:0:
146,395,2890,2,0,P|161:401|171:399,1,26.25,2|0,0:1|0:0,0:0:0:0:
182,395,3351,2,0,L|224:404,1,41.9999987182618,2|2,0:1|0:1,0:0:0:0:
281,411,4721,2,0,P|273:403|276:390,1,22.7499989585877,6|0,0:0|0:0,0:0:0:0:
302,410,5141,2,0,B|299:405|299:399|302:395,1,13.125,2|0,0:1|0:0,0:0:0:0:
323,410,5492,2,0,B|321:408|323:404|326:402,1,9.84375037550928
348,399,5842,2,0,L|405:408,1,56.8749973964692,6|0,0:0|0:0,0:0:0:0:
406,410,6683,2,0,L|428:406,1,21.875,2|0,0:1|0:0,0:0:0:0:
429,404,7524,2,0,L|439:406,1,10.9375,2|0,0:1|0:0,0:0:0:0:
444,407,8451,1,6,0:0:0:0:
512,411,9537,1,2,0:1:0:0:
512,411,9610,1,6,0:0:0:0:
512,411,11097,6,0,B|505:411|505:411|497:411|494:403,1,20.9999993591309,6|0,0:0|0:0,0:0:0:0:
499,403,11472,1,0,0:0:0:0:
476,395,11597,2,0,B|468:399|468:399|405:408,1,73.4999977569581,2|0,0:1|0:0,0:0:0:0:
385,399,12697,2,0,B|379:388|367:390,1,21,2|0,0:1|0:0,0:0:0:0:
320,408,13309,2,0,B|324:405|331:406|333:409,1,13.8020836467308,2|0,0:1|0:0,0:0:0:0:
332,408,13684,1,2,0:1:0:0:
301,403,13909,2,0,P|284:406|275:400,1,26.25,2|0,0:1|0:0,0:0:0:0:
270,403,14370,2,0,B|257:412|257:412|229:410,1,41.9999987182618,2|2,0:1|0:1,0:0:0:0:
231,411,15740,2,0,B|239:403|236:398|236:398|236:390,1,22.7499989585877,6|0,0:0|0:0,0:0:0:0:
211,393,16160,2,0,B|212:395|212:395|213:399|208:404,1,13.125,2|0,0:1|0:0,0:0:0:0:
189,410,16511,2,0,B|191:408|189:404|186:402,1,9.84375037550928
164,399,16861,2,0,L|107:408,1,56.8749973964692,6|0,0:0|0:0,0:0:0:0:
106,410,17702,2,0,L|84:406,1,21.875,2|0,0:1|0:0,0:0:0:0:
83,404,18543,2,0,L|73:406,1,10.9375,2|0,0:1|0:0,0:0:0:0:
69,407,19470,1,6,0:0:0:0:
3,411,20556,1,2,0:1:0:0:
3,411,20629,1,6,0:0:0:0:
0,390,22109,6,0,B|10:387|14:396|22:396,1,20.9999993591309,6|0,0:0|0:0,0:0:0:0:
23,399,22484,1,0,0:0:0:0:
1,409,22609,2,0,B|6:412|6:412|10:410|10:410|50:405|50:405|57:409,1,56.875,2|0,0:1|0:0,0:0:0:0:
82,411,23709,2,0,B|94:413|98:407|104:405,1,21.875,2|0,0:1|0:0,0:0:0:0:
151,400,24321,2,0,B|147:396|138:397|135:401,1,17.1960296855219,2|0,0:1|0:0,0:0:0:0:
135,400,24696,1,2,0:1:0:0:
171,401,24921,2,0,B|179:408|179:408|187:405|196:405,1,26.25,2|0,0:1|0:0,0:0:0:0:
203,399,25382,2,0,B|209:407|209:407|216:399|231:408,1,35,2|2,0:1|0:1,0:0:0:0:
333,411,26752,2,0,B|328:408|328:408|333:400|328:390,1,20.9999993591309,6|0,0:0|0:0,0:0:0:0:
304,391,27172,2,0,B|307:396|305:400|305:400|309:403,1,13.125,2|0,0:1|0:0,0:0:0:0:
302,409,27523,2,0,B|301:405|304:403,1,6.5625
348,399,27873,2,0,P|385:404|405:408,1,56.8749973964692,6|0,0:0|0:0,0:0:0:0:
415,404,28714,2,0,P|426:404|437:400,1,21.875,2|0,0:1|0:0,0:0:0:0:
429,406,29555,2,0,P|435:411|439:408,1,10.9375,2|0,0:1|0:0,0:0:0:0:
445,410,30482,1,6,0:0:0:0:
512,411,31568,1,2,0:1:0:0:
512,411,31641,1,6,0:0:0:0:
494,403,33126,6,0,B|497:411|502:408|502:408|512:411,1,17.5,6|0,0:0|0:0,0:0:0:0:
512,411,33501,1,0,0:0:0:0:
512,388,33626,2,0,B|505:392|469:402|469:402|466:394|455:398,1,61.25,2|0,0:1|0:0,0:0:0:0:
432,406,34726,2,0,B|435:404|435:404|426:395|412:401,1,26.25,2|0,0:1|0:0,0:0:0:0:
385,412,35338,2,0,B|389:408|395:414|395:414|400:413,1,17.1960296855219,2|0,0:1|0:0,0:0:0:0:
400,412,35713,1,2,0:1:0:0:
363,404,35938,2,0,B|352:399|359:411|336:401,1,26.25,2|0,0:1|0:0,0:0:0:0:
326,406,36399,2,0,L|290:414,1,35,2|2,0:1|0:1,0:0:0:0:
260,411,37769,2,0,B|268:403|265:398|265:398|257:406,1,22.7499989585877,6|0,0:0|0:0,0:0:0:0:
238,399,38189,2,0,B|239:401|239:401|240:405|238:406,1,6.5625,2|0,0:1|0:0,0:0:0:0:
218,411,38540,2,0,B|219:409|218:408,1,3.28125
194,395,38890,2,0,P|189:400|144:400,1,56.8749973964692,6|0,0:0|0:0,0:0:0:0:
143,395,39731,2,0,B|150:399|140:409|131:401,1,21.875,2|0,0:1|0:0,0:0:0:0:
106,402,40572,2,0,L|96:404,1,10.9375,2|0,0:1|0:0,0:0:0:0:
92,414,41499,1,6,0:0:0:0:
