osu file format v14

[General]
AudioFilename: audio.mp3
AudioLeadIn: 0
PreviewTime: 11097
Countdown: 0
SampleSet: Soft
StackLeniency: 0.7
Mode: 0
LetterboxInBreaks: 0
WidescreenStoryboard: 1

[Editor]
DistanceSpacing: 0.49
BeatDivisor: 16
GridSize: 32
TimelineZoom: 4.299999

[Metadata]
Title:B2 - An autumnal equinox
TitleUnicode:B2 - An autumnal equinox
Artist:The Caretaker
ArtistUnicode:The Caretaker
Creator:Velamy
Version:stage 4 - difficult to grasp
Source:
Tags:marlon merlone bluirre blu arutama itstwokay its two kay stage 1 everywhere at the end of time classical instrumental ambient slow calm piano Leyland Kirby turntable music hall ballroom dementia experimental In a little second hand store turner Layton & Clarence Johnstone 1933 l&j keysound keysounds keysounding
BeatmapID:4019381
BeatmapSetID:1590324

[Difficulty]
HPDrainRate:5
CircleSize:6
OverallDifficulty:5
ApproachRate:6
SliderMultiplier:1.4
SliderTickRate:1

[Events]
//Background and Video events
0,0,"stage 4.jpg",0,0
//Break Periods
//Storyboard Layer 0 (Background)
//Storyboard Layer 1 (Fail)
//Storyboard Layer 2 (Pass)
//Storyboard Layer 3 (Foreground)
//Storyboard Layer 4 (Overlay)
//Storyboard Sound Samples

[TimingPoints]
78,1000,4,2,3,34,1,0
78,-80,4,2,3,34,0,0
578,1100.91743119266,4,2,9,34,1,0
581,-133.415378586412,4,2,9,34,0,0
1128,-133.415378586412,4,2,20,5,0,0
1678,1224.48979591837,4,2,5,34,1,0
2290,1200,4,2,2,34,1,0
2290,-100.960001290192,4,2,2,34,0,8
2665,-100.960001290192,4,2,2,22,0,8
2888,-99.200000756836,4,2,8,22,0,8
2890,923.076923076923,4,2,8,22,1,0
3351,1355.93220338983,4,2,7,34,1,0
4028,1387.28323699422,4,2,3,34,1,0
4028,-100,4,2,3,34,0,8
4721,1121.4953271028,4,2,10,34,1,0
5141,-100,4,2,10,16,0,0
5562,-100,4,2,20,5,0,0
5842,-100,4,2,3,34,0,0
6403,-100,4,2,3,24,0,0
6683,-100,4,2,9,34,0,0
7524,1237.11340206186,4,2,3,24,1,0
7524,-100,4,2,3,24,0,8
8142,-100,4,2,20,5,0,0
8451,1159.42028985507,4,2,10,24,1,0
8451,-400,4,2,10,14,0,0
9610,1487.91072535648,4,2,10,14,1,0
11097,1000,4,2,3,34,1,0
11097,-80,4,2,3,34,0,0
11596,-133.333333333333,4,2,9,34,0,0
11597,1100.91743119266,4,2,9,34,1,0
12147,-133.333333333333,4,2,20,5,0,0
12697,1224.48979591837,4,2,5,34,1,0
13309,1200,4,2,2,34,1,0
13309,-100.960001290192,4,2,2,34,0,8
13684,-100.960001290192,4,2,2,22,0,8
13909,923.076923076923,4,2,8,22,1,0
13909,-100,4,2,8,22,0,8
14370,1355.93220338983,4,2,7,34,1,0
15047,1387.28323699422,4,2,3,29,1,0
15047,-100,4,2,3,29,0,8
15740,1121.4953271028,4,2,10,34,1,0
16160,-100,4,2,10,16,0,0
16581,-100,4,2,20,5,0,0
16861,-100,4,2,3,34,0,0
17422,-100,4,2,20,5,0,0
17702,-100,4,2,9,24,0,0
18543,1237.11340206186,4,2,3,24,1,0
18543,-100,4,2,3,24,0,8
19161,-100,4,2,20,5,0,0
19470,1159.42028985507,4,2,10,24,1,0
19470,-400,4,2,10,14,0,0
20629,1480.56755089451,4,2,10,14,1,0
22109,1000,4,2,3,34,1,0
22109,-80,4,2,3,34,0,0
22442,-80,4,2,3,34,0,0
22609,1100.91743119266,4,2,9,34,1,0
22609,-133.333333333333,4,2,9,34,0,0
23159,-133.333333333333,4,2,20,5,0,0
23709,1224.48979591837,4,2,5,34,1,0
23709,-133.333333333333,4,2,5,34,0,0
24321,1200,4,2,2,34,1,0
24321,-134.613329653185,4,2,2,34,0,0
24696,-133.333333333333,4,2,2,22,0,0
24918,-132.266667675781,4,2,8,22,0,0
24921,923.076923076923,4,2,8,22,1,0
25382,1355.93220338983,4,2,7,34,1,0
25382,-133.333333333333,4,2,7,29,0,0
26059,1387.28323699422,4,2,3,29,1,0
26059,-133.333333333333,4,2,3,29,0,0
26752,1121.4953271028,4,2,10,34,1,0
26752,-133.333333333333,4,2,10,34,0,0
27172,-133.333333333333,4,2,10,16,0,0
27593,-133.333333333333,4,2,20,5,0,0
27873,-133.333333333333,4,2,3,34,0,0
28714,-133.333333333333,4,2,9,24,0,0
29275,-100,4,2,20,5,0,0
29555,1237.11340206186,4,2,3,24,1,0
29555,-133.333333333333,4,2,3,24,0,0
30482,1159.42028985507,4,2,10,24,1,0
30482,-200,4,2,10,14,0,0
31641,1485.14851485149,4,2,10,14,1,0
33126,1000,4,2,3,34,1,0
33126,-80,4,2,3,34,0,0
33459,-80,4,2,3,34,0,0
33626,1100.91743119266,4,2,9,34,1,0
33626,-133.333333333333,4,2,9,34,0,0
34176,-133.333333333333,4,2,20,5,0,0
34726,1224.48979591837,4,2,5,34,1,0
34726,-133.333333333333,4,2,5,28,0,8
35338,1200,4,2,2,28,1,0
35338,-134.613329653185,4,2,2,28,0,8
35698,-134.613329653185,4,2,2,22,0,8
35713,-133.333333333333,4,2,2,22,0,8
35938,923.076923076923,4,2,8,22,1,0
35938,-132.266667675781,4,2,8,22,0,8
36399,1355.93220338983,4,2,7,22,1,0
36399,-133.333333333333,4,2,7,16,0,8
37068,-133.333333333333,4,2,3,16,0,8
37076,1387.28323699422,4,2,3,16,1,0
37769,1121.4953271028,4,2,10,16,1,0
37769,-133.333333333333,4,2,10,15,0,0
38189,-133.333333333333,4,2,10,16,0,0
38610,-133.333333333333,4,2,20,5,0,0
38890,-133.333333333333,4,2,3,14,0,0
39660,-133.333333333333,4,2,9,14,0,8
40292,-100,4,2,20,5,0,0
40572,1237.11340206186,4,2,3,12,1,0
40572,-127.466655442472,4,2,3,12,0,8
41499,1159.42028985507,4,2,10,12,1,0
41499,-200,4,2,10,12,0,8

[Colours]
Combo1 : 0,128,128
Combo2 : 1,100,148
Combo3 : 191,191,0
Combo4 : 92,106,91

[HitObjects]
0,285,78,6,0,B|20:280|20:280|18:277|52:270|52:270|50:266|68:265,1,65.625,6|2,0:0|0:1,0:0:0:0:
93,279,578,1,2,0:1:0:0:
265,298,1678,1,2,0:1:0:0:
346,270,2290,2,0,P|381:264|393:267,1,43.3339940538179,2|2,0:1|0:1,0:0:0:0:
442,291,2890,1,2,0:1:0:0:
372,320,3351,1,2,0:1:0:0:
266,274,4028,1,2,0:1:0:0:
158,295,4721,2,0,B|155:297|155:297|149:298|149:298|139:292|139:292|115:294|115:294|105:301,2,52.5,6|2|2,0:0|0:1|0:1,0:0:0:0:
214,271,5842,2,0,B|222:257|234:259|238:274|238:274|250:271|250:271|255:282|265:288,1,70,6|0,0:0|0:0,0:0:0:0:
322,270,6683,1,2,0:1:0:0:
405,274,7524,2,0,P|451:266|478:265,1,70,2|0,0:1|0:0,0:0:0:0:
507,310,8451,1,6,0:0:0:0:
507,310,9610,1,6,0:0:0:0:
507,310,11097,6,0,B|489:296|489:296|489:302|462:295|462:295|457:291|439:290,1,65.625,6|2,0:0|0:1,0:0:0:0:
417,271,11597,1,2,0:1:0:0:
263,302,12697,1,2,0:1:0:0:
124,310,13309,2,0,B|121:287|121:287|115:281|115:266,1,43.3339940538179,2|2,0:1|0:1,0:0:0:0:
175,267,13909,1,2,0:1:0:0:
263,302,14370,1,2,0:1:0:0:
380,273,15047,1,2,0:1:0:0:
495,300,15740,2,0,B|467:314|468:314|442:311,2,52.5,6|2|2,0:0|0:1|0:1,0:0:0:0:
443,253,16861,2,0,B|417:254|417:254|411:267|411:267|397:268|381:278,1,70,6|0,0:0|0:0,0:0:0:0:
349,323,17702,1,2,0:1:0:0:
187,291,18543,2,0,B|152:293|149:304|117:301,1,70,2|0,0:1|0:0,0:0:0:0:
74,266,19470,1,6,0:0:0:0:
74,266,20629,1,6,0:0:0:0:
74,266,22109,6,0,B|96:265|96:265|104:272|104:272|122:269|141:275,1,65.625,6|2,0:0|0:1,0:0:0:0:
164,300,22609,1,2,0:1:0:0:
305,275,23709,1,2,0:1:0:0:
429,307,24321,2,0,B|439:286|439:286|441:274,1,32.5004967683701,2|2,0:1|0:1,0:0:0:0:
383,267,24921,1,2,0:1:0:0:
283,298,25382,1,2,0:1:0:0:
187,268,26059,1,2,0:1:0:0:
66,307,26752,2,0,B|49:313|32:304|25:305,2,39.3750015020371,6|2|2,0:0|0:1|0:1,0:0:0:0:
104,262,27873,1,6,0:0:0:0:
183,273,28714,2,0,B|191:276|204:273|204:273|223:273|233:280,1,52.5000020027161,2|0,0:1|0:0,0:0:0:0:
203,332,29555,1,2,0:1:0:0:
426,297,30482,1,6,0:0:0:0:
426,297,31641,1,6,0:0:0:0:
426,297,33126,6,0,P|398:316|362:317,1,65.625,6|2,0:0|0:1,0:0:0:0:
346,289,33626,1,2,0:1:0:0:
239,292,34726,1,2,0:1:0:0:
101,296,35338,2,0,P|104:282|114:266,1,32.5004967683701,2|2,0:1|0:1,0:0:0:0:
158,304,35938,1,2,0:1:0:0:
231,266,36399,1,2,0:1:0:0:
324,304,37076,1,2,0:1:0:0:
439,269,37769,2,0,B|450:268|450:268|459:264|459:264|465:266|465:266|478:262,2,39.3750015020371,6|2|2,0:0|0:1|0:1,0:0:0:0:
388,302,38890,1,6,0:0:0:0:
282,283,39731,1,2,0:1:0:0:
172,315,40572,2,0,B|122:306|142:308|93:292,1,82.3744865196424,2|6,0:1|0:0,0:0:0:0:
