osu file format v14

[General]
AudioFilename: audio.mp3
AudioLeadIn: 0
PreviewTime: -1
Countdown: 1
SampleSet: None
StackLeniency: 0.7
Mode: 0
LetterboxInBreaks: 0
WidescreenStoryboard: 0

[Editor]
DistanceSpacing: 1
BeatDivisor: 8
GridSize: 4
TimelineZoom: 1

[Metadata]
Title:Disturbia
TitleUnicode:Disturbia
Artist:The Cab
ArtistUnicode:The Cab
Creator:YuraDoter
Version:Hard
Source:
Tags:
BeatmapID:1332731
BeatmapSetID:631191

[Difficulty]
HPDrainRate:5
CircleSize:4
OverallDifficulty:5
ApproachRate:5
SliderMultiplier:1.4
SliderTickRate:1

[Events]
//Background and Video events
//Break Periods
//Storyboard Layer 0 (Background)
//Storyboard Layer 1 (Fail)
//Storyboard Layer 2 (Pass)
//Storyboard Layer 3 (Foreground)
//Storyboard Sound Samples

[TimingPoints]
19109.0930612274,480,4,1,0,100,1,0

[HitObjects]
131,138,19109,5,0,0:0:0:0:
287,173,19589,1,0,0:0:0:0:
315,294,20069,1,0,0:0:0:0:
156,267,20549,1,0,0:0:0:0:
110,128,21029,1,0,0:0:0:0:
286,97,21509,1,0,0:0:0:0:
386,211,21989,1,0,0:0:0:0:
308,310,22469,1,0,0:0:0:0:
115,93,22949,1,0,0:0:0:0:
332,69,23429,1,0,0:0:0:0:
328,240,23909,1,0,0:0:0:0:
115,201,24389,1,0,0:0:0:0:
213,88,24869,1,0,0:0:0:0:
358,141,25349,1,0,0:0:0:0:
329,277,25829,1,0,0:0:0:0:
144,212,26309,1,0,0:0:0:0:
174,40,26849,1,0,0:0:0:0:
310,48,27269,1,0,0:0:0:0:
350,213,27749,1,0,0:0:0:0:
250,279,28229,1,0,0:0:0:0:
121,237,28709,1,0,0:0:0:0:
189,87,29189,1,0,0:0:0:0:
369,111,29669,1,0,0:0:0:0:
340,269,30149,1,0,0:0:0:0:
168,133,30629,1,0,0:0:0:0:
362,94,31109,1,0,0:0:0:0:
350,253,31589,1,0,0:0:0:0:
143,223,32069,1,0,0:0:0:0:
273,85,32549,1,0,0:0:0:0:
352,246,33029,1,0,0:0:0:0:
176,214,33509,1,0,0:0:0:0:
88,58,33989,1,0,0:0:0:0:
104,230,34469,1,0,0:0:0:0:
315,232,34949,1,0,0:0:0:0:
313,91,35429,1,0,0:0:0:0:
102,90,35849,1,0,0:0:0:0:
308,128,36449,1,0,0:0:0:0:
233,267,36869,1,0,0:0:0:0:
387,266,37349,1,0,0:0:0:0:
371,111,37829,1,0,0:0:0:0:
189,160,38309,1,0,0:0:0:0:
249,302,38789,1,0,0:0:0:0:
91,111,39269,1,0,0:0:0:0:
264,83,39749,1,0,0:0:0:0:
233,230,40229,1,0,0:0:0:0:
190,313,40709,1,0,0:0:0:0:
418,230,41189,1,0,0:0:0:0:
271,71,41669,1,0,0:0:0:0:
123,130,42149,1,0,0:0:0:0:
129,275,42629,1,0,0:0:0:0:
148,75,43109,1,0,0:0:0:0:
124,258,43589,1,0,0:0:0:0:
119,74,44129,1,0,0:0:0:0:
112,225,44609,1,0,0:0:0:0:
305,102,45029,1,0,0:0:0:0:
252,226,45509,1,0,0:0:0:0:
387,95,45989,1,0,0:0:0:0:
118,113,46469,1,0,0:0:0:0:
245,250,46949,1,0,0:0:0:0:
250,71,47429,1,0,0:0:0:0:
376,265,47969,1,0,0:0:0:0:
201,96,48389,1,0,0:0:0:0:
131,235,48809,1,0,0:0:0:0:
325,145,49349,1,0,0:0:0:0:
259,284,49829,1,0,0:0:0:0:
115,186,50309,1,0,0:0:0:0:
208,96,50789,1,0,0:0:0:0:
254,268,51269,1,0,0:0:0:0:
117,81,51749,1,0,0:0:0:0:
116,224,52169,1,0,0:0:0:0:
258,139,52469,1,0,0:0:0:0:
355,91,52709,1,0,0:0:0:0:
257,250,53189,1,0,0:0:0:0:
114,215,53669,1,0,0:0:0:0:
272,130,54149,1,0,0:0:0:0:
323,244,54629,1,0,0:0:0:0:
198,247,55049,1,0,0:0:0:0:
91,134,55589,1,0,0:0:0:0:
150,245,56009,1,0,0:0:0:0:
244,187,56309,1,0,0:0:0:0:
339,97,56549,1,0,0:0:0:0:
180,239,57029,1,0,0:0:0:0:
95,188,57509,1,0,0:0:0:0:
349,185,57989,1,0,0:0:0:0:
169,300,58469,1,0,0:0:0:0:
163,113,59009,1,0,0:0:0:0:
275,259,59429,1,0,0:0:0:0:
145,263,59849,1,0,0:0:0:0:
197,120,60329,1,0,0:0:0:0:
244,243,60809,1,0,0:0:0:0:
313,208,61109,1,0,0:0:0:0:
323,81,61349,1,0,0:0:0:0:
271,72,61589,1,0,0:0:0:0:
87,171,61829,1,0,0:0:0:0:
73,269,62069,1,0,0:0:0:0:
245,255,62789,1,0,0:0:0:0:
273,138,63209,1,0,0:0:0:0:
125,83,63689,1,0,0:0:0:0:
98,234,64169,1,0,0:0:0:0:
236,271,64709,1,0,0:0:0:0:
309,98,65189,1,0,0:0:0:0:
332,234,65609,1,0,0:0:0:0:
146,275,66089,1,0,0:0:0:0:
149,131,66569,1,0,0:0:0:0:
248,97,67109,1,0,0:0:0:0:
324,161,67529,1,0,0:0:0:0:
330,280,68069,1,0,0:0:0:0:
122,266,68549,1,0,0:0:0:0:
159,99,69029,1,0,0:0:0:0:
303,136,69509,1,0,0:0:0:0:
329,303,69989,1,0,0:0:0:0:
88,185,70409,1,0,0:0:0:0:
274,95,70949,1,0,0:0:0:0:
287,240,71369,1,0,0:0:0:0:
149,233,71849,1,0,0:0:0:0:
331,96,72389,1,0,0:0:0:0:
367,244,72869,1,0,0:0:0:0:
161,208,73349,1,0,0:0:0:0:
346,71,73829,1,0,0:0:0:0:
318,221,74309,1,0,0:0:0:0:
174,236,74789,1,0,0:0:0:0:
410,106,75269,1,0,0:0:0:0:
181,177,75869,1,0,0:0:0:0:
361,153,76229,1,0,0:0:0:0:
143,220,76709,1,0,0:0:0:0:
308,262,77189,1,0,0:0:0:0:
116,137,80549,1,0,0:0:0:0:
345,170,81029,1,0,0:0:0:0:
222,256,81509,1,0,0:0:0:0:
120,203,82049,1,0,0:0:0:0:
306,96,82469,1,0,0:0:0:0:
385,246,83009,1,0,0:0:0:0:
147,228,83429,1,0,0:0:0:0:
123,121,83909,1,0,0:0:0:0:
345,115,84389,1,0,0:0:0:0:
341,266,84869,1,0,0:0:0:0:
127,255,85349,1,0,0:0:0:0:
159,84,85829,1,0,0:0:0:0:
401,106,86309,1,0,0:0:0:0:
374,282,86789,1,0,0:0:0:0:
148,262,87269,1,0,0:0:0:0:
199,101,87749,1,0,0:0:0:0:
443,119,88229,1,0,0:0:0:0:
410,288,88709,1,0,0:0:0:0:
162,258,89189,1,0,0:0:0:0:
204,105,89669,1,0,0:0:0:0:
396,137,90149,1,0,0:0:0:0:
389,282,90629,1,0,0:0:0:0:
204,289,91109,1,0,0:0:0:0:
153,135,91589,1,0,0:0:0:0:
390,134,92009,1,0,0:0:0:0:
383,276,92549,1,0,0:0:0:0:
203,270,93029,1,0,0:0:0:0:
183,121,93509,1,0,0:0:0:0:
376,95,93989,1,0,0:0:0:0:
375,248,94469,1,0,0:0:0:0:
161,228,94949,1,0,0:0:0:0:
178,97,95429,1,0,0:0:0:0:
406,80,95909,1,0,0:0:0:0:
385,244,96389,1,0,0:0:0:0:
205,243,96869,1,0,0:0:0:0:
195,88,97349,1,0,0:0:0:0:
367,49,97829,1,0,0:0:0:0:
367,222,98309,1,0,0:0:0:0:
168,220,98729,1,0,0:0:0:0:
159,75,99269,1,0,0:0:0:0:
333,93,99749,1,0,0:0:0:0:
380,280,100229,1,0,0:0:0:0:
152,255,100709,1,0,0:0:0:0:
188,81,101189,1,0,0:0:0:0:
340,89,101669,1,0,0:0:0:0:
343,232,102149,1,0,0:0:0:0:
181,240,102569,1,0,0:0:0:0:
275,108,102929,1,0,0:0:0:0:
358,243,103109,1,0,0:0:0:0:
164,187,103349,1,0,0:0:0:0:
282,108,104069,1,0,0:0:0:0:
383,146,104609,1,0,0:0:0:0:
197,242,104969,1,0,0:0:0:0:
87,118,105509,1,0,0:0:0:0:
190,215,105929,1,0,0:0:0:0:
335,81,106409,1,0,0:0:0:0:
331,245,106889,1,0,0:0:0:0:
148,201,107129,1,0,0:0:0:0:
176,102,107729,1,0,0:0:0:0:
277,147,108389,1,0,0:0:0:0:
300,225,108869,1,0,0:0:0:0:
197,254,109289,1,0,0:0:0:0:
129,191,109769,1,0,0:0:0:0:
220,122,110309,1,0,0:0:0:0:
289,209,110789,1,0,0:0:0:0:
125,235,111209,1,0,0:0:0:0:
328,213,111749,1,0,0:0:0:0:
147,204,112229,1,0,0:0:0:0:
313,168,112709,1,0,0:0:0:0:
177,79,113189,1,0,0:0:0:0:
330,113,113669,1,0,0:0:0:0:
165,226,114149,1,0,0:0:0:0:
310,143,114629,1,0,0:0:0:0:
153,227,115109,1,0,0:0:0:0:
314,253,115589,1,0,0:0:0:0:
251,91,116009,1,0,0:0:0:0:
125,211,116489,1,0,0:0:0:0:
309,221,117029,1,0,0:0:0:0:
144,212,117509,1,0,0:0:0:0:
232,98,117749,1,0,0:0:0:0:
349,168,117989,1,0,0:0:0:0:
160,239,118529,1,0,0:0:0:0:
110,115,118949,1,0,0:0:0:0:
286,146,119429,1,0,0:0:0:0:
352,234,119909,1,0,0:0:0:0:
201,265,120329,1,0,0:0:0:0:
104,194,120869,1,0,0:0:0:0:
269,102,121349,1,0,0:0:0:0:
370,103,121589,1,0,0:0:0:0:
414,211,121829,1,0,0:0:0:0:
130,259,122309,1,0,0:0:0:0:
156,143,122789,1,0,0:0:0:0:
375,82,123269,1,0,0:0:0:0:
187,109,123749,1,0,0:0:0:0:
293,248,124169,1,0,0:0:0:0:
116,257,124709,1,0,0:0:0:0:
170,96,125129,1,0,0:0:0:0:
367,98,125429,1,0,0:0:0:0:
350,263,125669,1,0,0:0:0:0:
111,207,126149,1,0,0:0:0:0:
172,101,126629,1,0,0:0:0:0:
324,116,127109,1,0,0:0:0:0:
219,233,127589,1,0,0:0:0:0:
138,133,128069,1,0,0:0:0:0:
255,115,128309,1,0,0:0:0:0:
340,191,128729,1,0,0:0:0:0:
182,271,129389,1,0,0:0:0:0:
162,118,129989,1,0,0:0:0:0:
378,72,130469,1,0,0:0:0:0:
354,209,130949,1,0,0:0:0:0:
169,254,131429,1,0,0:0:0:0:
131,107,131909,1,0,0:0:0:0:
250,88,132389,1,0,0:0:0:0:
352,124,132629,1,0,0:0:0:0:
396,160,132869,1,0,0:0:0:0:
401,237,133109,1,0,0:0:0:0:
337,286,133589,1,0,0:0:0:0:
265,292,133829,1,0,0:0:0:0:
167,266,134009,1,0,0:0:0:0:
101,166,134249,1,0,0:0:0:0:
114,97,134489,1,0,0:0:0:0:
225,24,134789,1,0,0:0:0:0:
351,78,135269,1,0,0:0:0:0:
374,195,135749,1,0,0:0:0:0:
189,213,136169,1,0,0:0:0:0:
145,175,136409,1,0,0:0:0:0:
128,103,136649,1,0,0:0:0:0:
174,70,136889,1,0,0:0:0:0:
326,82,137369,1,0,0:0:0:0:
395,154,137849,1,0,0:0:0:0:
364,229,138089,1,0,0:0:0:0:
298,262,138329,1,0,0:0:0:0:
187,240,138569,1,0,0:0:0:0:
189,114,139109,1,0,0:0:0:0:
301,84,139589,1,0,0:0:0:0:
397,191,140009,1,0,0:0:0:0:
315,226,140489,1,0,0:0:0:0:
177,162,141029,1,0,0:0:0:0:
122,139,141509,1,0,0:0:0:0:
144,250,141989,1,0,0:0:0:0:
272,249,142469,1,0,0:0:0:0:
393,179,142949,1,0,0:0:0:0:
164,157,143369,1,0,0:0:0:0:
323,124,143669,1,0,0:0:0:0:
368,232,144329,1,0,0:0:0:0:
166,219,144869,1,0,0:0:0:0:
406,197,145349,1,0,0:0:0:0:
201,177,145829,1,0,0:0:0:0:
456,252,146309,1,0,0:0:0:0:
196,309,146789,1,0,0:0:0:0:
408,78,147269,1,0,0:0:0:0:
163,95,147749,1,0,0:0:0:0:
440,260,148229,1,0,0:0:0:0:
189,143,148769,1,0,0:0:0:0:
384,185,149129,1,0,0:0:0:0:
197,144,149669,1,0,0:0:0:0:
388,106,150149,1,0,0:0:0:0:
206,170,150689,1,0,0:0:0:0:
380,102,151169,1,0,0:0:0:0:
216,197,151589,1,0,0:0:0:0:
162,62,152069,1,0,0:0:0:0:
271,223,152609,1,0,0:0:0:0:
440,117,153089,1,0,0:0:0:0:
174,137,153509,1,0,0:0:0:0:
356,275,153989,1,0,0:0:0:0:
306,60,154469,1,0,0:0:0:0:
141,117,154949,1,0,0:0:0:0:
308,270,155369,1,0,0:0:0:0:
457,40,155909,1,0,0:0:0:0:
95,183,156389,1,0,0:0:0:0:
97,306,156869,1,0,0:0:0:0:
344,272,157349,1,0,0:0:0:0:
88,125,157829,1,0,0:0:0:0:
420,133,158309,1,0,0:0:0:0:
160,284,158789,1,0,0:0:0:0:
95,114,159269,1,0,0:0:0:0:
362,86,159749,1,0,0:0:0:0:
267,270,160169,1,0,0:0:0:0:
71,182,160649,1,0,0:0:0:0:
299,93,161189,1,0,0:0:0:0:
265,299,161669,1,0,0:0:0:0:
480,99,162149,1,0,0:0:0:0:
225,128,162629,1,0,0:0:0:0:
180,171,163109,1,0,0:0:0:0:
180,171,164069,1,0,0:0:0:0:
180,171,165029,1,0,0:0:0:0:
359,171,166049,1,0,0:0:0:0:
359,171,166949,1,0,0:0:0:0:
205,110,167969,1,0,0:0:0:0:
235,279,168869,1,0,0:0:0:0:
254,126,169349,1,0,0:0:0:0:
257,261,169829,1,0,0:0:0:0:
275,117,170369,1,0,0:0:0:0:
275,257,170849,1,0,0:0:0:0:
244,111,171269,1,0,0:0:0:0:
108,202,171749,1,0,0:0:0:0:
227,141,172169,1,0,0:0:0:0:
452,43,172709,1,0,0:0:0:0:
289,133,173189,1,0,0:0:0:0:
419,59,173669,1,0,0:0:0:0:
289,133,174209,1,0,0:0:0:0:
419,59,174629,1,0,0:0:0:0:
289,133,175109,1,0,0:0:0:0:
424,70,175589,1,0,0:0:0:0:
345,116,176009,1,0,0:0:0:0:
148,240,176549,1,0,0:0:0:0:
261,258,177029,1,0,0:0:0:0:
351,254,177509,1,0,0:0:0:0:
402,218,177989,1,0,0:0:0:0:
366,110,178469,1,0,0:0:0:0:
219,87,178949,1,0,0:0:0:0:
132,179,179429,1,0,0:0:0:0:
153,256,179909,1,0,0:0:0:0:
249,258,180389,1,0,0:0:0:0:
372,163,180869,1,0,0:0:0:0:
340,75,181289,1,0,0:0:0:0:
177,107,181829,1,0,0:0:0:0:
110,162,182309,1,0,0:0:0:0:
135,254,182729,1,0,0:0:0:0:
208,271,183269,1,0,0:0:0:0:
282,216,183749,1,0,0:0:0:0:
282,120,184229,1,0,0:0:0:0:
170,75,184769,1,0,0:0:0:0:
329,85,185249,1,0,0:0:0:0:
381,153,185669,1,0,0:0:0:0:
362,216,186149,1,0,0:0:0:0:
298,255,186629,1,0,0:0:0:0:
252,257,187109,1,0,0:0:0:0:
195,229,187589,1,0,0:0:0:0:
187,122,188069,1,0,0:0:0:0:
233,74,188549,1,0,0:0:0:0:
310,62,189029,1,0,0:0:0:0:
371,85,189509,1,0,0:0:0:0:
377,171,189989,1,0,0:0:0:0:
280,217,190469,1,0,0:0:0:0:
112,216,190889,1,0,0:0:0:0:
160,133,191429,1,0,0:0:0:0:
274,113,191909,1,0,0:0:0:0:
98,237,192329,1,0,0:0:0:0:
376,91,192869,1,0,0:0:0:0:
171,216,193349,1,0,0:0:0:0:
361,103,193829,1,0,0:0:0:0:
161,204,194309,1,0,0:0:0:0:
349,99,194789,1,0,0:0:0:0:
191,184,195269,1,0,0:0:0:0:
356,98,195749,1,0,0:0:0:0:
209,172,196229,1,0,0:0:0:0:
344,112,196709,1,0,0:0:0:0:
222,171,197189,1,0,0:0:0:0:
371,98,197609,1,0,0:0:0:0:
159,183,197909,1,0,0:0:0:0:
285,285,198149,1,0,0:0:0:0:
324,102,198389,1,0,0:0:0:0:
164,156,198809,1,0,0:0:0:0:
255,271,199109,1,0,0:0:0:0:
381,148,199349,1,0,0:0:0:0:
135,81,199589,1,0,0:0:0:0:
211,236,199829,1,0,0:0:0:0:
436,132,200069,1,0,0:0:0:0:
186,74,200549,1,0,0:0:0:0:
196,147,204809,1,0,0:0:0:0:
267,149,205109,1,0,0:0:0:0:
248,250,205769,1,0,0:0:0:0:
132,202,206309,1,0,0:0:0:0:
192,122,206789,1,0,0:0:0:0:
315,144,207269,1,0,0:0:0:0:
301,266,207689,1,0,0:0:0:0:
64,233,208169,1,0,0:0:0:0:
127,115,208649,1,0,0:0:0:0:
293,111,209189,1,0,0:0:0:0:
306,239,209669,1,0,0:0:0:0:
99,270,210029,1,0,0:0:0:0:
118,163,210509,1,0,0:0:0:0:
278,112,211049,1,0,0:0:0:0:
328,194,211529,1,0,0:0:0:0:
127,264,212069,1,0,0:0:0:0:
171,134,212549,1,0,0:0:0:0:
319,127,213029,1,0,0:0:0:0:
336,248,213509,1,0,0:0:0:0:
143,236,213989,1,0,0:0:0:0:
180,97,214409,1,0,0:0:0:0:
342,117,214889,1,0,0:0:0:0:
321,272,215429,1,0,0:0:0:0:
152,222,215909,1,0,0:0:0:0:
183,92,216449,1,0,0:0:0:0:
341,114,216869,1,0,0:0:0:0:
318,243,217409,1,0,0:0:0:0:
180,233,217829,1,0,0:0:0:0:
180,91,218249,1,0,0:0:0:0:
405,101,218729,1,0,0:0:0:0:
436,278,219209,1,0,0:0:0:0:
115,267,219689,1,0,0:0:0:0:
404,136,220229,1,0,0:0:0:0:
173,116,220709,1,0,0:0:0:0:
224,228,221009,1,0,0:0:0:0:
224,237,221189,1,0,0:0:0:0:
400,225,221669,1,0,0:0:0:0:
367,93,222149,1,0,0:0:0:0:
150,84,222629,1,0,0:0:0:0:
89,127,223589,1,0,0:0:0:0:
98,120,224549,1,0,0:0:0:0:
255,94,225509,1,0,0:0:0:0:
255,94,226469,1,0,0:0:0:0:
249,225,227429,1,0,0:0:0:0:
249,225,228329,1,0,0:0:0:0:
416,144,229289,1,0,0:0:0:0:
293,137,230309,1,0,0:0:0:0:
294,123,231269,1,0,0:0:0:0:
401,285,232229,1,0,0:0:0:0:
133,210,233189,1,0,0:0:0:0:
343,171,234149,1,0,0:0:0:0:
137,207,235109,1,0,0:0:0:0:
315,200,236009,1,0,0:0:0:0:
166,173,237089,1,0,0:0:0:0:
308,223,237989,1,0,0:0:0:0:
122,119,238949,1,0,0:0:0:0:
260,138,239849,1,0,0:0:0:0:
335,219,241769,1,0,0:0:0:0:
