osu file format v14

[General]
AudioFilename: audio.mp3
AudioLeadIn: 0
PreviewTime: -1
Countdown: 1
SampleSet: Normal
StackLeniency: 0.7
Mode: 3
LetterboxInBreaks: 0
SpecialStyle: 0
WidescreenStoryboard: 0

[Editor]
DistanceSpacing: 0.9
BeatDivisor: 4
GridSize: 32
TimelineZoom: 1

[Metadata]
Title:Angel with a Shotgun (Nightcore)
TitleUnicode:Angel with a Shotgun (Nightcore)
Artist:The Cab
ArtistUnicode:The Cab
Creator:Minisora
Version:Insane
Source:The Cab
Tags:thecab angelwithashotgun nightcore
BeatmapID:1275922
BeatmapSetID:603953

[Difficulty]
HPDrainRate:8
CircleSize:4
OverallDifficulty:8
ApproachRate:5
SliderMultiplier:1.5
SliderTickRate:1

[Events]
//Background and Video events
//Break Periods
//Storyboard Layer 0 (Background)
//Storyboard Layer 1 (Fail)
//Storyboard Layer 2 (Pass)
//Storyboard Layer 3 (Foreground)
//Storyboard Layer 4 (Overlay)
//Storyboard Sound Samples

[TimingPoints]
949,420.875420875421,4,1,0,100,1,0
47350,-10000,4,1,0,100,0,0
48105,420.875420875421,4,1,0,100,1,0
94488,-10000,4,1,0,100,0,0
95235,420.875420875421,4,1,0,100,1,0
149202,-10000,4,1,0,100,0,0
150793,420.875420875421,4,1,0,100,1,0
176050,420.875420875421,4,1,0,100,1,0
176900,420.875420875421,4,1,0,100,1,0
177745,420.875420875421,4,1,0,100,1,0

[HitObjects]
64,192,949,128,0,2632:0:0:0:0:
320,192,949,128,0,5999:0:0:0:0:
448,192,2632,128,0,4316:0:0:0:0:
192,192,4316,128,0,7683:0:0:0:0:
64,192,5999,128,0,9366:0:0:0:0:
320,192,7683,128,0,12733:0:0:0:0:
192,192,8524,128,0,8945:0:0:0:0:
448,192,8945,1,0,0:0:0:0:
448,192,9366,128,0,11050:0:0:0:0:
64,192,10208,128,0,10629:0:0:0:0:
192,192,10629,1,0,0:0:0:0:
192,192,11050,128,0,14417:0:0:0:0:
64,192,11891,128,0,12312:0:0:0:0:
448,192,12312,1,0,0:0:0:0:
64,192,12733,128,0,14417:0:0:0:0:
320,192,13575,128,0,13996:0:0:0:0:
448,192,13996,1,0,0:0:0:0:
320,192,14417,1,0,0:0:0:0:
448,192,14417,1,0,0:0:0:0:
64,192,14837,1,0,0:0:0:0:
192,192,14837,1,0,0:0:0:0:
64,192,15258,1,0,0:0:0:0:
320,192,15258,1,0,0:0:0:0:
192,192,15679,1,0,0:0:0:0:
320,192,15890,1,0,0:0:0:0:
448,192,15890,1,0,0:0:0:0:
192,192,16100,1,0,0:0:0:0:
64,192,16521,1,0,0:0:0:0:
192,192,16521,1,0,0:0:0:0:
64,192,16942,1,0,0:0:0:0:
320,192,16942,1,0,0:0:0:0:
192,192,17363,1,0,0:0:0:0:
448,192,17363,1,0,0:0:0:0:
320,192,17784,1,0,0:0:0:0:
448,192,17784,1,0,0:0:0:0:
192,192,18204,1,0,0:0:0:0:
64,192,18204,1,0,0:0:0:0:
320,192,18625,1,0,0:0:0:0:
64,192,18625,1,0,0:0:0:0:
192,192,19046,1,0,0:0:0:0:
448,192,19257,1,0,0:0:0:0:
320,192,19257,1,0,0:0:0:0:
192,192,19467,1,0,0:0:0:0:
64,192,19888,1,0,0:0:0:0:
192,192,19888,1,0,0:0:0:0:
64,192,20309,5,0,0:0:0:0:
320,192,20309,1,0,0:0:0:0:
192,192,20730,1,0,0:0:0:0:
448,192,20730,1,0,0:0:0:0:
64,192,20940,1,0,0:0:0:0:
64,192,21151,1,0,0:0:0:0:
320,192,21151,1,0,0:0:0:0:
192,192,21151,1,0,0:0:0:0:
448,192,21256,1,0,0:0:0:0:
192,192,21361,1,0,0:0:0:0:
64,192,21466,1,0,0:0:0:0:
320,192,21571,1,0,0:0:0:0:
448,192,21571,1,0,0:0:0:0:
192,192,21677,1,0,0:0:0:0:
320,192,21782,1,0,0:0:0:0:
64,192,21887,1,0,0:0:0:0:
448,192,21992,1,0,0:0:0:0:
320,192,22097,1,0,0:0:0:0:
64,192,22203,1,0,0:0:0:0:
192,192,22203,1,0,0:0:0:0:
448,192,22203,1,0,0:0:0:0:
320,192,22308,1,0,0:0:0:0:
448,192,22413,1,0,0:0:0:0:
192,192,22413,1,0,0:0:0:0:
64,192,22518,1,0,0:0:0:0:
320,192,22624,1,0,0:0:0:0:
192,192,22729,1,0,0:0:0:0:
320,192,22834,1,0,0:0:0:0:
64,192,22834,1,0,0:0:0:0:
448,192,22834,1,0,0:0:0:0:
192,192,22939,1,0,0:0:0:0:
448,192,23044,1,0,0:0:0:0:
64,192,23150,1,0,0:0:0:0:
192,192,23255,1,0,0:0:0:0:
320,192,23255,1,0,0:0:0:0:
448,192,23360,1,0,0:0:0:0:
64,192,23465,1,0,0:0:0:0:
320,192,23571,1,0,0:0:0:0:
192,192,23676,1,0,0:0:0:0:
448,192,23781,1,0,0:0:0:0:
320,192,23886,1,0,0:0:0:0:
192,192,23886,1,0,0:0:0:0:
64,192,23886,1,0,0:0:0:0:
448,192,23991,1,0,0:0:0:0:
192,192,24097,1,0,0:0:0:0:
64,192,24097,1,0,0:0:0:0:
320,192,24202,1,0,0:0:0:0:
448,192,24307,1,0,0:0:0:0:
192,192,24307,1,0,0:0:0:0:
64,192,24412,1,0,0:0:0:0:
192,192,24518,1,0,0:0:0:0:
320,192,24518,1,0,0:0:0:0:
448,192,24518,1,0,0:0:0:0:
64,192,24623,1,0,0:0:0:0:
448,192,24728,1,0,0:0:0:0:
64,192,24833,1,0,0:0:0:0:
192,192,24938,1,0,0:0:0:0:
320,192,24938,1,0,0:0:0:0:
448,192,25044,1,0,0:0:0:0:
64,192,25149,1,0,0:0:0:0:
448,192,25254,1,0,0:0:0:0:
320,192,25359,1,0,0:0:0:0:
192,192,25464,1,0,0:0:0:0:
64,192,25570,1,0,0:0:0:0:
320,192,25570,1,0,0:0:0:0:
448,192,25570,1,0,0:0:0:0:
192,192,25675,1,0,0:0:0:0:
320,192,25780,1,0,0:0:0:0:
448,192,25780,1,0,0:0:0:0:
64,192,25885,1,0,0:0:0:0:
448,192,25991,1,0,0:0:0:0:
192,192,26096,1,0,0:0:0:0:
64,192,26201,1,0,0:0:0:0:
448,192,26201,1,0,0:0:0:0:
320,192,26201,1,0,0:0:0:0:
192,192,26306,1,0,0:0:0:0:
64,192,26411,1,0,0:0:0:0:
448,192,26517,1,0,0:0:0:0:
320,192,26622,1,0,0:0:0:0:
192,192,26622,1,0,0:0:0:0:
64,192,26727,1,0,0:0:0:0:
448,192,26832,1,0,0:0:0:0:
192,192,26938,1,0,0:0:0:0:
320,192,27043,1,0,0:0:0:0:
448,192,27148,1,0,0:0:0:0:
320,192,27253,1,0,0:0:0:0:
64,192,27253,1,0,0:0:0:0:
192,192,27253,1,0,0:0:0:0:
448,192,27358,1,0,0:0:0:0:
192,192,27464,1,0,0:0:0:0:
64,192,27464,1,0,0:0:0:0:
320,192,27569,1,0,0:0:0:0:
64,192,27674,1,0,0:0:0:0:
192,192,27674,1,0,0:0:0:0:
448,192,27779,1,0,0:0:0:0:
64,192,27885,1,0,0:0:0:0:
320,192,27885,1,0,0:0:0:0:
192,192,27885,1,0,0:0:0:0:
448,192,27990,1,0,0:0:0:0:
192,192,28095,1,0,0:0:0:0:
64,192,28200,1,0,0:0:0:0:
320,192,28305,1,0,0:0:0:0:
448,192,28305,1,0,0:0:0:0:
192,192,28411,1,0,0:0:0:0:
320,192,28516,1,0,0:0:0:0:
64,192,28621,1,0,0:0:0:0:
448,192,28726,1,0,0:0:0:0:
320,192,28831,1,0,0:0:0:0:
64,192,28937,1,0,0:0:0:0:
192,192,28937,1,0,0:0:0:0:
448,192,28937,1,0,0:0:0:0:
320,192,29042,1,0,0:0:0:0:
448,192,29147,1,0,0:0:0:0:
192,192,29147,1,0,0:0:0:0:
64,192,29252,1,0,0:0:0:0:
320,192,29358,1,0,0:0:0:0:
192,192,29463,1,0,0:0:0:0:
320,192,29568,1,0,0:0:0:0:
64,192,29568,1,0,0:0:0:0:
448,192,29568,1,0,0:0:0:0:
192,192,29673,1,0,0:0:0:0:
448,192,29778,1,0,0:0:0:0:
64,192,29884,1,0,0:0:0:0:
192,192,29989,1,0,0:0:0:0:
320,192,29989,1,0,0:0:0:0:
448,192,30094,1,0,0:0:0:0:
64,192,30199,1,0,0:0:0:0:
320,192,30305,1,0,0:0:0:0:
192,192,30410,1,0,0:0:0:0:
448,192,30515,1,0,0:0:0:0:
320,192,30620,1,0,0:0:0:0:
192,192,30620,1,0,0:0:0:0:
64,192,30620,1,0,0:0:0:0:
448,192,30725,1,0,0:0:0:0:
192,192,30831,1,0,0:0:0:0:
64,192,30831,1,0,0:0:0:0:
320,192,30936,1,0,0:0:0:0:
448,192,31041,1,0,0:0:0:0:
192,192,31041,1,0,0:0:0:0:
64,192,31146,1,0,0:0:0:0:
192,192,31252,1,0,0:0:0:0:
320,192,31252,1,0,0:0:0:0:
448,192,31252,1,0,0:0:0:0:
64,192,31357,1,0,0:0:0:0:
448,192,31462,1,0,0:0:0:0:
64,192,31567,1,0,0:0:0:0:
192,192,31672,1,0,0:0:0:0:
320,192,31672,1,0,0:0:0:0:
448,192,31778,1,0,0:0:0:0:
64,192,31883,1,0,0:0:0:0:
448,192,31988,1,0,0:0:0:0:
320,192,32093,1,0,0:0:0:0:
192,192,32199,1,0,0:0:0:0:
64,192,32304,1,0,0:0:0:0:
320,192,32304,1,0,0:0:0:0:
448,192,32304,1,0,0:0:0:0:
192,192,32409,1,0,0:0:0:0:
320,192,32514,1,0,0:0:0:0:
448,192,32514,1,0,0:0:0:0:
64,192,32619,1,0,0:0:0:0:
448,192,32725,1,0,0:0:0:0:
192,192,32830,1,0,0:0:0:0:
64,192,32935,1,0,0:0:0:0:
448,192,32935,1,0,0:0:0:0:
320,192,32935,1,0,0:0:0:0:
192,192,33040,1,0,0:0:0:0:
64,192,33145,1,0,0:0:0:0:
448,192,33251,1,0,0:0:0:0:
320,192,33356,1,0,0:0:0:0:
192,192,33356,1,0,0:0:0:0:
64,192,33461,1,0,0:0:0:0:
448,192,33566,1,0,0:0:0:0:
192,192,33672,1,0,0:0:0:0:
320,192,33777,1,0,0:0:0:0:
448,192,33882,1,0,0:0:0:0:
320,192,33987,1,0,0:0:0:0:
64,192,33987,1,0,0:0:0:0:
192,192,33987,1,0,0:0:0:0:
448,192,34092,1,0,0:0:0:0:
192,192,34198,1,0,0:0:0:0:
64,192,34198,1,0,0:0:0:0:
320,192,34303,1,0,0:0:0:0:
64,192,34408,1,0,0:0:0:0:
192,192,34408,1,0,0:0:0:0:
448,192,34513,1,0,0:0:0:0:
192,192,34619,1,0,0:0:0:0:
320,192,34619,1,0,0:0:0:0:
448,192,34619,1,0,0:0:0:0:
192,192,35039,1,0,0:0:0:0:
320,192,35039,1,0,0:0:0:0:
64,192,35355,1,0,0:0:0:0:
192,192,35460,128,0,35671:0:0:0:0:
320,192,35460,128,0,36092:0:0:0:0:
448,192,35671,128,0,35881:0:0:0:0:
192,192,35881,128,0,36302:0:0:0:0:
64,192,36092,128,0,36302:0:0:0:0:
320,192,36302,1,0,0:0:0:0:
192,192,36723,1,0,0:0:0:0:
320,192,36723,1,0,0:0:0:0:
64,192,37039,1,0,0:0:0:0:
64,192,37144,128,0,37354:0:0:0:0:
192,192,37144,128,0,37565:0:0:0:0:
320,192,37354,128,0,37986:0:0:0:0:
448,192,37565,128,0,37775:0:0:0:0:
192,192,37775,128,0,37986:0:0:0:0:
448,192,37986,1,0,0:0:0:0:
448,192,38406,1,0,0:0:0:0:
320,192,38406,1,0,0:0:0:0:
64,192,38722,1,0,0:0:0:0:
320,192,38827,128,0,39459:0:0:0:0:
192,192,38827,128,0,39038:0:0:0:0:
448,192,39038,128,0,39248:0:0:0:0:
192,192,39248,128,0,39669:0:0:0:0:
64,192,39459,128,0,39669:0:0:0:0:
448,192,39669,1,0,0:0:0:0:
192,192,40090,1,0,0:0:0:0:
448,192,40090,1,0,0:0:0:0:
64,192,40406,1,0,0:0:0:0:
192,192,40511,128,0,40721:0:0:0:0:
320,192,40511,128,0,41142:0:0:0:0:
448,192,40721,128,0,40932:0:0:0:0:
192,192,40932,128,0,41353:0:0:0:0:
64,192,41142,128,0,41353:0:0:0:0:
320,192,41353,1,0,0:0:0:0:
192,192,41773,1,0,0:0:0:0:
320,192,41773,1,0,0:0:0:0:
64,192,42089,1,0,0:0:0:0:
192,192,42194,128,0,42405:0:0:0:0:
320,192,42194,128,0,42826:0:0:0:0:
448,192,42405,128,0,42615:0:0:0:0:
192,192,42615,128,0,43036:0:0:0:0:
64,192,42826,128,0,43036:0:0:0:0:
320,192,43036,1,0,0:0:0:0:
192,192,43457,1,0,0:0:0:0:
320,192,43457,1,0,0:0:0:0:
64,192,43773,1,0,0:0:0:0:
64,192,43878,128,0,44088:0:0:0:0:
192,192,43878,128,0,44299:0:0:0:0:
320,192,44088,128,0,44720:0:0:0:0:
448,192,44299,128,0,44509:0:0:0:0:
192,192,44509,128,0,44720:0:0:0:0:
448,192,44720,1,0,0:0:0:0:
448,192,45140,1,0,0:0:0:0:
320,192,45140,1,0,0:0:0:0:
64,192,45456,1,0,0:0:0:0:
320,192,45561,128,0,46193:0:0:0:0:
192,192,45561,128,0,45772:0:0:0:0:
448,192,45772,128,0,45982:0:0:0:0:
192,192,45982,128,0,46403:0:0:0:0:
64,192,46193,128,0,46403:0:0:0:0:
448,192,46403,1,0,0:0:0:0:
192,192,46613,1,0,0:0:0:0:
320,192,46613,1,0,0:0:0:0:
448,192,46824,1,0,0:0:0:0:
64,192,46824,1,0,0:0:0:0:
192,192,47034,1,0,0:0:0:0:
320,192,47034,1,0,0:0:0:0:
64,192,47245,1,0,0:0:0:0:
192,192,47245,1,0,0:0:0:0:
320,192,47245,1,0,0:0:0:0:
448,192,47245,1,0,0:0:0:0:
64,192,48087,1,0,0:0:0:0:
320,192,48087,1,0,0:0:0:0:
192,192,48087,1,0,0:0:0:0:
448,192,48210,1,0,0:0:0:0:
192,192,48315,1,0,0:0:0:0:
64,192,48420,1,0,0:0:0:0:
320,192,48525,1,0,0:0:0:0:
448,192,48525,1,0,0:0:0:0:
192,192,48631,1,0,0:0:0:0:
64,192,48736,1,0,0:0:0:0:
320,192,48841,1,0,0:0:0:0:
448,192,48841,1,0,0:0:0:0:
192,192,48946,1,0,0:0:0:0:
320,192,48946,1,0,0:0:0:0:
448,192,49051,1,0,0:0:0:0:
64,192,49157,1,0,0:0:0:0:
192,192,49157,1,0,0:0:0:0:
448,192,49157,1,0,0:0:0:0:
320,192,49262,1,0,0:0:0:0:
448,192,49367,1,0,0:0:0:0:
192,192,49367,1,0,0:0:0:0:
64,192,49472,1,0,0:0:0:0:
320,192,49578,1,0,0:0:0:0:
192,192,49683,1,0,0:0:0:0:
320,192,49788,1,0,0:0:0:0:
64,192,49788,1,0,0:0:0:0:
448,192,49788,1,0,0:0:0:0:
192,192,49893,1,0,0:0:0:0:
448,192,49998,1,0,0:0:0:0:
64,192,50104,1,0,0:0:0:0:
192,192,50209,1,0,0:0:0:0:
320,192,50209,1,0,0:0:0:0:
448,192,50314,1,0,0:0:0:0:
64,192,50419,1,0,0:0:0:0:
320,192,50525,1,0,0:0:0:0:
448,192,50525,1,0,0:0:0:0:
320,192,50630,1,0,0:0:0:0:
192,192,50630,1,0,0:0:0:0:
448,192,50735,1,0,0:0:0:0:
320,192,50840,1,0,0:0:0:0:
192,192,50840,1,0,0:0:0:0:
64,192,50840,1,0,0:0:0:0:
448,192,50945,1,0,0:0:0:0:
192,192,51051,1,0,0:0:0:0:
64,192,51051,1,0,0:0:0:0:
320,192,51156,1,0,0:0:0:0:
192,192,51261,1,0,0:0:0:0:
64,192,51366,1,0,0:0:0:0:
192,192,51472,1,0,0:0:0:0:
320,192,51472,1,0,0:0:0:0:
448,192,51472,1,0,0:0:0:0:
64,192,51577,1,0,0:0:0:0:
320,192,51682,1,0,0:0:0:0:
448,192,51787,1,0,0:0:0:0:
192,192,51892,1,0,0:0:0:0:
320,192,51892,1,0,0:0:0:0:
64,192,51998,1,0,0:0:0:0:
448,192,52103,1,0,0:0:0:0:
64,192,52208,1,0,0:0:0:0:
192,192,52208,1,0,0:0:0:0:
320,192,52313,1,0,0:0:0:0:
192,192,52313,1,0,0:0:0:0:
64,192,52418,1,0,0:0:0:0:
64,192,52524,1,0,0:0:0:0:
320,192,52524,1,0,0:0:0:0:
448,192,52524,1,0,0:0:0:0:
192,192,52629,1,0,0:0:0:0:
320,192,52734,1,0,0:0:0:0:
448,192,52734,1,0,0:0:0:0:
64,192,52839,1,0,0:0:0:0:
448,192,52945,1,0,0:0:0:0:
192,192,53050,1,0,0:0:0:0:
64,192,53155,1,0,0:0:0:0:
320,192,53155,1,0,0:0:0:0:
448,192,53155,1,0,0:0:0:0:
192,192,53260,1,0,0:0:0:0:
64,192,53365,1,0,0:0:0:0:
448,192,53471,1,0,0:0:0:0:
192,192,53576,1,0,0:0:0:0:
320,192,53576,1,0,0:0:0:0:
448,192,53681,1,0,0:0:0:0:
192,192,53786,1,0,0:0:0:0:
64,192,53892,1,0,0:0:0:0:
320,192,53892,1,0,0:0:0:0:
192,192,53997,1,0,0:0:0:0:
448,192,53997,1,0,0:0:0:0:
320,192,54102,1,0,0:0:0:0:
192,192,54207,1,0,0:0:0:0:
64,192,54207,1,0,0:0:0:0:
320,192,54207,1,0,0:0:0:0:
448,192,54312,1,0,0:0:0:0:
192,192,54418,1,0,0:0:0:0:
64,192,54418,1,0,0:0:0:0:
320,192,54418,1,0,0:0:0:0:
448,192,54523,1,0,0:0:0:0:
64,192,54628,1,0,0:0:0:0:
448,192,54733,1,0,0:0:0:0:
64,192,54839,1,0,0:0:0:0:
320,192,54839,1,0,0:0:0:0:
192,192,54839,1,0,0:0:0:0:
448,192,54944,1,0,0:0:0:0:
192,192,55049,1,0,0:0:0:0:
64,192,55154,1,0,0:0:0:0:
320,192,55259,1,0,0:0:0:0:
448,192,55259,1,0,0:0:0:0:
192,192,55365,1,0,0:0:0:0:
64,192,55470,1,0,0:0:0:0:
320,192,55575,1,0,0:0:0:0:
448,192,55575,1,0,0:0:0:0:
192,192,55680,1,0,0:0:0:0:
320,192,55680,1,0,0:0:0:0:
448,192,55785,1,0,0:0:0:0:
64,192,55891,1,0,0:0:0:0:
192,192,55891,1,0,0:0:0:0:
448,192,55891,1,0,0:0:0:0:
320,192,55996,1,0,0:0:0:0:
448,192,56101,1,0,0:0:0:0:
192,192,56101,1,0,0:0:0:0:
64,192,56206,1,0,0:0:0:0:
320,192,56312,1,0,0:0:0:0:
192,192,56417,1,0,0:0:0:0:
320,192,56522,1,0,0:0:0:0:
64,192,56522,1,0,0:0:0:0:
448,192,56522,1,0,0:0:0:0:
192,192,56627,1,0,0:0:0:0:
448,192,56732,1,0,0:0:0:0:
64,192,56838,1,0,0:0:0:0:
192,192,56943,1,0,0:0:0:0:
320,192,56943,1,0,0:0:0:0:
448,192,57048,1,0,0:0:0:0:
64,192,57153,1,0,0:0:0:0:
320,192,57259,1,0,0:0:0:0:
448,192,57259,1,0,0:0:0:0:
320,192,57364,1,0,0:0:0:0:
192,192,57364,1,0,0:0:0:0:
448,192,57469,1,0,0:0:0:0:
320,192,57574,1,0,0:0:0:0:
192,192,57574,1,0,0:0:0:0:
64,192,57574,1,0,0:0:0:0:
448,192,57679,1,0,0:0:0:0:
192,192,57785,1,0,0:0:0:0:
64,192,57785,1,0,0:0:0:0:
320,192,57890,1,0,0:0:0:0:
192,192,57995,1,0,0:0:0:0:
64,192,58100,1,0,0:0:0:0:
192,192,58206,1,0,0:0:0:0:
320,192,58206,1,0,0:0:0:0:
448,192,58206,1,0,0:0:0:0:
64,192,58311,1,0,0:0:0:0:
320,192,58416,1,0,0:0:0:0:
448,192,58521,1,0,0:0:0:0:
192,192,58626,1,0,0:0:0:0:
320,192,58626,1,0,0:0:0:0:
64,192,58732,1,0,0:0:0:0:
448,192,58837,1,0,0:0:0:0:
64,192,58942,1,0,0:0:0:0:
192,192,58942,1,0,0:0:0:0:
320,192,59047,1,0,0:0:0:0:
192,192,59047,1,0,0:0:0:0:
64,192,59152,1,0,0:0:0:0:
64,192,59258,1,0,0:0:0:0:
320,192,59258,1,0,0:0:0:0:
448,192,59258,1,0,0:0:0:0:
192,192,59363,1,0,0:0:0:0:
320,192,59468,1,0,0:0:0:0:
448,192,59468,1,0,0:0:0:0:
64,192,59573,1,0,0:0:0:0:
448,192,59679,1,0,0:0:0:0:
192,192,59784,1,0,0:0:0:0:
64,192,59889,1,0,0:0:0:0:
320,192,59889,1,0,0:0:0:0:
448,192,59889,1,0,0:0:0:0:
192,192,59994,1,0,0:0:0:0:
64,192,60099,1,0,0:0:0:0:
448,192,60205,1,0,0:0:0:0:
192,192,60310,1,0,0:0:0:0:
320,192,60310,1,0,0:0:0:0:
448,192,60415,1,0,0:0:0:0:
192,192,60520,1,0,0:0:0:0:
64,192,60626,1,0,0:0:0:0:
320,192,60626,1,0,0:0:0:0:
192,192,60731,1,0,0:0:0:0:
448,192,60731,1,0,0:0:0:0:
320,192,60836,1,0,0:0:0:0:
192,192,60941,1,0,0:0:0:0:
64,192,60941,1,0,0:0:0:0:
320,192,60941,1,0,0:0:0:0:
448,192,61046,1,0,0:0:0:0:
448,192,61152,1,0,0:0:0:0:
320,192,61152,1,0,0:0:0:0:
320,192,61257,1,0,0:0:0:0:
192,192,61257,1,0,0:0:0:0:
192,192,61362,1,0,0:0:0:0:
64,192,61362,1,0,0:0:0:0:
448,192,61467,1,0,0:0:0:0:
64,192,61573,1,0,0:0:0:0:
320,192,61573,1,0,0:0:0:0:
192,192,61573,1,0,0:0:0:0:
448,192,61678,1,0,0:0:0:0:
192,192,61783,1,0,0:0:0:0:
64,192,61888,1,0,0:0:0:0:
320,192,61993,1,0,0:0:0:0:
448,192,61993,1,0,0:0:0:0:
192,192,62099,1,0,0:0:0:0:
64,192,62204,1,0,0:0:0:0:
320,192,62309,1,0,0:0:0:0:
448,192,62309,1,0,0:0:0:0:
192,192,62414,1,0,0:0:0:0:
320,192,62414,1,0,0:0:0:0:
448,192,62519,1,0,0:0:0:0:
64,192,62625,1,0,0:0:0:0:
192,192,62625,1,0,0:0:0:0:
448,192,62625,1,0,0:0:0:0:
320,192,62730,1,0,0:0:0:0:
448,192,62835,1,0,0:0:0:0:
192,192,62835,1,0,0:0:0:0:
64,192,62940,1,0,0:0:0:0:
320,192,63046,1,0,0:0:0:0:
192,192,63151,1,0,0:0:0:0:
320,192,63256,1,0,0:0:0:0:
64,192,63256,1,0,0:0:0:0:
448,192,63256,1,0,0:0:0:0:
192,192,63361,1,0,0:0:0:0:
448,192,63466,1,0,0:0:0:0:
64,192,63572,1,0,0:0:0:0:
192,192,63677,1,0,0:0:0:0:
320,192,63677,1,0,0:0:0:0:
448,192,63782,1,0,0:0:0:0:
64,192,63887,1,0,0:0:0:0:
320,192,63993,1,0,0:0:0:0:
448,192,63993,1,0,0:0:0:0:
320,192,64098,1,0,0:0:0:0:
192,192,64098,1,0,0:0:0:0:
448,192,64203,1,0,0:0:0:0:
320,192,64308,1,0,0:0:0:0:
192,192,64308,1,0,0:0:0:0:
64,192,64308,1,0,0:0:0:0:
448,192,64413,1,0,0:0:0:0:
192,192,64519,1,0,0:0:0:0:
64,192,64519,1,0,0:0:0:0:
320,192,64624,1,0,0:0:0:0:
192,192,64729,1,0,0:0:0:0:
64,192,64834,1,0,0:0:0:0:
192,192,64940,1,0,0:0:0:0:
320,192,64940,1,0,0:0:0:0:
448,192,64940,1,0,0:0:0:0:
64,192,65045,1,0,0:0:0:0:
320,192,65150,1,0,0:0:0:0:
448,192,65255,1,0,0:0:0:0:
192,192,65360,1,0,0:0:0:0:
320,192,65360,1,0,0:0:0:0:
64,192,65466,1,0,0:0:0:0:
448,192,65571,1,0,0:0:0:0:
64,192,65676,1,0,0:0:0:0:
192,192,65676,1,0,0:0:0:0:
320,192,65781,1,0,0:0:0:0:
192,192,65781,1,0,0:0:0:0:
64,192,65886,1,0,0:0:0:0:
64,192,65992,1,0,0:0:0:0:
320,192,65992,1,0,0:0:0:0:
448,192,65992,1,0,0:0:0:0:
192,192,66097,1,0,0:0:0:0:
320,192,66202,1,0,0:0:0:0:
448,192,66202,1,0,0:0:0:0:
64,192,66307,1,0,0:0:0:0:
448,192,66413,1,0,0:0:0:0:
192,192,66518,1,0,0:0:0:0:
64,192,66623,1,0,0:0:0:0:
320,192,66623,1,0,0:0:0:0:
448,192,66623,1,0,0:0:0:0:
192,192,66728,1,0,0:0:0:0:
64,192,66833,1,0,0:0:0:0:
448,192,66939,1,0,0:0:0:0:
192,192,67044,1,0,0:0:0:0:
320,192,67044,1,0,0:0:0:0:
448,192,67149,1,0,0:0:0:0:
192,192,67254,1,0,0:0:0:0:
64,192,67360,1,0,0:0:0:0:
320,192,67360,1,0,0:0:0:0:
192,192,67465,1,0,0:0:0:0:
448,192,67465,1,0,0:0:0:0:
320,192,67570,1,0,0:0:0:0:
192,192,67675,1,0,0:0:0:0:
64,192,67675,1,0,0:0:0:0:
320,192,67675,1,0,0:0:0:0:
448,192,67780,1,0,0:0:0:0:
192,192,67886,1,0,0:0:0:0:
64,192,67886,1,0,0:0:0:0:
320,192,67886,1,0,0:0:0:0:
448,192,67991,1,0,0:0:0:0:
64,192,68096,1,0,0:0:0:0:
448,192,68201,1,0,0:0:0:0:
192,192,68307,1,0,0:0:0:0:
320,192,68307,1,0,0:0:0:0:
64,192,68307,1,0,0:0:0:0:
448,192,68412,1,0,0:0:0:0:
192,192,68517,1,0,0:0:0:0:
64,192,68622,1,0,0:0:0:0:
448,192,68727,1,0,0:0:0:0:
320,192,68727,1,0,0:0:0:0:
192,192,68833,1,0,0:0:0:0:
320,192,68938,1,0,0:0:0:0:
64,192,69043,1,0,0:0:0:0:
448,192,69148,1,0,0:0:0:0:
320,192,69253,1,0,0:0:0:0:
448,192,69359,1,0,0:0:0:0:
192,192,69359,1,0,0:0:0:0:
64,192,69359,1,0,0:0:0:0:
320,192,69464,1,0,0:0:0:0:
192,192,69569,1,0,0:0:0:0:
448,192,69569,1,0,0:0:0:0:
64,192,69674,1,0,0:0:0:0:
320,192,69780,1,0,0:0:0:0:
192,192,69885,1,0,0:0:0:0:
448,192,69990,1,0,0:0:0:0:
64,192,69990,1,0,0:0:0:0:
320,192,69990,1,0,0:0:0:0:
192,192,70095,1,0,0:0:0:0:
448,192,70200,1,0,0:0:0:0:
64,192,70306,1,0,0:0:0:0:
320,192,70411,1,0,0:0:0:0:
192,192,70411,1,0,0:0:0:0:
448,192,70516,1,0,0:0:0:0:
64,192,70621,1,0,0:0:0:0:
320,192,70727,1,0,0:0:0:0:
192,192,70832,1,0,0:0:0:0:
448,192,70937,1,0,0:0:0:0:
64,192,71042,1,0,0:0:0:0:
192,192,71042,1,0,0:0:0:0:
320,192,71042,1,0,0:0:0:0:
448,192,71147,1,0,0:0:0:0:
64,192,71253,1,0,0:0:0:0:
192,192,71253,1,0,0:0:0:0:
320,192,71358,1,0,0:0:0:0:
448,192,71463,1,0,0:0:0:0:
64,192,71568,1,0,0:0:0:0:
448,192,71674,1,0,0:0:0:0:
320,192,71674,1,0,0:0:0:0:
192,192,71674,1,0,0:0:0:0:
64,192,71779,1,0,0:0:0:0:
448,192,71884,1,0,0:0:0:0:
64,192,71989,1,0,0:0:0:0:
320,192,72094,1,0,0:0:0:0:
192,192,72094,1,0,0:0:0:0:
448,192,72200,1,0,0:0:0:0:
64,192,72305,1,0,0:0:0:0:
448,192,72410,1,0,0:0:0:0:
320,192,72515,1,0,0:0:0:0:
192,192,72620,1,0,0:0:0:0:
448,192,72726,1,0,0:0:0:0:
320,192,72726,1,0,0:0:0:0:
64,192,72726,1,0,0:0:0:0:
192,192,72831,1,0,0:0:0:0:
448,192,72936,1,0,0:0:0:0:
320,192,72936,1,0,0:0:0:0:
64,192,73041,1,0,0:0:0:0:
448,192,73147,1,0,0:0:0:0:
192,192,73252,1,0,0:0:0:0:
320,192,73357,1,0,0:0:0:0:
448,192,73357,1,0,0:0:0:0:
64,192,73357,1,0,0:0:0:0:
192,192,73462,1,0,0:0:0:0:
64,192,73567,1,0,0:0:0:0:
448,192,73673,1,0,0:0:0:0:
192,192,73778,1,0,0:0:0:0:
320,192,73778,1,0,0:0:0:0:
64,192,73883,1,0,0:0:0:0:
448,192,73988,1,0,0:0:0:0:
192,192,74094,1,0,0:0:0:0:
320,192,74199,1,0,0:0:0:0:
448,192,74304,1,0,0:0:0:0:
192,192,74409,1,0,0:0:0:0:
64,192,74409,1,0,0:0:0:0:
320,192,74409,1,0,0:0:0:0:
448,192,74514,1,0,0:0:0:0:
64,192,74620,1,0,0:0:0:0:
192,192,74620,1,0,0:0:0:0:
320,192,74725,1,0,0:0:0:0:
64,192,74830,1,0,0:0:0:0:
192,192,74830,1,0,0:0:0:0:
448,192,74935,1,0,0:0:0:0:
192,192,75041,1,0,0:0:0:0:
320,192,75041,1,0,0:0:0:0:
64,192,75041,1,0,0:0:0:0:
448,192,75146,1,0,0:0:0:0:
192,192,75251,1,0,0:0:0:0:
64,192,75356,1,0,0:0:0:0:
448,192,75461,1,0,0:0:0:0:
320,192,75461,1,0,0:0:0:0:
192,192,75567,1,0,0:0:0:0:
320,192,75672,1,0,0:0:0:0:
64,192,75777,1,0,0:0:0:0:
448,192,75882,1,0,0:0:0:0:
320,192,75987,1,0,0:0:0:0:
448,192,76093,1,0,0:0:0:0:
192,192,76093,1,0,0:0:0:0:
64,192,76093,1,0,0:0:0:0:
320,192,76198,1,0,0:0:0:0:
192,192,76303,1,0,0:0:0:0:
448,192,76303,1,0,0:0:0:0:
64,192,76408,1,0,0:0:0:0:
320,192,76514,1,0,0:0:0:0:
192,192,76619,1,0,0:0:0:0:
448,192,76724,1,0,0:0:0:0:
64,192,76724,1,0,0:0:0:0:
320,192,76724,1,0,0:0:0:0:
192,192,76829,1,0,0:0:0:0:
448,192,76934,1,0,0:0:0:0:
64,192,77040,1,0,0:0:0:0:
320,192,77145,1,0,0:0:0:0:
192,192,77145,1,0,0:0:0:0:
448,192,77250,1,0,0:0:0:0:
64,192,77355,1,0,0:0:0:0:
320,192,77461,1,0,0:0:0:0:
192,192,77566,1,0,0:0:0:0:
448,192,77671,1,0,0:0:0:0:
64,192,77776,1,0,0:0:0:0:
192,192,77776,1,0,0:0:0:0:
320,192,77776,1,0,0:0:0:0:
448,192,77881,1,0,0:0:0:0:
64,192,77987,1,0,0:0:0:0:
192,192,77987,1,0,0:0:0:0:
320,192,78092,1,0,0:0:0:0:
448,192,78197,1,0,0:0:0:0:
192,192,78197,1,0,0:0:0:0:
64,192,78302,1,0,0:0:0:0:
448,192,78408,1,0,0:0:0:0:
320,192,78408,1,0,0:0:0:0:
192,192,78408,1,0,0:0:0:0:
64,192,78513,1,0,0:0:0:0:
448,192,78618,1,0,0:0:0:0:
64,192,78723,1,0,0:0:0:0:
320,192,78828,1,0,0:0:0:0:
192,192,78828,1,0,0:0:0:0:
448,192,78934,1,0,0:0:0:0:
64,192,79039,1,0,0:0:0:0:
448,192,79144,1,0,0:0:0:0:
320,192,79249,1,0,0:0:0:0:
192,192,79355,1,0,0:0:0:0:
448,192,79460,1,0,0:0:0:0:
320,192,79460,1,0,0:0:0:0:
64,192,79460,1,0,0:0:0:0:
192,192,79565,1,0,0:0:0:0:
448,192,79670,1,0,0:0:0:0:
320,192,79670,1,0,0:0:0:0:
64,192,79775,1,0,0:0:0:0:
448,192,79881,1,0,0:0:0:0:
192,192,79986,1,0,0:0:0:0:
320,192,80091,1,0,0:0:0:0:
448,192,80091,1,0,0:0:0:0:
64,192,80091,1,0,0:0:0:0:
192,192,80196,1,0,0:0:0:0:
64,192,80301,1,0,0:0:0:0:
448,192,80407,1,0,0:0:0:0:
192,192,80512,1,0,0:0:0:0:
320,192,80512,1,0,0:0:0:0:
64,192,80617,1,0,0:0:0:0:
448,192,80722,1,0,0:0:0:0:
192,192,80828,1,0,0:0:0:0:
320,192,80933,1,0,0:0:0:0:
448,192,81038,1,0,0:0:0:0:
192,192,81143,1,0,0:0:0:0:
64,192,81143,1,0,0:0:0:0:
320,192,81143,1,0,0:0:0:0:
448,192,81248,1,0,0:0:0:0:
64,192,81354,1,0,0:0:0:0:
192,192,81354,1,0,0:0:0:0:
320,192,81459,1,0,0:0:0:0:
64,192,81564,1,0,0:0:0:0:
192,192,81564,1,0,0:0:0:0:
448,192,81669,1,0,0:0:0:0:
192,192,81775,1,0,0:0:0:0:
320,192,81775,1,0,0:0:0:0:
192,192,82195,1,0,0:0:0:0:
320,192,82195,1,0,0:0:0:0:
64,192,82511,1,0,0:0:0:0:
192,192,82616,128,0,82827:0:0:0:0:
320,192,82616,128,0,83248:0:0:0:0:
448,192,82827,128,0,83037:0:0:0:0:
192,192,83037,128,0,83458:0:0:0:0:
64,192,83248,128,0,83458:0:0:0:0:
320,192,83458,1,0,0:0:0:0:
192,192,83879,1,0,0:0:0:0:
320,192,83879,1,0,0:0:0:0:
64,192,84195,1,0,0:0:0:0:
64,192,84300,128,0,84510:0:0:0:0:
192,192,84300,128,0,84721:0:0:0:0:
320,192,84510,128,0,85142:0:0:0:0:
448,192,84721,128,0,84931:0:0:0:0:
192,192,84931,128,0,85142:0:0:0:0:
448,192,85142,1,0,0:0:0:0:
448,192,85562,1,0,0:0:0:0:
320,192,85562,1,0,0:0:0:0:
64,192,85878,1,0,0:0:0:0:
320,192,85983,128,0,86615:0:0:0:0:
192,192,85983,128,0,86194:0:0:0:0:
448,192,86194,128,0,86404:0:0:0:0:
192,192,86404,128,0,86825:0:0:0:0:
64,192,86615,128,0,86825:0:0:0:0:
448,192,86825,1,0,0:0:0:0:
192,192,87246,1,0,0:0:0:0:
448,192,87246,1,0,0:0:0:0:
64,192,87562,1,0,0:0:0:0:
192,192,87667,128,0,87877:0:0:0:0:
320,192,87667,128,0,88298:0:0:0:0:
448,192,87877,128,0,88088:0:0:0:0:
192,192,88088,128,0,88509:0:0:0:0:
64,192,88298,128,0,88509:0:0:0:0:
320,192,88509,1,0,0:0:0:0:
192,192,88929,1,0,0:0:0:0:
320,192,88929,1,0,0:0:0:0:
64,192,89245,1,0,0:0:0:0:
192,192,89350,128,0,89561:0:0:0:0:
320,192,89350,128,0,89982:0:0:0:0:
448,192,89561,128,0,89771:0:0:0:0:
192,192,89771,128,0,90192:0:0:0:0:
64,192,89982,128,0,90192:0:0:0:0:
320,192,90192,1,0,0:0:0:0:
192,192,90613,1,0,0:0:0:0:
320,192,90613,1,0,0:0:0:0:
64,192,90929,1,0,0:0:0:0:
64,192,91034,128,0,91244:0:0:0:0:
192,192,91034,128,0,91455:0:0:0:0:
320,192,91244,128,0,91876:0:0:0:0:
448,192,91455,128,0,91665:0:0:0:0:
192,192,91665,128,0,91876:0:0:0:0:
448,192,91876,1,0,0:0:0:0:
448,192,92296,1,0,0:0:0:0:
320,192,92296,1,0,0:0:0:0:
64,192,92612,1,0,0:0:0:0:
320,192,92717,128,0,93349:0:0:0:0:
192,192,92717,128,0,92928:0:0:0:0:
448,192,92928,128,0,93138:0:0:0:0:
192,192,93138,128,0,93559:0:0:0:0:
64,192,93349,128,0,93559:0:0:0:0:
448,192,93559,1,0,0:0:0:0:
192,192,93769,1,0,0:0:0:0:
320,192,93769,1,0,0:0:0:0:
448,192,93980,1,0,0:0:0:0:
320,192,93980,1,0,0:0:0:0:
192,192,93980,1,0,0:0:0:0:
64,192,94190,1,0,0:0:0:0:
192,192,94190,1,0,0:0:0:0:
320,192,94190,1,0,0:0:0:0:
64,192,94401,1,0,0:0:0:0:
192,192,94401,1,0,0:0:0:0:
320,192,94401,1,0,0:0:0:0:
448,192,94401,1,0,0:0:0:0:
64,192,95243,1,0,0:0:0:0:
320,192,95243,1,0,0:0:0:0:
192,192,95243,1,0,0:0:0:0:
448,192,95340,1,0,0:0:0:0:
192,192,95445,1,0,0:0:0:0:
64,192,95550,1,0,0:0:0:0:
320,192,95655,1,0,0:0:0:0:
448,192,95655,1,0,0:0:0:0:
192,192,95761,1,0,0:0:0:0:
64,192,95866,1,0,0:0:0:0:
320,192,95971,1,0,0:0:0:0:
448,192,95971,1,0,0:0:0:0:
192,192,96076,1,0,0:0:0:0:
320,192,96076,1,0,0:0:0:0:
448,192,96181,1,0,0:0:0:0:
64,192,96287,1,0,0:0:0:0:
192,192,96287,1,0,0:0:0:0:
448,192,96287,1,0,0:0:0:0:
320,192,96392,1,0,0:0:0:0:
448,192,96497,1,0,0:0:0:0:
192,192,96497,1,0,0:0:0:0:
64,192,96602,1,0,0:0:0:0:
320,192,96708,1,0,0:0:0:0:
192,192,96813,1,0,0:0:0:0:
320,192,96918,1,0,0:0:0:0:
64,192,96918,1,0,0:0:0:0:
448,192,96918,1,0,0:0:0:0:
192,192,97023,1,0,0:0:0:0:
448,192,97128,1,0,0:0:0:0:
64,192,97234,1,0,0:0:0:0:
192,192,97339,1,0,0:0:0:0:
320,192,97339,1,0,0:0:0:0:
448,192,97444,1,0,0:0:0:0:
64,192,97549,1,0,0:0:0:0:
320,192,97655,1,0,0:0:0:0:
448,192,97655,1,0,0:0:0:0:
320,192,97760,1,0,0:0:0:0:
192,192,97760,1,0,0:0:0:0:
448,192,97865,1,0,0:0:0:0:
320,192,97970,1,0,0:0:0:0:
192,192,97970,1,0,0:0:0:0:
64,192,97970,1,0,0:0:0:0:
448,192,98075,1,0,0:0:0:0:
192,192,98181,1,0,0:0:0:0:
64,192,98181,1,0,0:0:0:0:
320,192,98286,1,0,0:0:0:0:
192,192,98391,1,0,0:0:0:0:
64,192,98496,1,0,0:0:0:0:
192,192,98602,1,0,0:0:0:0:
320,192,98602,1,0,0:0:0:0:
448,192,98602,1,0,0:0:0:0:
64,192,98707,1,0,0:0:0:0:
320,192,98812,1,0,0:0:0:0:
448,192,98917,1,0,0:0:0:0:
192,192,99022,1,0,0:0:0:0:
320,192,99022,1,0,0:0:0:0:
64,192,99128,1,0,0:0:0:0:
448,192,99233,1,0,0:0:0:0:
64,192,99338,1,0,0:0:0:0:
192,192,99338,1,0,0:0:0:0:
320,192,99443,1,0,0:0:0:0:
192,192,99443,1,0,0:0:0:0:
64,192,99548,1,0,0:0:0:0:
64,192,99654,1,0,0:0:0:0:
320,192,99654,1,0,0:0:0:0:
448,192,99654,1,0,0:0:0:0:
192,192,99759,1,0,0:0:0:0:
320,192,99864,1,0,0:0:0:0:
448,192,99864,1,0,0:0:0:0:
64,192,99969,1,0,0:0:0:0:
448,192,100075,1,0,0:0:0:0:
192,192,100180,1,0,0:0:0:0:
64,192,100285,1,0,0:0:0:0:
320,192,100285,1,0,0:0:0:0:
448,192,100285,1,0,0:0:0:0:
192,192,100390,1,0,0:0:0:0:
64,192,100495,1,0,0:0:0:0:
448,192,100601,1,0,0:0:0:0:
192,192,100706,1,0,0:0:0:0:
320,192,100706,1,0,0:0:0:0:
448,192,100811,1,0,0:0:0:0:
192,192,100916,1,0,0:0:0:0:
64,192,101022,1,0,0:0:0:0:
320,192,101022,1,0,0:0:0:0:
192,192,101127,1,0,0:0:0:0:
448,192,101127,1,0,0:0:0:0:
320,192,101232,1,0,0:0:0:0:
192,192,101337,1,0,0:0:0:0:
64,192,101337,1,0,0:0:0:0:
320,192,101337,1,0,0:0:0:0:
448,192,101442,1,0,0:0:0:0:
192,192,101548,1,0,0:0:0:0:
64,192,101548,1,0,0:0:0:0:
320,192,101548,1,0,0:0:0:0:
448,192,101653,1,0,0:0:0:0:
64,192,101758,1,0,0:0:0:0:
448,192,101863,1,0,0:0:0:0:
64,192,101969,1,0,0:0:0:0:
320,192,101969,1,0,0:0:0:0:
192,192,101969,1,0,0:0:0:0:
448,192,102074,1,0,0:0:0:0:
192,192,102179,1,0,0:0:0:0:
64,192,102284,1,0,0:0:0:0:
320,192,102389,1,0,0:0:0:0:
448,192,102389,1,0,0:0:0:0:
192,192,102495,1,0,0:0:0:0:
64,192,102600,1,0,0:0:0:0:
320,192,102705,1,0,0:0:0:0:
448,192,102705,1,0,0:0:0:0:
192,192,102810,1,0,0:0:0:0:
320,192,102810,1,0,0:0:0:0:
448,192,102915,1,0,0:0:0:0:
64,192,103021,1,0,0:0:0:0:
192,192,103021,1,0,0:0:0:0:
448,192,103021,1,0,0:0:0:0:
320,192,103126,1,0,0:0:0:0:
448,192,103231,1,0,0:0:0:0:
192,192,103231,1,0,0:0:0:0:
64,192,103336,1,0,0:0:0:0:
320,192,103442,1,0,0:0:0:0:
192,192,103547,1,0,0:0:0:0:
320,192,103652,1,0,0:0:0:0:
64,192,103652,1,0,0:0:0:0:
448,192,103652,1,0,0:0:0:0:
192,192,103757,1,0,0:0:0:0:
448,192,103862,1,0,0:0:0:0:
64,192,103968,1,0,0:0:0:0:
192,192,104073,1,0,0:0:0:0:
320,192,104073,1,0,0:0:0:0:
448,192,104178,1,0,0:0:0:0:
64,192,104283,1,0,0:0:0:0:
320,192,104389,1,0,0:0:0:0:
448,192,104389,1,0,0:0:0:0:
320,192,104494,1,0,0:0:0:0:
192,192,104494,1,0,0:0:0:0:
448,192,104599,1,0,0:0:0:0:
320,192,104704,1,0,0:0:0:0:
192,192,104704,1,0,0:0:0:0:
64,192,104704,1,0,0:0:0:0:
448,192,104809,1,0,0:0:0:0:
192,192,104915,1,0,0:0:0:0:
64,192,104915,1,0,0:0:0:0:
320,192,105020,1,0,0:0:0:0:
192,192,105125,1,0,0:0:0:0:
448,192,105125,1,0,0:0:0:0:
64,192,105230,1,0,0:0:0:0:
192,192,105336,1,0,0:0:0:0:
320,192,105336,1,0,0:0:0:0:
448,192,105336,1,0,0:0:0:0:
64,192,105441,1,0,0:0:0:0:
320,192,105546,1,0,0:0:0:0:
448,192,105651,1,0,0:0:0:0:
192,192,105756,1,0,0:0:0:0:
320,192,105756,1,0,0:0:0:0:
64,192,105862,1,0,0:0:0:0:
448,192,105967,1,0,0:0:0:0:
64,192,106072,1,0,0:0:0:0:
192,192,106072,1,0,0:0:0:0:
320,192,106177,1,0,0:0:0:0:
192,192,106177,1,0,0:0:0:0:
64,192,106282,1,0,0:0:0:0:
64,192,106388,1,0,0:0:0:0:
320,192,106388,1,0,0:0:0:0:
448,192,106388,1,0,0:0:0:0:
192,192,106493,1,0,0:0:0:0:
320,192,106598,1,0,0:0:0:0:
448,192,106598,1,0,0:0:0:0:
64,192,106703,1,0,0:0:0:0:
448,192,106809,1,0,0:0:0:0:
192,192,106914,1,0,0:0:0:0:
64,192,107019,1,0,0:0:0:0:
320,192,107019,1,0,0:0:0:0:
448,192,107019,1,0,0:0:0:0:
192,192,107124,1,0,0:0:0:0:
64,192,107229,1,0,0:0:0:0:
320,192,107229,1,0,0:0:0:0:
192,192,107335,1,0,0:0:0:0:
320,192,107440,1,0,0:0:0:0:
448,192,107440,1,0,0:0:0:0:
192,192,107545,1,0,0:0:0:0:
320,192,107545,1,0,0:0:0:0:
64,192,107650,1,0,0:0:0:0:
192,192,107650,1,0,0:0:0:0:
448,192,107756,1,0,0:0:0:0:
192,192,107861,1,0,0:0:0:0:
320,192,107861,1,0,0:0:0:0:
448,192,107966,1,0,0:0:0:0:
192,192,108071,1,0,0:0:0:0:
64,192,108071,1,0,0:0:0:0:
320,192,108071,1,0,0:0:0:0:
448,192,108176,1,0,0:0:0:0:
320,192,108282,1,0,0:0:0:0:
448,192,108282,1,0,0:0:0:0:
320,192,108387,1,0,0:0:0:0:
192,192,108387,1,0,0:0:0:0:
192,192,108492,1,0,0:0:0:0:
64,192,108492,1,0,0:0:0:0:
448,192,108597,1,0,0:0:0:0:
64,192,108703,1,0,0:0:0:0:
320,192,108703,1,0,0:0:0:0:
192,192,108703,1,0,0:0:0:0:
448,192,108808,1,0,0:0:0:0:
192,192,108913,1,0,0:0:0:0:
64,192,109018,1,0,0:0:0:0:
320,192,109123,1,0,0:0:0:0:
448,192,109123,1,0,0:0:0:0:
192,192,109229,1,0,0:0:0:0:
64,192,109334,1,0,0:0:0:0:
320,192,109439,1,0,0:0:0:0:
448,192,109439,1,0,0:0:0:0:
192,192,109544,1,0,0:0:0:0:
320,192,109544,1,0,0:0:0:0:
448,192,109649,1,0,0:0:0:0:
64,192,109755,1,0,0:0:0:0:
192,192,109755,1,0,0:0:0:0:
448,192,109755,1,0,0:0:0:0:
320,192,109860,1,0,0:0:0:0:
448,192,109965,1,0,0:0:0:0:
192,192,109965,1,0,0:0:0:0:
64,192,110070,1,0,0:0:0:0:
320,192,110176,1,0,0:0:0:0:
192,192,110281,1,0,0:0:0:0:
320,192,110386,1,0,0:0:0:0:
64,192,110386,1,0,0:0:0:0:
448,192,110386,1,0,0:0:0:0:
192,192,110491,1,0,0:0:0:0:
448,192,110596,1,0,0:0:0:0:
64,192,110702,1,0,0:0:0:0:
192,192,110807,1,0,0:0:0:0:
320,192,110807,1,0,0:0:0:0:
448,192,110912,1,0,0:0:0:0:
64,192,111017,1,0,0:0:0:0:
320,192,111123,1,0,0:0:0:0:
448,192,111123,1,0,0:0:0:0:
320,192,111228,1,0,0:0:0:0:
192,192,111228,1,0,0:0:0:0:
448,192,111333,1,0,0:0:0:0:
320,192,111438,1,0,0:0:0:0:
192,192,111438,1,0,0:0:0:0:
64,192,111438,1,0,0:0:0:0:
448,192,111543,1,0,0:0:0:0:
192,192,111649,1,0,0:0:0:0:
64,192,111649,1,0,0:0:0:0:
320,192,111754,1,0,0:0:0:0:
192,192,111859,1,0,0:0:0:0:
64,192,111964,1,0,0:0:0:0:
192,192,112070,1,0,0:0:0:0:
320,192,112070,1,0,0:0:0:0:
448,192,112070,1,0,0:0:0:0:
64,192,112175,1,0,0:0:0:0:
320,192,112280,1,0,0:0:0:0:
448,192,112385,1,0,0:0:0:0:
192,192,112490,1,0,0:0:0:0:
320,192,112490,1,0,0:0:0:0:
64,192,112596,1,0,0:0:0:0:
448,192,112701,1,0,0:0:0:0:
64,192,112806,1,0,0:0:0:0:
192,192,112806,1,0,0:0:0:0:
320,192,112911,1,0,0:0:0:0:
192,192,112911,1,0,0:0:0:0:
64,192,113016,1,0,0:0:0:0:
64,192,113122,1,0,0:0:0:0:
320,192,113122,1,0,0:0:0:0:
448,192,113122,1,0,0:0:0:0:
192,192,113227,1,0,0:0:0:0:
320,192,113332,1,0,0:0:0:0:
448,192,113332,1,0,0:0:0:0:
64,192,113437,1,0,0:0:0:0:
448,192,113543,1,0,0:0:0:0:
192,192,113648,1,0,0:0:0:0:
64,192,113753,1,0,0:0:0:0:
320,192,113753,1,0,0:0:0:0:
448,192,113753,1,0,0:0:0:0:
192,192,113858,1,0,0:0:0:0:
64,192,113963,1,0,0:0:0:0:
448,192,114069,1,0,0:0:0:0:
192,192,114174,1,0,0:0:0:0:
320,192,114174,1,0,0:0:0:0:
448,192,114279,1,0,0:0:0:0:
192,192,114384,1,0,0:0:0:0:
64,192,114490,1,0,0:0:0:0:
320,192,114490,1,0,0:0:0:0:
192,192,114595,1,0,0:0:0:0:
448,192,114595,1,0,0:0:0:0:
320,192,114700,1,0,0:0:0:0:
192,192,114805,1,0,0:0:0:0:
64,192,114805,1,0,0:0:0:0:
320,192,114805,1,0,0:0:0:0:
448,192,114910,1,0,0:0:0:0:
192,192,115016,1,0,0:0:0:0:
64,192,115016,1,0,0:0:0:0:
320,192,115016,1,0,0:0:0:0:
448,192,115121,1,0,0:0:0:0:
64,192,115226,1,0,0:0:0:0:
448,192,115331,1,0,0:0:0:0:
64,192,115437,1,0,0:0:0:0:
192,192,115542,1,0,0:0:0:0:
320,192,115647,1,0,0:0:0:0:
192,192,115752,1,0,0:0:0:0:
448,192,115857,1,0,0:0:0:0:
320,192,115963,1,0,0:0:0:0:
192,192,116068,1,0,0:0:0:0:
64,192,116173,1,0,0:0:0:0:
64,192,116278,1,0,0:0:0:0:
192,192,116383,1,0,0:0:0:0:
320,192,116489,1,0,0:0:0:0:
192,192,116594,1,0,0:0:0:0:
448,192,116699,1,0,0:0:0:0:
320,192,116804,1,0,0:0:0:0:
192,192,116910,1,0,0:0:0:0:
64,192,117015,1,0,0:0:0:0:
64,192,117120,1,0,0:0:0:0:
192,192,117225,1,0,0:0:0:0:
320,192,117330,1,0,0:0:0:0:
192,192,117436,1,0,0:0:0:0:
448,192,117541,1,0,0:0:0:0:
320,192,117646,1,0,0:0:0:0:
192,192,117751,1,0,0:0:0:0:
64,192,117857,1,0,0:0:0:0:
64,192,117962,1,0,0:0:0:0:
192,192,118067,1,0,0:0:0:0:
320,192,118172,1,0,0:0:0:0:
192,192,118277,1,0,0:0:0:0:
448,192,118383,1,0,0:0:0:0:
320,192,118488,1,0,0:0:0:0:
192,192,118593,1,0,0:0:0:0:
64,192,118698,1,0,0:0:0:0:
448,192,118804,1,0,0:0:0:0:
320,192,118909,1,0,0:0:0:0:
192,192,119014,1,0,0:0:0:0:
320,192,119119,1,0,0:0:0:0:
64,192,119224,1,0,0:0:0:0:
192,192,119330,1,0,0:0:0:0:
320,192,119435,1,0,0:0:0:0:
448,192,119540,1,0,0:0:0:0:
448,192,119645,1,0,0:0:0:0:
320,192,119750,1,0,0:0:0:0:
192,192,119856,1,0,0:0:0:0:
320,192,119961,1,0,0:0:0:0:
64,192,120066,1,0,0:0:0:0:
192,192,120171,1,0,0:0:0:0:
320,192,120277,1,0,0:0:0:0:
448,192,120382,1,0,0:0:0:0:
320,192,120487,1,0,0:0:0:0:
192,192,120592,1,0,0:0:0:0:
64,192,120697,1,0,0:0:0:0:
192,192,120803,1,0,0:0:0:0:
448,192,120908,1,0,0:0:0:0:
320,192,121013,1,0,0:0:0:0:
192,192,121118,1,0,0:0:0:0:
64,192,121224,1,0,0:0:0:0:
320,192,121329,1,0,0:0:0:0:
192,192,121434,1,0,0:0:0:0:
64,192,121539,1,0,0:0:0:0:
192,192,121644,1,0,0:0:0:0:
448,192,121750,1,0,0:0:0:0:
320,192,121855,1,0,0:0:0:0:
192,192,121960,1,0,0:0:0:0:
64,192,122065,1,0,0:0:0:0:
64,192,122171,1,0,0:0:0:0:
192,192,122276,1,0,0:0:0:0:
320,192,122381,1,0,0:0:0:0:
192,192,122486,1,0,0:0:0:0:
448,192,122591,1,0,0:0:0:0:
320,192,122697,1,0,0:0:0:0:
192,192,122802,1,0,0:0:0:0:
64,192,122907,1,0,0:0:0:0:
64,192,123012,1,0,0:0:0:0:
192,192,123117,1,0,0:0:0:0:
320,192,123223,1,0,0:0:0:0:
192,192,123328,1,0,0:0:0:0:
448,192,123433,1,0,0:0:0:0:
320,192,123538,1,0,0:0:0:0:
192,192,123644,1,0,0:0:0:0:
64,192,123749,1,0,0:0:0:0:
64,192,123854,1,0,0:0:0:0:
192,192,123959,1,0,0:0:0:0:
320,192,124064,1,0,0:0:0:0:
192,192,124170,1,0,0:0:0:0:
448,192,124275,1,0,0:0:0:0:
320,192,124380,1,0,0:0:0:0:
192,192,124485,1,0,0:0:0:0:
64,192,124591,1,0,0:0:0:0:
64,192,124696,1,0,0:0:0:0:
192,192,124801,1,0,0:0:0:0:
320,192,124906,1,0,0:0:0:0:
192,192,125011,1,0,0:0:0:0:
448,192,125117,1,0,0:0:0:0:
320,192,125222,1,0,0:0:0:0:
192,192,125327,1,0,0:0:0:0:
64,192,125432,1,0,0:0:0:0:
448,192,125538,1,0,0:0:0:0:
320,192,125643,1,0,0:0:0:0:
192,192,125748,1,0,0:0:0:0:
320,192,125853,1,0,0:0:0:0:
64,192,125958,1,0,0:0:0:0:
192,192,126064,1,0,0:0:0:0:
320,192,126169,1,0,0:0:0:0:
448,192,126274,1,0,0:0:0:0:
448,192,126379,1,0,0:0:0:0:
320,192,126485,1,0,0:0:0:0:
192,192,126590,1,0,0:0:0:0:
320,192,126695,1,0,0:0:0:0:
64,192,126800,1,0,0:0:0:0:
192,192,126905,1,0,0:0:0:0:
320,192,127011,1,0,0:0:0:0:
448,192,127116,1,0,0:0:0:0:
320,192,127221,1,0,0:0:0:0:
192,192,127326,1,0,0:0:0:0:
64,192,127431,1,0,0:0:0:0:
192,192,127537,1,0,0:0:0:0:
448,192,127642,1,0,0:0:0:0:
320,192,127747,1,0,0:0:0:0:
192,192,127852,1,0,0:0:0:0:
64,192,127958,1,0,0:0:0:0:
320,192,128063,1,0,0:0:0:0:
192,192,128168,1,0,0:0:0:0:
64,192,128273,1,0,0:0:0:0:
192,192,128378,1,0,0:0:0:0:
448,192,128484,1,0,0:0:0:0:
320,192,128589,1,0,0:0:0:0:
192,192,128694,1,0,0:0:0:0:
64,192,128799,1,0,0:0:0:0:
64,192,128905,1,0,0:0:0:0:
192,192,129010,1,0,0:0:0:0:
320,192,129115,1,0,0:0:0:0:
192,192,129220,1,0,0:0:0:0:
448,192,129325,1,0,0:0:0:0:
320,192,129431,1,0,0:0:0:0:
192,192,129536,1,0,0:0:0:0:
64,192,129641,1,0,0:0:0:0:
64,192,129746,1,0,0:0:0:0:
192,192,129852,1,0,0:0:0:0:
320,192,129957,1,0,0:0:0:0:
192,192,130062,1,0,0:0:0:0:
448,192,130167,1,0,0:0:0:0:
320,192,130272,1,0,0:0:0:0:
192,192,130378,1,0,0:0:0:0:
64,192,130483,1,0,0:0:0:0:
64,192,130588,1,0,0:0:0:0:
192,192,130693,1,0,0:0:0:0:
320,192,130798,1,0,0:0:0:0:
192,192,130904,1,0,0:0:0:0:
448,192,131009,1,0,0:0:0:0:
320,192,131114,1,0,0:0:0:0:
192,192,131219,1,0,0:0:0:0:
64,192,131325,1,0,0:0:0:0:
64,192,131430,1,0,0:0:0:0:
192,192,131535,1,0,0:0:0:0:
320,192,131640,1,0,0:0:0:0:
192,192,131745,1,0,0:0:0:0:
448,192,131851,1,0,0:0:0:0:
320,192,131956,1,0,0:0:0:0:
192,192,132061,1,0,0:0:0:0:
64,192,132166,1,0,0:0:0:0:
448,192,132272,1,0,0:0:0:0:
320,192,132377,1,0,0:0:0:0:
192,192,132482,1,0,0:0:0:0:
320,192,132587,1,0,0:0:0:0:
64,192,132692,1,0,0:0:0:0:
192,192,132798,1,0,0:0:0:0:
320,192,132903,1,0,0:0:0:0:
448,192,133008,1,0,0:0:0:0:
448,192,133113,1,0,0:0:0:0:
320,192,133219,1,0,0:0:0:0:
192,192,133324,1,0,0:0:0:0:
320,192,133429,1,0,0:0:0:0:
64,192,133534,1,0,0:0:0:0:
192,192,133639,1,0,0:0:0:0:
320,192,133745,1,0,0:0:0:0:
448,192,133850,1,0,0:0:0:0:
320,192,133955,1,0,0:0:0:0:
192,192,134060,1,0,0:0:0:0:
64,192,134165,1,0,0:0:0:0:
192,192,134271,1,0,0:0:0:0:
448,192,134376,1,0,0:0:0:0:
320,192,134481,1,0,0:0:0:0:
192,192,134586,1,0,0:0:0:0:
64,192,134692,1,0,0:0:0:0:
320,192,134797,1,0,0:0:0:0:
192,192,134902,1,0,0:0:0:0:
64,192,135007,1,0,0:0:0:0:
192,192,135112,1,0,0:0:0:0:
448,192,135218,1,0,0:0:0:0:
320,192,135323,1,0,0:0:0:0:
192,192,135428,1,0,0:0:0:0:
64,192,135533,1,0,0:0:0:0:
64,192,135639,1,0,0:0:0:0:
192,192,135744,1,0,0:0:0:0:
320,192,135849,1,0,0:0:0:0:
192,192,135954,1,0,0:0:0:0:
448,192,136059,1,0,0:0:0:0:
320,192,136165,1,0,0:0:0:0:
192,192,136270,1,0,0:0:0:0:
64,192,136375,1,0,0:0:0:0:
64,192,136480,1,0,0:0:0:0:
192,192,136586,1,0,0:0:0:0:
320,192,136691,1,0,0:0:0:0:
192,192,136796,1,0,0:0:0:0:
448,192,136901,1,0,0:0:0:0:
320,192,137006,1,0,0:0:0:0:
192,192,137112,1,0,0:0:0:0:
64,192,137217,1,0,0:0:0:0:
64,192,137322,1,0,0:0:0:0:
192,192,137427,1,0,0:0:0:0:
320,192,137532,1,0,0:0:0:0:
192,192,137638,1,0,0:0:0:0:
448,192,137743,1,0,0:0:0:0:
320,192,137848,1,0,0:0:0:0:
192,192,137953,1,0,0:0:0:0:
64,192,138059,1,0,0:0:0:0:
64,192,138164,1,0,0:0:0:0:
192,192,138269,1,0,0:0:0:0:
320,192,138374,1,0,0:0:0:0:
192,192,138479,1,0,0:0:0:0:
448,192,138585,1,0,0:0:0:0:
320,192,138690,1,0,0:0:0:0:
192,192,138795,1,0,0:0:0:0:
64,192,138900,1,0,0:0:0:0:
448,192,139006,1,0,0:0:0:0:
320,192,139111,1,0,0:0:0:0:
192,192,139216,1,0,0:0:0:0:
320,192,139321,1,0,0:0:0:0:
64,192,139426,1,0,0:0:0:0:
192,192,139532,1,0,0:0:0:0:
320,192,139637,1,0,0:0:0:0:
448,192,139742,1,0,0:0:0:0:
448,192,139847,1,0,0:0:0:0:
320,192,139953,1,0,0:0:0:0:
192,192,140058,1,0,0:0:0:0:
320,192,140163,1,0,0:0:0:0:
64,192,140268,1,0,0:0:0:0:
192,192,140373,1,0,0:0:0:0:
320,192,140479,1,0,0:0:0:0:
448,192,140584,1,0,0:0:0:0:
320,192,140689,1,0,0:0:0:0:
192,192,140794,1,0,0:0:0:0:
64,192,140899,1,0,0:0:0:0:
192,192,141005,1,0,0:0:0:0:
448,192,141110,1,0,0:0:0:0:
320,192,141215,1,0,0:0:0:0:
192,192,141320,1,0,0:0:0:0:
64,192,141426,1,0,0:0:0:0:
320,192,141531,1,0,0:0:0:0:
192,192,141636,1,0,0:0:0:0:
64,192,141741,1,0,0:0:0:0:
192,192,141846,1,0,0:0:0:0:
448,192,141952,1,0,0:0:0:0:
320,192,142057,1,0,0:0:0:0:
192,192,142162,1,0,0:0:0:0:
64,192,142267,1,0,0:0:0:0:
192,192,142373,1,0,0:0:0:0:
192,192,142793,1,0,0:0:0:0:
64,192,143109,1,0,0:0:0:0:
192,192,143214,128,0,143425:0:0:0:0:
320,192,143425,128,0,143635:0:0:0:0:
192,192,143635,128,0,143846:0:0:0:0:
64,192,143846,128,0,144056:0:0:0:0:
192,192,144056,1,0,0:0:0:0:
192,192,144477,1,0,0:0:0:0:
64,192,144793,1,0,0:0:0:0:
192,192,144898,128,0,145108:0:0:0:0:
320,192,145108,128,0,145319:0:0:0:0:
448,192,145319,128,0,145529:0:0:0:0:
192,192,145529,128,0,145740:0:0:0:0:
320,192,145740,1,0,0:0:0:0:
320,192,146160,1,0,0:0:0:0:
192,192,146476,1,0,0:0:0:0:
320,192,146581,128,0,146792:0:0:0:0:
448,192,146792,128,0,147002:0:0:0:0:
320,192,147002,128,0,147213:0:0:0:0:
192,192,147213,128,0,147423:0:0:0:0:
64,192,147423,128,0,149107:0:0:0:0:
64,192,150790,1,0,0:0:0:0:
320,192,150790,1,0,0:0:0:0:
192,192,150790,1,0,0:0:0:0:
448,192,150898,1,0,0:0:0:0:
192,192,151003,1,0,0:0:0:0:
64,192,151108,1,0,0:0:0:0:
448,192,151213,1,0,0:0:0:0:
320,192,151213,1,0,0:0:0:0:
192,192,151319,1,0,0:0:0:0:
64,192,151424,1,0,0:0:0:0:
320,192,151529,1,0,0:0:0:0:
448,192,151529,1,0,0:0:0:0:
192,192,151634,1,0,0:0:0:0:
320,192,151634,1,0,0:0:0:0:
448,192,151739,1,0,0:0:0:0:
64,192,151845,1,0,0:0:0:0:
192,192,151845,1,0,0:0:0:0:
448,192,151845,1,0,0:0:0:0:
320,192,151950,1,0,0:0:0:0:
448,192,152055,1,0,0:0:0:0:
192,192,152055,1,0,0:0:0:0:
64,192,152160,1,0,0:0:0:0:
320,192,152266,1,0,0:0:0:0:
192,192,152371,1,0,0:0:0:0:
320,192,152476,1,0,0:0:0:0:
64,192,152476,1,0,0:0:0:0:
448,192,152476,1,0,0:0:0:0:
192,192,152581,1,0,0:0:0:0:
448,192,152686,1,0,0:0:0:0:
64,192,152792,1,0,0:0:0:0:
192,192,152897,1,0,0:0:0:0:
320,192,152897,1,0,0:0:0:0:
448,192,153002,1,0,0:0:0:0:
64,192,153107,1,0,0:0:0:0:
320,192,153213,1,0,0:0:0:0:
448,192,153213,1,0,0:0:0:0:
320,192,153318,1,0,0:0:0:0:
192,192,153318,1,0,0:0:0:0:
448,192,153423,1,0,0:0:0:0:
320,192,153528,1,0,0:0:0:0:
192,192,153528,1,0,0:0:0:0:
64,192,153528,1,0,0:0:0:0:
448,192,153633,1,0,0:0:0:0:
192,192,153739,1,0,0:0:0:0:
64,192,153739,1,0,0:0:0:0:
320,192,153844,1,0,0:0:0:0:
192,192,153949,1,0,0:0:0:0:
64,192,154054,1,0,0:0:0:0:
192,192,154160,1,0,0:0:0:0:
320,192,154160,1,0,0:0:0:0:
448,192,154160,1,0,0:0:0:0:
64,192,154265,1,0,0:0:0:0:
320,192,154370,1,0,0:0:0:0:
448,192,154475,1,0,0:0:0:0:
192,192,154580,1,0,0:0:0:0:
320,192,154580,1,0,0:0:0:0:
64,192,154686,1,0,0:0:0:0:
448,192,154791,1,0,0:0:0:0:
64,192,154896,1,0,0:0:0:0:
192,192,154896,1,0,0:0:0:0:
320,192,155001,1,0,0:0:0:0:
192,192,155001,1,0,0:0:0:0:
64,192,155106,1,0,0:0:0:0:
64,192,155212,1,0,0:0:0:0:
320,192,155212,1,0,0:0:0:0:
448,192,155212,1,0,0:0:0:0:
192,192,155317,1,0,0:0:0:0:
320,192,155422,1,0,0:0:0:0:
448,192,155422,1,0,0:0:0:0:
64,192,155527,1,0,0:0:0:0:
448,192,155633,1,0,0:0:0:0:
192,192,155738,1,0,0:0:0:0:
64,192,155843,1,0,0:0:0:0:
320,192,155843,1,0,0:0:0:0:
448,192,155843,1,0,0:0:0:0:
192,192,155948,1,0,0:0:0:0:
64,192,156053,1,0,0:0:0:0:
448,192,156159,1,0,0:0:0:0:
192,192,156264,1,0,0:0:0:0:
320,192,156264,1,0,0:0:0:0:
448,192,156369,1,0,0:0:0:0:
192,192,156474,1,0,0:0:0:0:
64,192,156580,1,0,0:0:0:0:
320,192,156580,1,0,0:0:0:0:
192,192,156685,1,0,0:0:0:0:
448,192,156685,1,0,0:0:0:0:
320,192,156790,1,0,0:0:0:0:
192,192,156895,1,0,0:0:0:0:
64,192,156895,1,0,0:0:0:0:
320,192,156895,1,0,0:0:0:0:
448,192,157000,1,0,0:0:0:0:
192,192,157106,1,0,0:0:0:0:
64,192,157106,1,0,0:0:0:0:
320,192,157106,1,0,0:0:0:0:
448,192,157211,1,0,0:0:0:0:
64,192,157316,1,0,0:0:0:0:
448,192,157421,1,0,0:0:0:0:
64,192,157527,1,0,0:0:0:0:
320,192,157527,1,0,0:0:0:0:
192,192,157527,1,0,0:0:0:0:
448,192,157632,1,0,0:0:0:0:
192,192,157737,1,0,0:0:0:0:
64,192,157842,1,0,0:0:0:0:
320,192,157947,1,0,0:0:0:0:
448,192,157947,1,0,0:0:0:0:
192,192,158053,1,0,0:0:0:0:
64,192,158158,1,0,0:0:0:0:
320,192,158263,1,0,0:0:0:0:
448,192,158263,1,0,0:0:0:0:
192,192,158368,1,0,0:0:0:0:
320,192,158368,1,0,0:0:0:0:
448,192,158473,1,0,0:0:0:0:
64,192,158579,1,0,0:0:0:0:
192,192,158579,1,0,0:0:0:0:
448,192,158579,1,0,0:0:0:0:
320,192,158684,1,0,0:0:0:0:
448,192,158789,1,0,0:0:0:0:
192,192,158789,1,0,0:0:0:0:
64,192,158894,1,0,0:0:0:0:
320,192,159000,1,0,0:0:0:0:
192,192,159105,1,0,0:0:0:0:
320,192,159210,1,0,0:0:0:0:
64,192,159210,1,0,0:0:0:0:
448,192,159210,1,0,0:0:0:0:
192,192,159315,1,0,0:0:0:0:
448,192,159420,1,0,0:0:0:0:
64,192,159526,1,0,0:0:0:0:
192,192,159631,1,0,0:0:0:0:
320,192,159631,1,0,0:0:0:0:
448,192,159736,1,0,0:0:0:0:
64,192,159841,1,0,0:0:0:0:
320,192,159947,1,0,0:0:0:0:
448,192,159947,1,0,0:0:0:0:
320,192,160052,1,0,0:0:0:0:
192,192,160052,1,0,0:0:0:0:
448,192,160157,1,0,0:0:0:0:
320,192,160262,1,0,0:0:0:0:
192,192,160262,1,0,0:0:0:0:
64,192,160262,1,0,0:0:0:0:
448,192,160367,1,0,0:0:0:0:
192,192,160473,1,0,0:0:0:0:
64,192,160473,1,0,0:0:0:0:
320,192,160578,1,0,0:0:0:0:
192,192,160683,1,0,0:0:0:0:
64,192,160788,1,0,0:0:0:0:
192,192,160894,1,0,0:0:0:0:
320,192,160894,1,0,0:0:0:0:
448,192,160894,1,0,0:0:0:0:
64,192,160999,1,0,0:0:0:0:
320,192,161104,1,0,0:0:0:0:
448,192,161209,1,0,0:0:0:0:
192,192,161314,1,0,0:0:0:0:
320,192,161314,1,0,0:0:0:0:
64,192,161420,1,0,0:0:0:0:
448,192,161525,1,0,0:0:0:0:
64,192,161630,1,0,0:0:0:0:
192,192,161630,1,0,0:0:0:0:
320,192,161735,1,0,0:0:0:0:
192,192,161735,1,0,0:0:0:0:
64,192,161840,1,0,0:0:0:0:
64,192,161946,1,0,0:0:0:0:
320,192,161946,1,0,0:0:0:0:
448,192,161946,1,0,0:0:0:0:
192,192,162051,1,0,0:0:0:0:
320,192,162156,1,0,0:0:0:0:
448,192,162156,1,0,0:0:0:0:
64,192,162261,1,0,0:0:0:0:
448,192,162367,1,0,0:0:0:0:
192,192,162472,1,0,0:0:0:0:
320,192,162577,1,0,0:0:0:0:
448,192,162577,1,0,0:0:0:0:
64,192,162577,1,0,0:0:0:0:
192,192,162682,1,0,0:0:0:0:
64,192,162787,1,0,0:0:0:0:
448,192,162787,1,0,0:0:0:0:
192,192,162893,1,0,0:0:0:0:
320,192,162893,1,0,0:0:0:0:
64,192,162998,1,0,0:0:0:0:
448,192,162998,1,0,0:0:0:0:
192,192,163103,1,0,0:0:0:0:
320,192,163103,1,0,0:0:0:0:
448,192,163208,1,0,0:0:0:0:
64,192,163208,1,0,0:0:0:0:
320,192,163314,1,0,0:0:0:0:
448,192,163419,1,0,0:0:0:0:
192,192,163419,1,0,0:0:0:0:
320,192,163524,1,0,0:0:0:0:
64,192,163629,1,0,0:0:0:0:
192,192,163629,1,0,0:0:0:0:
448,192,163734,1,0,0:0:0:0:
64,192,163840,1,0,0:0:0:0:
448,192,163840,1,0,0:0:0:0:
192,192,163945,1,0,0:0:0:0:
320,192,163945,1,0,0:0:0:0:
64,192,164050,1,0,0:0:0:0:
448,192,164050,1,0,0:0:0:0:
192,192,164155,1,0,0:0:0:0:
320,192,164155,1,0,0:0:0:0:
64,192,164261,1,0,0:0:0:0:
320,192,164261,1,0,0:0:0:0:
192,192,164366,1,0,0:0:0:0:
448,192,164471,1,0,0:0:0:0:
64,192,164576,1,0,0:0:0:0:
320,192,164681,1,0,0:0:0:0:
448,192,164681,1,0,0:0:0:0:
192,192,164787,1,0,0:0:0:0:
64,192,164892,1,0,0:0:0:0:
448,192,164997,1,0,0:0:0:0:
192,192,165102,1,0,0:0:0:0:
320,192,165102,1,0,0:0:0:0:
64,192,165207,1,0,0:0:0:0:
192,192,165313,1,0,0:0:0:0:
320,192,165418,1,0,0:0:0:0:
192,192,165523,1,0,0:0:0:0:
448,192,165523,1,0,0:0:0:0:
64,192,165628,1,0,0:0:0:0:
320,192,165734,1,0,0:0:0:0:
448,192,165839,1,0,0:0:0:0:
64,192,165944,1,0,0:0:0:0:
192,192,165944,1,0,0:0:0:0:
320,192,166049,1,0,0:0:0:0:
448,192,166154,1,0,0:0:0:0:
64,192,166260,1,0,0:0:0:0:
192,192,166365,1,0,0:0:0:0:
320,192,166365,1,0,0:0:0:0:
448,192,166470,1,0,0:0:0:0:
192,192,166575,1,0,0:0:0:0:
320,192,166681,1,0,0:0:0:0:
64,192,166786,1,0,0:0:0:0:
448,192,166786,1,0,0:0:0:0:
192,192,166891,1,0,0:0:0:0:
64,192,166996,1,0,0:0:0:0:
320,192,167101,1,0,0:0:0:0:
192,192,167207,1,0,0:0:0:0:
448,192,167207,1,0,0:0:0:0:
64,192,167312,1,0,0:0:0:0:
192,192,167417,1,0,0:0:0:0:
448,192,167522,1,0,0:0:0:0:
64,192,167628,1,0,0:0:0:0:
320,192,167628,1,0,0:0:0:0:
192,192,167733,1,0,0:0:0:0:
448,192,167838,1,0,0:0:0:0:
64,192,167943,1,0,0:0:0:0:
320,192,168048,1,0,0:0:0:0:
448,192,168048,1,0,0:0:0:0:
192,192,168154,1,0,0:0:0:0:
64,192,168259,1,0,0:0:0:0:
448,192,168364,1,0,0:0:0:0:
192,192,168469,1,0,0:0:0:0:
320,192,168469,1,0,0:0:0:0:
64,192,168574,1,0,0:0:0:0:
192,192,168680,1,0,0:0:0:0:
320,192,168785,1,0,0:0:0:0:
192,192,168890,1,0,0:0:0:0:
448,192,168890,1,0,0:0:0:0:
64,192,168995,1,0,0:0:0:0:
320,192,169101,1,0,0:0:0:0:
448,192,169206,1,0,0:0:0:0:
64,192,169311,1,0,0:0:0:0:
192,192,169311,1,0,0:0:0:0:
320,192,169416,1,0,0:0:0:0:
448,192,169521,1,0,0:0:0:0:
64,192,169627,1,0,0:0:0:0:
192,192,169732,1,0,0:0:0:0:
320,192,169732,1,0,0:0:0:0:
448,192,169837,1,0,0:0:0:0:
192,192,169942,1,0,0:0:0:0:
320,192,170048,1,0,0:0:0:0:
64,192,170153,1,0,0:0:0:0:
448,192,170153,1,0,0:0:0:0:
192,192,170258,1,0,0:0:0:0:
64,192,170363,1,0,0:0:0:0:
320,192,170468,1,0,0:0:0:0:
320,192,170574,1,0,0:0:0:0:
448,192,170574,1,0,0:0:0:0:
192,192,170679,1,0,0:0:0:0:
64,192,170679,1,0,0:0:0:0:
320,192,170784,1,0,0:0:0:0:
448,192,170784,1,0,0:0:0:0:
64,192,170889,1,0,0:0:0:0:
192,192,170889,1,0,0:0:0:0:
64,192,170995,1,0,0:0:0:0:
320,192,170995,1,0,0:0:0:0:
192,192,171100,1,0,0:0:0:0:
448,192,171205,1,0,0:0:0:0:
64,192,171310,1,0,0:0:0:0:
320,192,171415,1,0,0:0:0:0:
448,192,171415,1,0,0:0:0:0:
192,192,171521,1,0,0:0:0:0:
64,192,171626,1,0,0:0:0:0:
448,192,171731,1,0,0:0:0:0:
192,192,171836,1,0,0:0:0:0:
320,192,171836,1,0,0:0:0:0:
64,192,171941,1,0,0:0:0:0:
192,192,172047,1,0,0:0:0:0:
320,192,172152,1,0,0:0:0:0:
192,192,172257,1,0,0:0:0:0:
448,192,172257,1,0,0:0:0:0:
64,192,172362,1,0,0:0:0:0:
320,192,172468,1,0,0:0:0:0:
448,192,172573,1,0,0:0:0:0:
64,192,172678,1,0,0:0:0:0:
192,192,172678,1,0,0:0:0:0:
320,192,172783,1,0,0:0:0:0:
448,192,172888,1,0,0:0:0:0:
64,192,172994,1,0,0:0:0:0:
192,192,173099,1,0,0:0:0:0:
320,192,173099,1,0,0:0:0:0:
448,192,173204,1,0,0:0:0:0:
192,192,173309,1,0,0:0:0:0:
320,192,173415,1,0,0:0:0:0:
64,192,173520,1,0,0:0:0:0:
448,192,173520,1,0,0:0:0:0:
192,192,173625,1,0,0:0:0:0:
64,192,173730,1,0,0:0:0:0:
320,192,173835,1,0,0:0:0:0:
192,192,173941,1,0,0:0:0:0:
448,192,173941,1,0,0:0:0:0:
64,192,174046,1,0,0:0:0:0:
192,192,174151,1,0,0:0:0:0:
320,192,174256,1,0,0:0:0:0:
64,192,174362,1,0,0:0:0:0:
448,192,174362,1,0,0:0:0:0:
192,192,174572,1,0,0:0:0:0:
320,192,174572,1,0,0:0:0:0:
448,192,174782,1,0,0:0:0:0:
64,192,174782,1,0,0:0:0:0:
192,192,174993,1,0,0:0:0:0:
320,192,174993,1,0,0:0:0:0:
448,192,175203,1,0,0:0:0:0:
64,192,175203,1,0,0:0:0:0:
192,192,175414,1,0,0:0:0:0:
320,192,175414,1,0,0:0:0:0:
448,192,175624,1,0,0:0:0:0:
64,192,175624,1,0,0:0:0:0:
320,192,175835,1,0,0:0:0:0:
192,192,175835,1,0,0:0:0:0:
448,192,176045,1,0,0:0:0:0:
64,192,176045,1,0,0:0:0:0:
320,192,176260,1,0,0:0:0:0:
192,192,176260,1,0,0:0:0:0:
448,192,176470,1,0,0:0:0:0:
64,192,176470,1,0,0:0:0:0:
320,192,176681,1,0,0:0:0:0:
192,192,176681,1,0,0:0:0:0:
448,192,176891,1,0,0:0:0:0:
64,192,176891,1,0,0:0:0:0:
320,192,177110,1,0,0:0:0:0:
192,192,177110,1,0,0:0:0:0:
448,192,177320,1,0,0:0:0:0:
64,192,177320,1,0,0:0:0:0:
320,192,177531,1,0,0:0:0:0:
192,192,177531,1,0,0:0:0:0:
448,192,177741,128,0,179425:0:0:0:0:
320,192,177741,128,0,179425:0:0:0:0:
192,192,177741,128,0,179425:0:0:0:0:
64,192,177741,128,0,179425:0:0:0:0:
