osu file format v14

[General]
AudioFilename: audio.mp3
AudioLeadIn: 0
PreviewTime:46366
Countdown: 0
SampleSet: Soft
StackLeniency: 0.7
Mode: 0
LetterboxInBreaks: 0
WidescreenStoryboard: 1

[Editor]
Bookmarks: 14418,75028
DistanceSpacing: 1.4
BeatDivisor: 4
GridSize: 4
TimelineZoom: 2.4

[Metadata]
Title:Angel With A Shotgun (Sped Up Ver.)
TitleUnicode:Angel With A Shotgun (Sped Up Ver.)
Artist:The Cab
ArtistUnicode:The Cab
Creator:Sotarks
Version:browiec's Expert
Source:
Tags:speed up version cut short english pop symphony soldier armin a_r_m_i_n akitoshi corinn -laura- ayyri eiri- browiec fieryrage kowari lon log_off_now log off now nevo snownino_ reform kujinn elinor eli [_eli_] nightcore mix
BeatmapID:2449784
BeatmapSetID:1174505

[Difficulty]
HPDrainRate:5.2
CircleSize:3.8
OverallDifficulty:8.5
ApproachRate:8.4
SliderMultiplier:2.3
SliderTickRate:1

[Events]
//Background and Video events
0,0,"bg.jpg"
//Break Periods
//Storyboard Layer 0 (Background)
//Storyboard Layer 1 (Fail)
//Storyboard Layer 2 (Pass)
//Storyboard Layer 3 (Foreground)
//Storyboard Layer 4 (Overlay)
//Storyboard Sound Samples

[TimingPoints]
596,420.875420875421,4,2,22,72,1,0
14064,-133.333333333333,4,2,22,72,0,0
20798,-117.647058823529,4,2,22,62,0,0
34266,-117.647058823529,4,2,22,72,0,0
47734,-105.263157894737,4,2,22,82,0,0
74670,-153.846153846154,4,2,22,52,0,0
74775,-153.846153846154,4,2,22,42,0,0
82875,436.205016357688,4,2,22,42,1,0
82875,-147.058823529412,4,2,22,42,0,0
83965,449.269936353426,4,2,22,42,1,0
83965,-140.845070422535,4,2,22,42,0,0
84414,542.740841248304,4,2,22,42,1,0
84414,-119.047619047619,4,2,22,42,0,0
84685,815.771583956492,4,2,22,42,1,0
85092,1000,4,2,22,42,1,0
85092,-64.9350649350649,4,2,22,42,0,0
85592,437.956204379562,4,2,22,42,1,0
85810,521.739130434783,4,2,22,42,1,0
85810,-121.951219512195,4,2,22,42,0,0
86331,594.059405940594,4,2,22,42,1,0
86331,-114.942528735632,4,2,22,42,0,0
86628,685.714285714286,4,2,22,42,1,0
86970,508.474576271186,4,2,22,42,1,0
87224,491.803278688525,4,2,22,42,1,0
87224,-166.666666666667,4,2,22,42,0,0

[Colours]
Combo1 : 81,136,125
Combo2 : 255,206,250
Combo3 : 253,255,206

[HitObjects]
104,104,14064,6,0,L|208:116,1,86.2500032901765,4|0,1:3|0:0,0:0:0:0:
264,200,14484,2,0,L|368:188,1,86.2500032901765,4|0,1:3|0:0,0:0:0:0:
440,116,14905,2,0,P|400:144|444:260,1,172.500006580353,8|0,0:0|0:0,0:0:0:0:
480,352,15537,1,8,1:3:0:0:
480,352,15747,6,0,L|380:340,1,86.2500032901765
304,276,16168,2,0,L|204:288,1,86.2500032901765,4|0,1:3|0:0,0:0:0:0:
104,248,16589,2,0,P|120:300|120:356,2,86.2500032901765,8|0|0,0:0|0:0|0:0,0:0:0:0:
40,160,17220,1,0,0:0:0:0:
176,176,17431,6,0,P|228:192|276:184,1,86.2500032901765,4|0,1:3|0:0,0:0:0:0:
372,208,17851,2,0,P|332:245|315:290,1,86.2500032901765,4|0,1:3|0:0,0:0:0:0:
464,336,18272,2,0,B|472:264|472:264|464:228|464:228|472:156,1,172.500006580353,8|0,0:0|0:0,0:0:0:0:
496,68,18904,1,8,1:3:0:0:
380,128,19114,6,0,P|336:132|296:112,1,86.2500032901765
180,84,19535,2,0,P|205:120|208:164,1,86.2500032901765,4|0,1:3|0:0,0:0:0:0:
168,280,19956,1,8,0:0:0:0:
112,144,20166,1,0,0:0:0:0:
252,240,20377,2,0,B|328:264|312:208|392:232,1,129.375004935265
452,268,20798,5,6,1:2:0:0:
320,144,21008,1,0,0:0:0:0:
360,324,21218,1,8,0:2:0:0:
452,168,21429,1,0,0:0:0:0:
252,240,21639,2,0,L|148:228,1,97.7500018644333,0|0,3:2|1:2,0:0:0:0:
56,96,22060,2,0,L|160:84,1,97.7500018644333,8|0,0:2|0:0,0:0:0:0:
364,120,22481,5,2,1:2:0:0:
192,188,22691,1,0,0:0:0:0:
372,240,22902,1,8,0:2:0:0:
272,68,23112,1,0,0:0:0:0:
240,268,23323,2,0,P|192:280|128:256,1,97.7500018644333,0|0,3:2|1:2,0:0:0:0:
28,124,23744,1,8,0:2:0:0:
60,288,23954,1,0,1:2:0:0:
176,84,24165,5,2,1:2:0:0:
20,208,24375,1,0,0:0:0:0:
104,32,24585,1,8,0:2:0:0:
200,204,24796,1,0,0:0:0:0:
32,84,25006,1,0,3:2:0:0:
236,24,25217,2,0,P|288:12|344:32,1,97.7500018644333,0|8,1:2|0:2,0:0:0:0:
300,228,25638,6,0,L|284:124,1,97.7500018644333,0|2,0:0|1:2,0:0:0:0:
440,32,26058,2,0,L|424:136,1,97.7500018644333,0|8,0:0|0:2,0:0:0:0:
392,280,26479,1,0,0:0:0:0:
296,116,26690,2,0,P|240:108|196:136,1,97.7500018644333,0|0,3:2|1:2,0:0:0:0:
140,312,27111,1,8,0:2:0:0:
92,156,27321,1,0,3:2:0:0:
40,348,27532,5,6,1:2:0:0:
192,236,27742,1,0,0:0:0:0:
0,192,27952,1,8,0:2:0:0:
156,336,28163,1,0,0:0:0:0:
108,132,28373,2,0,L|96:232,1,97.7500018644333,0|0,3:2|1:2,0:0:0:0:
256,320,28794,2,0,L|244:220,1,97.7500018644333,8|0,0:2|0:0,0:0:0:0:
392,84,29215,5,2,1:2:0:0:
336,236,29425,1,0,0:0:0:0:
300,52,29636,1,8,0:2:0:0:
404,184,29846,1,0,0:0:0:0:
464,0,30057,2,0,P|424:24|400:72,1,97.7500018644333,0|0,3:2|1:2,0:0:0:0:
488,240,30478,2,0,P|503:195|490:143,1,97.7500018644333,8|0,0:2|1:2,0:0:0:0:
292,88,30899,6,0,B|220:80|220:80|184:96|184:96|92:88,1,195.500003728867,2|8,1:2|0:2,0:0:0:0:
104,292,31530,1,0,0:0:0:0:
248,168,31740,1,0,3:2:0:0:
216,360,31951,1,0,1:2:0:0:
96,200,32161,1,8,0:2:0:0:
284,292,32372,1,0,0:0:0:0:
232,80,32582,6,0,L|220:184,1,97.7500018644333,2|0,1:2|0:0,0:0:0:0:
380,296,33003,2,0,L|368:192,1,97.7500018644333,8|0,0:2|0:0,0:0:0:0:
216,60,33424,1,0,3:2:0:0:
444,120,33634,1,8,0:2:0:0:
204,192,33845,1,8,0:2:0:0:
376,24,34055,1,8,1:3:0:0:
264,264,34266,6,0,P|216:284|156:272,1,97.7500018644333,6|0,1:2|0:0,0:0:0:0:
92,128,34686,1,8,0:2:0:0:
36,320,34897,1,0,0:0:0:0:
36,320,35002,1,0,0:0:0:0:
36,320,35107,2,0,P|48:272|52:216,1,97.7500018644333,0|0,3:2|1:2,0:0:0:0:
104,40,35528,1,8,0:2:0:0:
152,200,35739,1,0,0:0:0:0:
228,28,35949,6,0,P|284:16|340:40,1,97.7500018644333,2|0,1:2|0:0,0:0:0:0:
380,188,36370,1,8,0:2:0:0:
448,12,36580,1,0,0:0:0:0:
448,12,36686,1,0,0:0:0:0:
448,12,36791,1,0,3:2:0:0:
284,156,37001,1,0,1:2:0:0:
492,84,37212,1,8,0:2:0:0:
416,272,37422,1,0,1:2:0:0:
308,72,37633,6,0,L|300:180,1,97.7500018644333,2|0,1:2|0:0,0:0:0:0:
240,312,38053,1,8,0:2:0:0:
112,136,38264,2,0,P|164:124|212:144,1,97.7500018644333,0|0,0:0|3:2,0:0:0:0:
104,296,38685,2,0,P|67:256|60:205,1,97.7500018644333,0|8,1:2|0:2,0:0:0:0:
80,20,39106,1,0,0:0:0:0:
216,160,39316,6,0,L|204:272,1,97.7500018644333,2|0,1:2|0:0,0:0:0:0:
360,360,39737,1,8,0:2:0:0:
320,184,39947,1,0,0:0:0:0:
320,184,40053,1,0,0:0:0:0:
320,184,40158,1,0,3:2:0:0:
240,344,40368,1,0,1:2:0:0:
204,140,40579,1,8,0:2:0:0:
360,264,40789,1,0,1:2:0:0:
332,56,41000,6,0,L|320:156,1,97.7500018644333,2|0,1:2|0:0,0:0:0:0:
248,324,41420,1,8,0:2:0:0:
156,148,41631,1,0,0:0:0:0:
156,148,41736,1,0,0:0:0:0:
156,148,41841,2,0,P|96:136|52:152,1,97.7500018644333,0|0,3:2|1:2,0:0:0:0:
152,332,42262,1,8,0:2:0:0:
248,164,42473,1,0,0:0:0:0:
308,356,42683,6,0,L|296:252,1,97.7500018644333,2|0,1:2|0:0,0:0:0:0:
336,80,43104,1,8,0:2:0:0:
424,264,43314,1,0,0:0:0:0:
424,264,43420,1,0,0:0:0:0:
424,264,43525,1,0,3:2:0:0:
248,152,43735,1,0,1:2:0:0:
464,104,43946,1,8,0:2:0:0:
304,252,44156,1,0,1:2:0:0:
340,28,44367,6,0,P|364:80|360:132,1,97.7500018644333,2|0,1:2|0:0,0:0:0:0:
292,272,44787,1,8,0:2:0:0:
200,92,44998,1,0,0:0:0:0:
200,92,45103,1,0,0:0:0:0:
200,92,45208,2,0,L|88:80,1,97.7500018644333,0|0,3:2|1:2,0:0:0:0:
40,268,45629,1,8,0:2:0:0:
236,176,45840,1,0,0:0:0:0:
108,368,46050,5,2,1:2:0:0:
56,124,46260,1,0,1:2:0:0:
232,316,46471,1,10,0:2:0:0:
256,64,46681,1,0,1:2:0:0:
52,256,46892,1,10,0:2:0:0:
40,276,47734,6,0,L|164:288,1,109.24999708271,6|0,1:2|0:0,0:0:0:0:
328,164,48154,2,0,L|219:174,1,109.24999708271,10|0,0:2|0:0,0:0:0:0:
172,184,48470,1,8,0:2:0:0:
172,184,48575,1,0,1:2:0:0:
376,60,48786,1,0,1:2:0:0:
300,280,48996,1,8,0:0:0:0:
200,56,49207,1,0,0:0:0:0:
424,236,49417,6,0,P|440:300|424:348,1,109.24999708271,6|0,1:2|0:0,0:0:0:0:
200,384,49838,2,0,P|184:320|200:272,1,109.24999708271,10|0,0:2|0:0,0:0:0:0:
232,244,50154,1,8,0:2:0:0:
232,244,50259,1,0,1:2:0:0:
440,348,50469,1,0,1:2:0:0:
360,120,50680,1,8,0:0:0:0:
288,356,50890,1,0,1:2:0:0:
236,96,51101,5,6,1:2:0:0:
360,288,51311,1,0,0:0:0:0:
444,68,51521,1,10,0:2:0:0:
252,228,51732,1,0,0:0:0:0:
252,228,51837,1,8,0:2:0:0:
252,228,51942,2,0,L|116:212,1,109.24999708271,0|0,1:2|1:2,0:0:0:0:
288,16,52363,1,8,0:0:0:0:
352,240,52574,1,0,0:0:0:0:
188,56,52784,6,0,P|128:48|76:84,1,109.24999708271,6|0,1:2|0:0,0:0:0:0:
24,284,53205,1,10,0:2:0:0:
220,156,53415,1,0,0:0:0:0:
220,156,53521,1,8,0:2:0:0:
220,156,53626,1,0,1:2:0:0:
96,360,53836,1,8,0:2:0:0:
24,128,54047,1,8,0:0:0:0:
188,304,54257,1,0,1:2:0:0:
228,60,54468,6,0,P|292:40|352:60,1,109.24999708271,6|0,1:2|0:0,0:0:0:0:
480,204,54888,2,0,P|416:184|356:204,1,109.24999708271,10|0,0:2|0:0,0:0:0:0:
340,224,55204,1,8,0:2:0:0:
340,224,55309,1,0,1:2:0:0:
208,36,55520,1,0,1:2:0:0:
188,272,55730,1,8,0:0:0:0:
312,72,55941,1,0,0:0:0:0:
356,324,56151,6,0,B|244:292|268:392|140:364,1,218.499994165421,6|10,1:2|0:2,0:0:0:0:
40,152,56782,1,0,0:0:0:0:
40,152,56888,1,8,0:2:0:0:
40,152,56993,1,0,1:2:0:0:
280,220,57203,1,0,1:2:0:0:
32,284,57414,1,8,0:0:0:0:
232,108,57624,1,0,1:2:0:0:
160,360,57835,6,0,B|104:228|104:228|144:152,1,218.499994165421,6|10,1:2|0:2,0:0:0:0:
332,40,58466,1,0,0:0:0:0:
332,40,58571,1,8,0:2:0:0:
332,40,58676,2,0,L|320:156,1,109.24999708271,0|0,1:2|1:2,0:0:0:0:
260,348,59097,1,8,0:0:0:0:
180,136,59308,1,0,0:0:0:0:
384,288,59518,5,6,1:2:0:0:
112,244,59728,1,8,0:0:0:0:
112,244,59834,1,8,0:0:0:0:
112,244,59939,2,0,L|176:236,1,54.6249985413552,8|8,0:0|0:0,0:0:0:0:
396,168,60149,1,4,1:2:0:0:
160,72,60360,2,0,L|168:140,1,54.6249985413552,8|0,0:2|0:0,0:0:0:0:
248,340,60570,1,4,1:2:0:0:
328,100,60781,1,8,0:2:0:0:
328,100,60886,1,8,0:2:0:0:
328,100,60991,1,8,1:3:0:0:
104,272,61202,6,0,P|44:284|-16:256,1,109.24999708271,4|0,1:2|0:0,0:0:0:0:
128,44,61622,2,0,P|188:32|248:60,1,109.24999708271,8|0,0:2|0:0,0:0:0:0:
324,264,62043,1,0,1:2:0:0:
376,40,62254,1,0,0:0:0:0:
232,232,62464,1,8,0:2:0:0:
440,116,62675,1,0,0:0:0:0:
352,348,62885,6,0,L|336:220,1,109.24999708271,0|0,1:2|0:0,0:0:0:0:
188,44,63306,2,0,L|172:172,1,109.24999708271,8|0,0:2|0:0,0:0:0:0:
244,356,63727,1,0,1:2:0:0:
52,216,63937,1,0,0:0:0:0:
300,156,64148,1,8,0:2:0:0:
92,304,64358,6,0,P|28:308|-32:264,1,109.24999708271,0|4,0:0|1:2,0:0:0:0:
144,92,64779,2,0,P|179:145|171:219,1,109.24999708271,0|8,0:0|0:2,0:0:0:0:
248,364,65200,2,0,P|276:306|344:276,1,109.24999708271,0|0,0:0|1:2,0:0:0:0:
436,152,65621,2,0,L|312:132,1,109.24999708271,0|8,0:0|0:2,0:0:0:0:
168,236,66042,1,0,0:0:0:0:
212,0,66252,6,0,L|232:124,1,109.24999708271,0|0,1:2|0:0,0:0:0:0:
192,332,66673,1,8,0:2:0:0:
32,144,66883,2,0,P|84:120|140:136,1,109.24999708271,0|0,0:0|1:2,0:0:0:0:
332,220,67304,1,0,0:0:0:0:
84,272,67515,1,8,0:2:0:0:
84,272,67620,1,8,0:2:0:0:
84,272,67725,2,0,L|92:204,1,54.6249985413552,8|8,0:2|0:2,0:0:0:0:
256,12,67936,6,0,L|268:124,1,109.24999708271,4|0,1:2|0:0,0:0:0:0:
424,316,68356,2,0,L|436:204,1,109.24999708271,8|0,0:2|0:0,0:0:0:0:
176,156,68777,1,0,1:2:0:0:
348,372,68988,1,0,0:0:0:0:
400,116,69198,1,8,0:2:0:0:
264,328,69409,1,0,0:0:0:0:
224,60,69619,6,0,P|168:48|120:64,1,109.24999708271,4|0,1:2|0:0,0:0:0:0:
16,268,70040,2,0,P|67:284|120:272,1,109.24999708271,8|0,0:2|0:0,0:0:0:0:
236,76,70461,1,0,1:2:0:0:
284,316,70671,1,0,0:0:0:0:
120,120,70882,1,8,0:2:0:0:
172,360,71092,1,0,0:0:0:0:
332,88,71303,5,12,0:2:0:0:
60,212,71513,1,0,1:2:0:0:
388,272,71723,5,8,0:2:0:0:
132,100,71934,1,0,1:2:0:0:
308,356,72144,5,12,0:2:0:0:
356,64,72355,1,0,1:2:0:0:
208,320,72565,5,8,0:2:0:0:
180,32,72776,1,0,1:2:0:0:
388,272,72986,5,12,0:2:0:0:
112,120,73197,1,0,1:2:0:0:
440,40,73407,5,12,0:2:0:0:
308,328,73617,1,0,1:2:0:0:
188,8,73828,5,12,0:2:0:0:
408,256,74038,1,0,1:2:0:0:
60,188,74249,5,8,1:3:0:0:
320,28,74459,1,4,1:3:0:0:
220,280,74670,6,0,B|144:256|160:316|68:292,1,149.499993156433,6|0,1:2|0:0,0:0:0:0:
16,208,75301,2,0,P|24:148|124:140,1,149.499993156433,2|0,0:0|0:0,0:0:0:0:
192,180,75932,1,0,0:0:0:0:
192,180,76143,6,0,B|276:168|276:168|332:188|332:188|424:176,1,224.24998973465,2|0,0:0|0:0,0:0:0:0:
460,88,76984,1,0,0:0:0:0:
460,88,77195,2,0,L|376:80,1,74.7499965782167,2|0,0:0|0:0,0:0:0:0:
304,12,77616,2,0,L|220:20,1,74.7499965782167
140,76,78037,6,0,B|184:112|184:112|156:216,1,149.499993156433,2|0,0:0|0:0,0:0:0:0:
104,292,78668,2,0,P|152:308|196:300,1,74.7499965782167,2|0,0:0|0:0,0:0:0:0:
256,236,79089,2,0,P|304:220|348:228,1,74.7499965782167
420,272,79510,6,0,P|428:332|308:300,1,224.24998973465,2|0,0:0|0:0,0:0:0:0:
256,236,80351,1,0,0:0:0:0:
256,236,80562,2,0,L|264:152,1,74.7499965782167,2|0,0:0|0:0,0:0:0:0:
360,124,80983,2,0,L|352:40,1,74.7499965782167
256,8,81404,6,0,B|176:-4|200:56|104:40,1,149.499993156433,2|0,0:0|0:0,0:0:0:0:
16,68,82035,2,0,P|40:124|52:224,1,149.499993156433,2|0,0:0|0:0,0:0:0:0:
112,296,82666,1,0,0:0:0:0:
112,296,82875,6,0,B|184:280|232:336|232:336|248:268|332:260,1,234.600001431885,2|0,0:0|0:0,0:0:0:0:
392,316,83747,1,0,0:0:0:0:
392,316,83965,2,0,P|404:272|388:220,1,81.6499958885958,2|0,0:0|0:0,0:0:0:0:
448,136,84414,2,0,P|408:142|348:124,1,96.599997052002,2|2,0:0|0:0,0:0:0:0:
224,24,85092,6,0,L|236:204,1,177.099996486969,2|0,0:0|0:0,0:0:0:0:
196,296,85810,2,0,P|144:308|96:288,1,94.3000014389038,2|0,0:0|0:0,0:0:0:0:
28,184,86331,2,0,P|80:196|136:176,1,100.050000839653,2|2,0:0|0:0,0:0:0:0:
228,80,87224,6,0,B|396:52|344:184|500:136|500:136|488:56|420:56,1,413.999987365723,2|0,0:0|0:0,0:0:0:0:
