osu file format v14

[General]
AudioFilename: audio.mp3
AudioLeadIn: 0
PreviewTime: 46366
Countdown: 0
SampleSet: Soft
StackLeniency: 0.7
Mode: 0
LetterboxInBreaks: 0
WidescreenStoryboard: 1

[Editor]
Bookmarks: 14418,75028
DistanceSpacing: 0.4
BeatDivisor: 4
GridSize: 32
TimelineZoom: 1.8

[Metadata]
Title:Angel With A Shotgun (Sped Up Ver.)
TitleUnicode:Angel With A Shotgun (Sped Up Ver.)
Artist:The Cab
ArtistUnicode:The Cab
Creator:Sotarks
Version:Reform's Expert
Source:
Tags:speed up version cut short english pop symphony soldier armin a_r_m_i_n akitoshi corinn -laura- ayyri eiri- browiec fieryrage kowari lon log_off_now log off now nevo snownino_ reform kujinn elinor eli [_eli_] nightcore mix
BeatmapID:2449791
BeatmapSetID:1174505

[Difficulty]
HPDrainRate:5.2
CircleSize:3.2
OverallDifficulty:8.4
ApproachRate:8.4
SliderMultiplier:2.22
SliderTickRate:1

[Events]
//Background and Video events
0,0,"bg.jpg",0,0
//Break Periods
//Storyboard Layer 0 (Background)
//Storyboard Layer 1 (Fail)
//Storyboard Layer 2 (Pass)
//Storyboard Layer 3 (Foreground)
//Storyboard Layer 4 (Overlay)
//Storyboard Sound Samples

[TimingPoints]
596,420.875420875421,4,2,22,72,1,0
596,-192.307692307693,4,2,22,72,0,0
20798,-138.888888888889,4,2,22,62,0,0
34266,-121.951219512195,4,2,22,72,0,0
47734,-98.0392156862745,4,2,22,82,0,0
74670,-161.290322580645,4,2,22,52,0,0
74775,-161.290322580645,4,2,22,42,0,0
82875,436.205016357688,4,2,22,42,1,0
82875,-161.290322580645,4,2,22,42,0,0
83965,449.269936353426,4,2,22,42,1,0
83965,-161.290322580645,4,2,22,42,0,0
84414,542.740841248304,4,2,22,42,1,0
84685,815.771583956492,4,2,22,42,1,0
85092,1000,4,2,22,42,1,0
85592,437.956204379562,4,2,22,42,1,0
85810,521.739130434783,4,2,22,42,1,0
85810,-161.290322580645,4,2,22,42,0,0
86331,594.059405940594,4,2,22,42,1,0
86331,-161.290322580645,4,2,22,42,0,0
86628,685.714285714286,4,2,22,42,1,0
86970,508.474576271186,4,2,22,42,1,0
87224,491.803278688525,4,2,22,42,1,0
87224,-192.307692307692,4,2,22,42,0,0

[Colours]
Combo1 : 81,136,125
Combo2 : 255,206,250
Combo3 : 253,255,206

[HitObjects]
105,90,14064,6,0,P|115:132|122:162,1,57.7199996477051,4|0,1:3|0:0,0:0:0:0:
230,49,14484,2,0,P|220:91|213:121,1,57.7199996477051,4|0,1:3|0:0,0:0:0:0:
334,14,14905,2,0,P|345:70|360:142,1,115.43999929541,8|0,0:0|0:0,0:0:0:0:
506,242,15537,6,0,P|463:232|399:288,1,115.43999929541,8|0,1:3|0:0,0:0:0:0:
341,344,16168,2,0,P|310:336|279:330,1,57.7199996477051,4|0,1:3|0:0,0:0:0:0:
217,259,16589,2,0,P|178:273|95:293,1,115.43999929541,8|0,0:0|0:0,0:0:0:0:
106,291,17431,6,0,P|98:254|90:222,1,57.7199996477051,4|0,1:3|0:0,0:0:0:0:
197,124,17851,2,0,P|190:152|185:180,1,57.7199996477051,4|0,1:3|0:0,0:0:0:0:
27,94,18272,2,0,P|49:66|136:63,1,115.43999929541,8|0,0:0|0:0,0:0:0:0:
197,124,18904,6,0,P|253:125|294:86,1,115.43999929541,8|0,1:3|0:0,0:0:0:0:
339,14,19535,2,0,P|379:22|406:28,1,57.7199996477051,4|0,1:3|0:0,0:0:0:0:
474,107,19956,2,0,P|445:112|417:118,1,57.7199996477051,8|0,0:0|0:0,0:0:0:0:
342,194,20377,2,0,P|382:202|409:208,1,57.7199996477051
180,338,20798,6,0,P|172:292|156:244,1,79.9200019511719,6|0,1:2|0:0,0:0:0:0:
264,83,21218,2,0,P|252:121|246:160,1,79.9200019511719,8|0,0:2|0:0,0:0:0:0:
430,319,21639,1,0,3:2:0:0:
337,157,21850,1,0,1:2:0:0:
266,323,22060,2,0,P|223:333|176:342,1,79.9200019511719,8|0,0:2|0:0,0:0:0:0:
432,222,22481,6,0,P|467:224|509:259,1,79.9200019511719,2|0,1:2|0:0,0:0:0:0:
366,374,22902,2,0,P|331:372|289:337,1,79.9200019511719,8|0,0:2|0:0,0:0:0:0:
185,136,23323,1,0,3:2:0:0:
355,241,23533,1,0,1:2:0:0:
180,345,23744,1,8,0:2:0:0:
258,176,23954,1,0,1:2:0:0:
435,379,24165,6,0,P|443:330|454:280,1,79.9200019511719,2|0,1:2|0:0,0:0:0:0:
280,96,24585,2,0,P|287:135|294:174,1,79.9200019511719,8|0,0:2|0:0,0:0:0:0:
456,63,25006,1,0,3:2:0:0:
359,248,25217,1,0,1:2:0:0:
245,82,25427,1,8,0:2:0:0:
424,161,25638,1,0,0:0:0:0:
263,308,25848,6,0,P|218:297|164:292,1,79.9200019511719,2|0,1:2|0:0,0:0:0:0:
66,143,26269,2,0,P|111:132|165:127,1,79.9200019511719,8|0,0:2|0:0,0:0:0:0:
344,241,26690,1,0,3:2:0:0:
251,81,26900,1,0,1:2:0:0:
153,266,27111,2,0,P|108:255|54:250,1,79.9200019511719,8|0,0:2|3:2,0:0:0:0:
324,34,27532,6,0,P|340:80|332:123,1,79.9200019511719,6|0,1:2|0:0,0:0:0:0:
140,190,27952,1,8,0:2:0:0:
215,46,28163,1,0,0:0:0:0:
287,242,28373,2,0,P|332:255|379:270,1,79.9200019511719,0|0,3:2|1:2,0:0:0:0:
125,91,28794,2,0,P|80:104|33:119,1,79.9200019511719,8|0,0:2|0:0,0:0:0:0:
130,321,29215,6,0,P|138:271|151:225,1,79.9200019511719,2|0,1:2|0:0,0:0:0:0:
350,138,29636,1,8,0:2:0:0:
163,65,29846,1,0,0:0:0:0:
298,224,30057,2,0,P|307:262|313:302,1,79.9200019511719,0|0,3:2|1:2,0:0:0:0:
426,91,30478,1,8,0:2:0:0:
426,91,30583,1,0,0:0:0:0:
426,91,30688,1,0,1:2:0:0:
272,17,30899,6,0,P|219:11|178:0,1,79.9200019511719,2|0,1:2|0:0,0:0:0:0:
75,226,31319,1,8,0:2:0:0:
237,139,31530,1,0,0:0:0:0:
63,52,31740,1,0,3:2:0:0:
165,231,31951,1,0,1:2:0:0:
253,71,32161,1,8,0:2:0:0:
253,71,32266,1,0,0:0:0:0:
253,71,32372,1,0,0:0:0:0:
37,167,32582,6,0,P|52:210|64:252,1,79.9200019511719,2|0,1:2|0:0,0:0:0:0:
232,373,33003,2,0,P|243:334|256:297,1,79.9200019511719,8|0,0:2|0:0,0:0:0:0:
368,92,33424,1,0,3:2:0:0:
147,212,33634,1,8,0:2:0:0:
387,328,33845,1,8,0:2:0:0:
274,130,34055,1,8,1:3:0:0:
143,363,34266,6,0,P|72:374|0:291,1,182.04000277771,6|8,1:2|0:2,0:0:0:0:
185,128,34897,2,0,P|205:176|218:232,1,91.020001388855,0|0,0:0|3:2,0:0:0:0:
403,112,35318,1,0,1:2:0:0:
342,287,35528,1,8,0:2:0:0:
253,72,35739,1,0,0:0:0:0:
465,316,35949,6,0,P|474:252|497:127,1,182.04000277771,2|8,1:2|0:2,0:0:0:0:
255,289,36580,1,0,0:0:0:0:
338,63,36791,1,0,3:2:0:0:
392,304,37001,1,0,1:2:0:0:
272,121,37212,1,8,0:2:0:0:
200,333,37422,1,0,1:2:0:0:
43,82,37633,6,0,P|72:34|202:35,1,182.04000277771,2|8,1:2|0:2,0:0:0:0:
226,222,38264,2,0,P|172:200|117:190,1,91.020001388855,0|0,0:0|3:2,0:0:0:0:
267,42,38685,2,0,P|321:20|376:10,1,91.020001388855,0|8,1:2|0:2,0:0:0:0:
453,221,39106,1,0,0:0:0:0:
286,131,39316,6,0,P|299:197|321:328,1,182.04000277771,2|8,1:2|0:2,0:0:0:0:
405,99,39947,1,0,0:0:0:0:
223,217,40158,1,0,3:2:0:0:
422,102,40368,1,0,1:2:0:0:
217,38,40578,1,8,0:2:0:0:
340,240,40789,1,0,1:2:0:0:
512,100,41000,6,0,P|487:40|359:35,1,182.04000277771,2|8,1:2|0:2,0:0:0:0:
252,263,41631,2,0,P|308:246|341:239,1,91.020001388855,0|0,0:0|3:2,0:0:0:0:
203,28,42052,1,0,1:2:0:0:
147,189,42262,1,8,0:2:0:0:
304,122,42473,1,0,0:0:0:0:
94,78,42683,6,0,P|78:150|53:282,1,182.04000277771,2|8,1:2|0:2,0:0:0:0:
240,47,43314,1,0,0:0:0:0:
292,259,43525,1,0,3:2:0:0:
136,107,43735,1,0,1:2:0:0:
355,204,43946,1,8,0:2:0:0:
158,310,44156,1,0,1:2:0:0:
337,108,44367,6,0,P|395:112|445:228,1,182.04000277771,2|8,1:2|0:2,0:0:0:0:
126,188,44998,1,0,0:0:0:0:
302,337,45208,1,0,3:2:0:0:
270,112,45419,1,0,1:2:0:0:
153,322,45629,1,8,0:2:0:0:
347,209,45840,1,0,0:0:0:0:
143,96,46050,5,2,1:2:0:0:
245,383,46260,1,0,1:2:0:0:
327,68,46471,1,10,0:2:0:0:
153,322,46681,1,0,1:2:0:0:
223,0,46892,1,10,0:2:0:0:
223,0,47734,6,0,P|237:60|247:114,1,113.22000069104,6|0,1:2|0:0,0:0:0:0:
411,318,48154,2,0,P|421:262|434:207,1,113.22000069104,10|0,0:2|0:0,0:0:0:0:
448,162,48470,1,8,0:2:0:0:
448,162,48575,1,0,1:2:0:0:
282,237,48786,1,0,1:2:0:0:
509,303,48996,1,8,0:0:0:0:
399,77,49207,1,0,0:0:0:0:
277,369,49417,6,0,P|222:354|159:341,1,113.22000069104,6|0,1:2|0:0,0:0:0:0:
0,174,49838,2,0,P|55:159|118:146,1,113.22000069104,10|0,0:2|0:0,0:0:0:0:
140,152,50154,1,8,0:2:0:0:
140,152,50259,1,0,1:2:0:0:
345,260,50469,1,0,1:2:0:0:
117,353,50680,1,8,0:0:0:0:
227,99,50890,1,0,1:2:0:0:
361,363,51101,5,6,1:2:0:0:
105,256,51311,1,0,0:0:0:0:
326,66,51521,2,0,P|343:130|361:250,1,169.83000103656,10|8,0:2|0:2,0:0:0:0:
375,281,51942,2,0,P|386:207|399:145,1,113.22000069104,0|0,1:2|1:2,0:0:0:0:
154,299,52363,1,8,0:0:0:0:
241,58,52574,1,0,0:0:0:0:
301,326,52784,6,0,P|354:310|423:298,1,113.22000069104,6|0,1:2|0:0,0:0:0:0:
178,129,53205,2,0,P|125:113|56:101,1,113.22000069104,10|0,0:2|0:0,0:0:0:0:
34,116,53521,1,8,0:2:0:0:
34,116,53626,1,0,1:2:0:0:
227,317,53836,1,8,0:2:0:0:
273,29,54047,1,8,0:0:0:0:
55,214,54257,1,0,1:2:0:0:
395,152,54468,6,0,P|408:82|425:25,1,113.22000069104,6|0,1:2|0:0,0:0:0:0:
164,213,54888,2,0,P|178:267|188:323,1,113.22000069104,10|0,0:2|0:0,0:0:0:0:
184,362,55204,1,8,0:2:0:0:
184,362,55309,1,0,1:2:0:0:
299,111,55520,1,0,1:2:0:0:
367,328,55730,1,8,0:0:0:0:
228,69,55941,1,0,0:0:0:0:
82,359,56151,6,0,P|17:344|12:194,1,226.44000138208,6|10,1:2|0:2,0:0:0:0:
223,318,56782,1,0,0:0:0:0:
223,318,56888,1,8,0:2:0:0:
223,318,56993,1,0,1:2:0:0:
145,35,57203,1,0,1:2:0:0:
68,268,57414,1,8,0:0:0:0:
281,169,57624,1,0,1:2:0:0:
9,50,57835,6,0,P|26:115|41:198,1,113.22000069104,6|0,1:2|0:0,0:0:0:0:
211,348,58255,2,0,P|222:292|237:237,1,113.22000069104,10|0,0:2|0:0,0:0:0:0:
264,203,58571,1,8,0:2:0:0:
264,203,58676,1,0,1:2:0:0:
94,248,58887,1,0,1:2:0:0:
320,342,59097,1,8,0:0:0:0:
261,108,59308,1,0,0:0:0:0:
165,331,59518,5,6,1:2:0:0:
364,177,59728,1,8,0:0:0:0:
386,175,59834,1,8,0:0:0:0:
408,178,59939,1,8,0:0:0:0:
428,187,60044,1,8,0:0:0:0:
446,199,60149,1,4,1:2:0:0:
281,358,60360,1,8,0:2:0:0:
204,130,60570,1,4,1:2:0:0:
399,260,60781,1,8,0:2:0:0:
399,260,60886,1,8,0:2:0:0:
399,260,60991,1,8,1:3:0:0:
71,346,61202,6,0,P|37:284|129:153,2,226.44000138208,4|8|0,1:2|0:2|1:2,0:0:0:0:
198,131,62254,1,0,0:0:0:0:
334,289,62464,1,8,0:2:0:0:
261,44,62675,1,0,0:0:0:0:
148,242,62885,6,0,B|207:279|266:241|240:218|305:176|371:215,1,226.44000138208,0|8,1:2|0:2,0:0:0:0:
504,321,63516,1,0,0:0:0:0:
371,79,63727,1,0,1:2:0:0:
289,331,63937,1,0,0:0:0:0:
512,202,64148,1,8,0:2:0:0:
262,35,64358,6,0,P|205:17|144:36,1,113.22000069104,0|4,0:0|1:2,0:0:0:0:
275,231,64779,2,0,P|332:249|393:230,1,113.22000069104,0|8,0:0|0:2,0:0:0:0:
252,49,65200,2,0,P|195:31|134:50,1,113.22000069104,0|0,0:0|1:2,0:0:0:0:
265,245,65621,2,0,P|322:263|383:244,1,113.22000069104,0|8,0:0|0:2,0:0:0:0:
141,128,66042,1,0,0:0:0:0:
202,357,66252,5,0,1:2:0:0:
302,107,66463,1,0,0:0:0:0:
73,230,66673,1,8,0:2:0:0:
320,305,66883,1,0,0:0:0:0:
190,83,67094,1,0,1:2:0:0:
111,343,67304,1,0,0:0:0:0:
309,221,67515,1,8,0:2:0:0:
331,223,67620,1,8,0:2:0:0:
352,230,67725,1,8,0:2:0:0:
372,239,67830,1,8,0:2:0:0:
391,252,67936,6,0,P|409:149|442:23,2,226.44000138208,4|8|0,1:2|0:2|1:2,0:0:0:0:
157,74,68988,1,0,0:0:0:0:
266,295,69198,1,8,0:2:0:0:
342,41,69409,1,0,0:0:0:0:
205,211,69619,6,0,B|149:187|85:228|120:253|57:293|-9:254,1,226.44000138208,4|8,1:2|0:2,0:0:0:0:
189,347,70250,1,0,0:0:0:0:
68,95,70461,1,0,1:2:0:0:
293,202,70671,1,0,0:0:0:0:
81,318,70882,1,8,0:2:0:0:
206,85,71092,1,0,0:0:0:0:
339,295,71303,5,12,0:2:0:0:
85,181,71513,1,0,1:2:0:0:
354,61,71723,5,8,0:2:0:0:
212,327,71934,1,0,1:2:0:0:
106,26,72144,5,12,0:2:0:0:
364,171,72355,1,0,1:2:0:0:
79,296,72565,5,8,0:2:0:0:
232,13,72776,1,0,1:2:0:0:
320,334,72986,5,12,0:2:0:0:
138,52,73197,1,0,1:2:0:0:
74,380,73407,5,12,0:2:0:0:
255,120,73617,1,0,1:2:0:0:
395,374,73828,5,12,0:2:0:0:
95,223,74038,1,0,1:2:0:0:
357,79,74249,1,8,1:3:0:0:
357,79,74354,1,4,1:3:0:0:
357,79,74459,1,4,1:3:0:0:
210,370,74670,6,0,P|205:319|189:215,1,137.639994539429,6|0,1:2|0:0,0:0:0:0:
256,165,75301,2,0,P|261:114|277:10,1,137.639994539429,2|0,0:0|0:0,0:0:0:0:
218,91,75932,1,0,0:0:0:0:
146,18,76143,2,0,P|106:13|23:139,1,206.459991809143,2|0,0:0|0:0,0:0:0:0:
20,131,76984,1,0,0:0:0:0:
99,207,77195,1,2,0:0:0:0:
178,127,77405,1,0,0:0:0:0:
229,212,77616,2,0,P|272:220|309:229,1,68.8199972697145
482,108,78037,6,0,P|414:93|347:158,1,137.639994539429,2|0,0:0|0:0,0:0:0:0:
395,231,78668,2,0,P|428:226|462:220,1,68.8199972697145,2|0,0:0|0:0,0:0:0:0:
373,355,79089,2,0,P|340:350|305:344,1,68.8199972697145
234,245,79510,2,0,B|177:217|124:257|155:272|101:312|36:282,1,206.459991809143,2|0,0:0|0:0,0:0:0:0:
90,176,80351,1,0,0:0:0:0:
90,176,80562,2,0,P|88:130|89:82,1,68.8199972697145,2|0,0:0|0:0,0:0:0:0:
209,34,80983,2,0,P|211:80|210:128,1,68.8199972697145
310,191,81404,6,0,P|361:223|450:195,1,137.639994539429,2|0,0:0|0:0,0:0:0:0:
510,110,82035,2,0,P|517:168|530:275,1,137.639994539429,2|0,0:0|0:0,0:0:0:0:
462,335,82666,1,0,0:0:0:0:
361,280,82875,6,0,P|310:248|173:325,1,206.459991809143,2|0,0:0|0:0,0:0:0:0:
125,376,83747,1,0,0:0:0:0:
30,317,83965,2,0,P|25:266|21:216,1,68.8199972697145,2|0,0:0|0:0,0:0:0:0:
97,178,84414,1,2,0:0:0:0:
38,87,84685,1,2,0:0:0:0:
160,18,85092,2,0,P|211:37|288:32,1,111,2|0,0:0|0:0,0:0:0:0:
376,10,85810,6,0,P|423:13|453:28,1,68.8199972697145,2|0,0:0|0:0,0:0:0:0:
494,98,86331,1,2,0:0:0:0:
388,164,86628,1,2,0:0:0:0:
505,285,87224,6,0,B|323:231|391:435|177:368,1,346.319997886231,2|0,0:0|0:0,0:0:0:0:
