osu file format v14

[General]
AudioFilename: audio.mp3
AudioLeadIn: 0
PreviewTime:46366
Countdown: 0
SampleSet: Soft
StackLeniency: 0.7
Mode: 0
LetterboxInBreaks: 0
WidescreenStoryboard: 1

[Editor]
Bookmarks: 14418,75028
DistanceSpacing: 1.5
BeatDivisor: 4
GridSize: 8
TimelineZoom: 0.9000002

[Metadata]
Title:Angel With A Shotgun (Sped Up Ver.)
TitleUnicode:Angel With A Shotgun (Sped Up Ver.)
Artist:The Cab
ArtistUnicode:The Cab
Creator:Sotarks
Version:Log Off Now's Insane
Source:
Tags:speed up version cut short english pop symphony soldier armin a_r_m_i_n akitoshi corinn -laura- ayyri eiri- browiec fieryrage kowari lon log_off_now log off now nevo snownino_ reform kujinn elinor eli [_eli_] nightcore mix
BeatmapID:2452960
BeatmapSetID:1174505

[Difficulty]
HPDrainRate:5
CircleSize:3.8
OverallDifficulty:8
ApproachRate:8.2
SliderMultiplier:1.42
SliderTickRate:1

[Events]
//Background and Video events
0,0,"bg.jpg"
//Break Periods
//Storyboard Layer 0 (Background)
//Storyboard Layer 1 (Fail)
//Storyboard Layer 2 (Pass)
//Storyboard Layer 3 (Foreground)
//Storyboard Layer 4 (Overlay)
//Storyboard Sound Samples

[TimingPoints]
596,420.875420875421,4,2,22,72,1,0
20798,-90.9090909090909,4,2,22,62,0,0
34266,-83.3333333333333,4,2,22,72,0,0
47734,-66.6666666666667,4,2,22,82,0,1
74670,-111.111111111111,4,2,22,52,0,0
74775,-111.111111111111,4,2,22,42,0,0
82875,436.205016357688,4,2,22,42,1,0
82875,-111.111111111111,4,2,22,42,0,0
83965,449.269936353426,4,2,22,42,1,0
83965,-111.111111111111,4,2,22,42,0,0
84414,542.740841248304,4,2,22,42,1,0
84685,815.771583956492,4,2,22,42,1,0
85092,1000,4,2,22,42,1,0
85592,437.956204379562,4,2,22,42,1,0
85810,521.739130434783,4,2,22,42,1,0
85810,-111.111111111111,4,2,22,42,0,0
86331,594.059405940594,4,2,22,42,1,0
86331,-111.111111111111,4,2,22,42,0,0
86628,685.714285714286,4,2,22,42,1,0
86970,508.474576271186,4,2,22,42,1,0
87224,491.803278688525,4,2,22,42,1,0
87224,-111.111111111111,4,2,22,42,0,0

[Colours]
Combo1 : 81,136,125
Combo2 : 255,206,250
Combo3 : 253,255,206

[HitObjects]
31,291,14064,6,0,L|132:301,1,71,4|0,1:3|0:0,0:0:0:0:
166,363,14485,2,0,L|267:353,1,71,4|0,1:3|0:0,0:0:0:0:
316,188,14906,2,0,P|294:234|329:321,1,142,8|0,0:0|0:0,0:0:0:0:
452,239,15538,1,8,1:3:0:0:
452,239,15748,2,0,L|351:249,1,71
305,342,16169,2,0,L|204:332,1,71,4|0,1:3|0:0,0:0:0:0:
89,163,16590,2,0,B|122:191|122:191|249:180,1,142,8|0,0:0|0:0,0:0:0:0:
285,116,17221,1,0,0:0:0:0:
369,280,17432,6,0,P|418:261|467:263,1,71,4|0,1:3|0:0,0:0:0:0:
220,182,17852,2,0,P|239:231|237:280,1,71,4|0,1:3|0:0,0:0:0:0:
422,166,18273,2,0,P|344:170|293:118,1,142,8|0,0:0|0:0,0:0:0:0:
391,21,18905,2,0,P|381:67|378:98,1,71,8|0,1:3|0:0,0:0:0:0:
507,191,19325,1,0,0:0:0:0:
507,191,19536,2,0,L|423:200,1,71,4|0,1:3|0:0,0:0:0:0:
275,309,19957,1,8,0:0:0:0:
357,167,20167,1,0,0:0:0:0:
428,289,20378,2,0,L|347:279,1,71
239,141,20799,6,0,P|273:191|270:235,1,78.1000023834229,6|0,1:2|0:0,0:0:0:0:
243,340,21219,1,8,0:2:0:0:
187,212,21430,1,0,0:0:0:0:
86,308,21640,2,0,L|186:298,1,78.1000023834229,0|0,3:2|1:2,0:0:0:0:
268,362,22061,2,0,P|311:332|382:334,1,117.150003575134,8|0,0:2|0:0,0:0:0:0:
395,310,22482,6,0,L|387:216,1,78.1000023834229,2|0,1:2|0:0,0:0:0:0:
370,92,22903,1,8,0:2:0:0:
478,174,23113,1,0,0:0:0:0:
503,7,23324,2,0,P|467:26|413:28,1,78.1000023834229,0|0,3:2|1:2,0:0:0:0:
272,10,23745,1,8,0:2:0:0:
403,124,23955,1,0,1:2:0:0:
314,187,24166,5,2,1:2:0:0:
342,67,24376,1,0,0:0:0:0:
478,174,24586,2,0,P|442:155|388:153,1,78.1000023834229,8|0,0:2|0:0,0:0:0:0:
235,213,25007,1,0,3:2:0:0:
419,239,25218,1,0,1:2:0:0:
279,120,25428,1,8,0:2:0:0:
324,275,25639,6,0,L|339:175,1,78.1000023834229,0|2,0:0|1:2,0:0:0:0:
360,62,26059,1,0,0:0:0:0:
244,146,26270,2,0,P|189:111|90:127,1,156.200004766846,8|0,0:2|3:2,0:0:0:0:
43,242,26901,1,0,1:2:0:0:
155,203,27112,1,8,0:2:0:0:
117,322,27322,1,0,3:2:0:0:
4,133,27533,6,0,L|105:149,1,78.1000023834229,6|0,1:2|0:0,0:0:0:0:
207,304,27953,1,8,0:2:0:0:
168,124,28164,1,0,0:0:0:0:
68,246,28374,2,0,L|169:230,1,78.1000023834229,0|0,3:2|1:2,0:0:0:0:
300,122,28795,2,0,B|266:166|266:166|284:273,1,156.200004766846,8|2,0:2|1:2,0:0:0:0:
174,79,29426,5,0,0:0:0:0:
357,194,29637,1,8,0:2:0:0:
171,173,29847,1,0,0:0:0:0:
334,32,30058,2,0,L|323:132,1,78.1000023834229,0|0,3:2|1:2,0:0:0:0:
304,296,30479,1,8,0:2:0:0:
201,178,30689,1,0,1:2:0:0:
391,216,30900,2,0,P|432:197|476:195,1,78.1000023834229,2|0,1:2|0:0,0:0:0:0:
365,376,31320,5,8,0:2:0:0:
458,288,31531,1,0,0:0:0:0:
326,159,31741,1,0,3:2:0:0:
283,303,31952,2,0,L|385:287,1,78.1000023834229,0|8,1:2|0:2,0:0:0:0:
494,182,32373,2,0,L|416:169,1,78.1000023834229,0|2,0:0|1:2,0:0:0:0:
236,142,32793,5,0,0:0:0:0:
354,0,33004,2,0,L|341:77,1,78.1000023834229,8|0,0:2|0:0,0:0:0:0:
320,200,33425,1,0,3:2:0:0:
452,32,33635,1,8,0:2:0:0:
224,102,33846,1,8,0:2:0:0:
416,169,34056,1,8,1:3:0:0:
254,308,34267,6,0,L|241:223,1,85.1999973999024,6|0,1:2|0:0,0:0:0:0:
221,69,34687,2,0,P|183:111|86:112,1,127.799996099854,8|0,0:2|0:0,0:0:0:0:
83,95,35108,1,0,3:2:0:0:
140,35,35319,1,0,1:2:0:0:
166,213,35529,2,0,L|73:200,1,85.1999973999024,8|0,0:2|0:0,0:0:0:0:
254,84,35950,6,0,P|234:141|248:186,1,85.1999973999024,2|0,1:2|0:0,0:0:0:0:
456,165,36371,2,0,P|418:123|321:122,1,127.799996099854,8|0,0:2|0:0,0:0:0:0:
318,139,36792,1,0,3:2:0:0:
375,199,37001,1,0,1:2:0:0:
420,11,37213,1,8,0:2:0:0:
338,31,37423,1,0,1:2:0:0:
475,154,37634,6,0,L|487:60,1,85.1999973999024,2|0,1:2|0:0,0:0:0:0:
316,19,38054,1,8,0:2:0:0:
382,187,38265,2,0,L|394:93,1,85.1999973999024,0|0,0:0|3:2,0:0:0:0:
229,8,38686,2,0,L|239:92,1,85.1999973999024,0|8,1:2|0:2,0:0:0:0:
260,230,39107,1,0,0:0:0:0:
392,102,39317,6,0,L|370:271,1,170.399994799805,2|8,1:2|0:2,0:0:0:0:
192,179,39948,1,0,0:0:0:0:
192,179,40054,1,0,0:0:0:0:
192,179,40159,2,0,P|231:151|284:154,1,85.1999973999024,0|0,3:2|1:2,0:0:0:0:
274,331,40580,1,8,0:2:0:0:
183,270,40790,1,0,1:2:0:0:
350,250,41001,6,0,L|240:232,1,85.1999973999024,2|0,1:2|0:0,0:0:0:0:
104,189,41421,2,0,P|146:227|147:324,1,127.799996099854,8|0,0:2|0:0,0:0:0:0:
130,327,41842,1,0,3:2:0:0:
70,270,42053,1,0,1:2:0:0:
209,149,42263,2,0,L|116:162,1,85.1999973999024,8|0,0:2|0:0,0:0:0:0:
285,299,42684,6,0,P|263:252|270:205,1,85.1999973999024,2|0,1:2|0:0,0:0:0:0:
416,89,43105,2,0,P|373:126|277:117,1,127.799996099854,8|0,0:2|0:0,0:0:0:0:
276,100,43526,1,0,3:2:0:0:
338,46,43735,1,0,1:2:0:0:
400,216,43947,1,8,0:2:0:0:
470,161,44157,1,0,1:2:0:0:
305,131,44368,6,0,L|315:226,1,85.1999973999024,2|0,1:2|0:0,0:0:0:0:
124,366,44788,2,0,L|134:271,1,85.1999973999024,8|0,0:2|0:0,0:0:0:0:
152,107,45209,1,0,3:2:0:0:
235,276,45420,1,0,1:2:0:0:
270,67,45630,1,8,0:2:0:0:
136,247,45841,1,0,0:0:0:0:
76,49,46051,5,2,1:2:0:0:
223,165,46261,1,0,1:2:0:0:
302,10,46472,1,10,0:2:0:0:
73,145,46682,1,0,1:2:0:0:
365,222,46893,1,10,0:2:0:0:
365,222,47735,6,0,P|305:143|371:33,1,213.000008125305,6|10,1:2|0:2,0:0:0:0:
504,117,48366,1,0,0:0:0:0:
504,117,48471,1,8,0:2:0:0:
504,117,48576,2,0,L|395:130,1,106.500004062653,0|0,1:2|1:2,0:0:0:0:
213,51,48997,1,8,0:0:0:0:
247,258,49208,1,0,0:0:0:0:
46,131,49418,6,0,L|155:144,1,106.500004062653,6|0,1:2|0:0,0:0:0:0:
200,338,49839,2,0,P|164:292|166:227,1,106.500004062653,10|0,0:2|0:0,0:0:0:0:
193,224,50155,1,8,0:2:0:0:
193,224,50260,2,0,L|302:237,1,106.500004062653,0|0,1:2|1:2,0:0:0:0:
449,152,50681,1,8,0:0:0:0:
407,346,50891,1,0,1:2:0:0:
259,147,51102,5,6,1:2:0:0:
306,318,51312,1,0,0:0:0:0:
427,194,51522,2,0,L|318:207,1,106.500004062653,10|0,0:2|0:0,0:0:0:0:
298,236,51838,1,8,0:2:0:0:
298,236,51943,2,0,L|192:223,1,106.500004062653,0|0,1:2|1:2,0:0:0:0:
88,141,52364,1,8,0:0:0:0:
234,113,52575,1,0,0:0:0:0:
108,270,52785,6,0,P|62:235|9:233,1,106.500004062653,6|0,1:2|0:0,0:0:0:0:
189,41,53206,2,0,B|217:80|217:80|197:201,1,159.750006093979,10|8,0:2|0:2,0:0:0:0:
192,223,53627,1,0,1:2:0:0:
69,36,53837,1,8,0:2:0:0:
341,123,54048,1,8,0:0:0:0:
101,180,54258,1,0,1:2:0:0:
271,16,54469,6,0,L|252:127,1,106.500004062653,6|0,1:2|0:0,0:0:0:0:
338,295,54889,1,10,0:2:0:0:
453,105,55100,1,0,0:0:0:0:
456,108,55205,1,8,0:2:0:0:
460,112,55310,1,0,1:2:0:0:
291,208,55521,1,0,1:2:0:0:
481,258,55731,1,8,0:0:0:0:
354,96,55942,1,0,0:0:0:0:
297,245,56152,6,0,B|159:231|226:334|65:299,1,213.000008125305,6|10,1:2|0:2,0:0:0:0:
80,129,56783,1,0,0:0:0:0:
80,129,56888,1,8,0:2:0:0:
80,129,56993,2,0,P|128:187|129:216,1,106.500004062653,0|0,1:2|1:2,0:0:0:0:
69,384,57415,1,8,0:0:0:0:
38,205,57625,1,0,1:2:0:0:
156,352,57836,6,0,P|211:319|262:322,1,106.500004062653,6|0,1:2|0:0,0:0:0:0:
420,368,58256,1,10,0:2:0:0:
336,196,58467,1,0,0:0:0:0:
336,196,58572,1,8,0:2:0:0:
336,196,58677,2,0,L|345:312,1,106.500004062653,0|0,1:2|1:2,0:0:0:0:
447,166,59098,1,8,0:0:0:0:
241,109,59309,1,0,0:0:0:0:
345,331,59519,1,6,1:2:0:0:
458,135,59729,6,0,L|386:146,1,53.2500020313264,8|8,0:0|0:0,0:0:0:0:
336,196,59940,2,0,L|264:185,1,53.2500020313264,8|8,0:0|0:0,0:0:0:0:
211,93,60150,1,4,1:2:0:0:
137,262,60361,2,0,L|126:190,2,53.2500020313264,8|0|4,0:2|0:0|1:2,0:0:0:0:
265,362,60782,1,8,0:2:0:0:
268,330,60887,1,8,0:2:0:0:
272,299,60992,1,8,1:3:0:0:
275,267,61097,1,4,1:3:0:0:
279,236,61203,6,0,P|335:263|394:256,1,106.500004062653,4|0,1:2|0:0,0:0:0:0:
371,80,61623,2,0,B|339:122|339:122|349:181,1,106.500004062653,8|0,0:2|0:0,0:0:0:0:
467,284,62044,1,0,1:2:0:0:
428,147,62255,1,0,0:0:0:0:
374,305,62465,6,0,P|318:278|259:285,1,106.500004062653,8|0,0:2|0:0,0:0:0:0:
207,121,62886,2,0,L|194:232,1,106.500004062653,0|0,1:2|0:0,0:0:0:0:
32,364,63307,2,0,L|19:253,1,106.500004062653,8|0,0:2|0:0,0:0:0:0:
129,111,63728,1,0,1:2:0:0:
109,271,63938,1,0,0:0:0:0:
37,80,64149,1,8,0:2:0:0:
186,209,64359,2,0,P|251:188|294:195,1,106.500004062653,0|4,0:0|1:2,0:0:0:0:
273,371,64780,6,0,B|241:329|241:329|251:270,1,106.500004062653,0|8,0:0|0:2,0:0:0:0:
372,132,65201,1,0,0:0:0:0:
342,302,65411,1,0,1:2:0:0:
268,143,65622,1,0,0:0:0:0:
426,251,65832,1,8,0:2:0:0:
453,62,66043,6,0,P|404:98|348:96,1,106.500004062653,0|0,0:0|1:2,0:0:0:0:
177,34,66464,1,0,0:0:0:0:
373,6,66674,1,8,0:2:0:0:
286,171,66884,2,0,P|237:135|181:137,1,106.500004062653,0|0,0:0|1:2,0:0:0:0:
25,214,67305,1,0,0:0:0:0:
88,17,67516,1,8,0:2:0:0:
91,49,67621,1,8,0:2:0:0:
95,80,67726,1,8,0:2:0:0:
98,112,67831,1,8,0:2:0:0:
102,143,67937,5,4,1:2:0:0:
204,24,68147,1,0,0:0:0:0:
3,6,68357,2,0,L|17:119,1,106.500004062653,8|0,0:2|0:0,0:0:0:0:
206,202,68778,1,0,1:2:0:0:
95,80,68988,1,0,0:0:0:0:
293,9,69199,2,0,L|279:122,1,106.500004062653,8|0,0:2|0:0,0:0:0:0:
133,274,69620,6,0,P|179:233|229:228,1,106.500004062653,4|0,1:2|0:0,0:0:0:0:
385,360,70041,2,0,L|371:247,1,106.500004062653,8|0,0:2|0:0,0:0:0:0:
348,73,70462,1,0,1:2:0:0:
457,168,70672,1,0,0:0:0:0:
481,19,70883,1,8,0:2:0:0:
357,162,71093,1,0,0:0:0:0:
154,46,71304,5,12,0:2:0:0:
204,281,71514,1,0,1:2:0:0:
287,80,71724,5,8,0:2:0:0:
71,180,71935,1,0,1:2:0:0:
320,253,72145,5,12,0:2:0:0:
171,83,72356,1,0,1:2:0:0:
138,343,72566,5,8,0:2:0:0:
230,164,72777,1,0,1:2:0:0:
387,377,72987,5,12,0:2:0:0:
227,274,73198,1,0,1:2:0:0:
383,151,73408,5,12,0:2:0:0:
315,305,73618,1,0,1:2:0:0:
291,97,73829,5,12,0:2:0:0:
424,244,74039,1,0,1:2:0:0:
454,80,74250,1,8,1:3:0:0:
360,169,74460,1,4,1:3:0:0:
269,72,74671,6,0,B|188:71|231:110|128:106,1,127.799996099854,6|0,1:2|0:0,0:0:0:0:
69,64,75302,2,0,P|100:108|87:203,1,127.799996099854,2|0,0:0|0:0,0:0:0:0:
54,251,75933,1,0,0:0:0:0:
124,317,76144,2,0,P|163:291|265:290,1,127.799996099854,2|0,0:0|0:0,0:0:0:0:
378,165,76985,5,0,0:0:0:0:
355,251,77196,1,2,0:0:0:0:
444,221,77406,1,0,0:0:0:0:
423,312,77617,1,0,0:0:0:0:
342,79,78038,6,0,P|317:108|224:128,1,127.799996099854,2|0,0:0|0:0,0:0:0:0:
144,24,78669,2,0,L|156:104,1,63.8999980499268,2|0,0:0|0:0,0:0:0:0:
70,202,79090,2,0,L|82:122,1,63.8999980499268
143,241,79511,2,0,B|224:240|181:279|284:275,1,127.799996099854,2|0,0:0|0:0,0:0:0:0:
322,126,80352,5,0,0:0:0:0:
264,187,80563,1,2,0:0:0:0:
243,103,80773,1,0,0:0:0:0:
348,209,80984,1,0,0:0:0:0:
404,131,81194,1,0,0:0:0:0:
440,215,81405,6,0,P|430:263|483:348,1,127.799996099854,2|0,0:0|0:0,0:0:0:0:
372,368,82036,2,0,P|329:341|238:348,1,127.799996099854,2|0,0:0|0:0,0:0:0:0:
180,278,82667,1,0,0:0:0:0:
244,136,82876,6,0,B|270:166|270:166|260:258,1,127.799996099854,2|0,0:0|0:0,0:0:0:0:
155,361,83748,1,0,0:0:0:0:
93,271,83966,2,0,L|170:284,1,63.8999980499268,2|0,0:0|0:0,0:0:0:0:
234,325,84415,2,0,L|321:313,1,71,2|2,0:0|0:0,0:0:0:0:
379,175,85093,6,0,P|361:222|373:264,1,71,2|0,0:0|0:0,0:0:0:0:
506,234,85811,2,0,L|424:223,1,63.8999980499268,2|0,0:0|0:0,0:0:0:0:
409,313,86332,2,0,L|327:324,1,63.8999980499268,2|2,0:0|0:0,0:0:0:0:
224,225,87225,1,2,0:0:0:0:
