osu file format v14

[General]
AudioFilename: audio.mp3
AudioLeadIn: 0
PreviewTime: 46366
Countdown: 0
SampleSet: Soft
StackLeniency: 0.7
Mode: 0
LetterboxInBreaks: 0
WidescreenStoryboard: 1

[Editor]
Bookmarks: 75028
DistanceSpacing: 1.5
BeatDivisor: 4
GridSize: 8
TimelineZoom: 2.4

[Metadata]
Title:Angel With A Shotgun (Sped Up Ver.)
TitleUnicode:Angel With A Shotgun (Sped Up Ver.)
Artist:The Cab
ArtistUnicode:The Cab
Creator:Sotarks
Version:Kowari's Light Insane
Source:
Tags:speed up version cut short english pop symphony soldier armin a_r_m_i_n akitoshi corinn -laura- ayyri eiri- browiec fieryrage kowari lon log_off_now log off now nevo snownino_ reform kujinn elinor eli [_eli_] nightcore mix
BeatmapID:2456817
BeatmapSetID:1174505

[Difficulty]
HPDrainRate:4.5
CircleSize:3.8
OverallDifficulty:7
ApproachRate:7.5
SliderMultiplier:1.72
SliderTickRate:1

[Events]
//Background and Video events
0,0,"bg.jpg",0,0
//Break Periods
//Storyboard Layer 0 (Background)
//Storyboard Layer 1 (Fail)
//Storyboard Layer 2 (Pass)
//Storyboard Layer 3 (Foreground)
//Storyboard Layer 4 (Overlay)
//Storyboard Sound Samples

[TimingPoints]
596,420.875420875421,4,2,22,72,1,0
14064,-138.888888888889,4,2,22,72,0,0
20798,-121.951219512195,4,2,22,62,0,0
34266,-108.695652173913,4,2,22,72,0,0
46892,-161.290322580645,4,2,22,72,0,0
47734,-98.0392156862745,4,2,22,82,0,0
74670,-161.290322580645,4,2,22,52,0,0
74775,-161.290322580645,4,2,22,42,0,0
82875,436.205016357688,4,2,22,42,1,0
82875,-161.290322580645,4,2,22,42,0,0
83965,449.269936353426,4,2,22,42,1,0
83965,-161.290322580645,4,2,22,42,0,0
84414,542.740841248304,4,2,22,42,1,0
84414,-100,4,2,22,42,0,0
84685,815.771583956492,4,2,22,42,1,0
84685,-100,4,2,22,42,0,0
85092,1000,4,2,22,42,1,0
85092,-100,4,2,22,42,0,0
85592,437.956204379562,4,2,22,42,1,0
85592,-100,4,2,22,42,0,0
85810,521.739130434783,4,2,22,42,1,0
85810,-161.290322580645,4,2,22,42,0,0
86331,594.059405940594,4,2,22,42,1,0
86331,-161.290322580645,4,2,22,42,0,0
86628,685.714285714286,4,2,22,42,1,0
86628,-100,4,2,22,42,0,0
86970,508.474576271186,4,2,22,42,1,0
86970,-100,4,2,22,42,0,0
87224,491.803278688525,4,2,22,42,1,0
87224,-192.307692307692,4,2,22,42,0,0

[Colours]
Combo1 : 81,136,125
Combo2 : 255,206,250
Combo3 : 253,255,206

[HitObjects]
474,63,14064,6,0,L|336:88,1,123.840003023438,4|4,1:3|1:3,0:0:0:0:
172,30,14905,2,0,P|213:38|253:122,1,123.840003023438,8|0,0:0|0:0,0:0:0:0:
195,186,15537,2,0,L|215:321,1,123.840003023438,8|0,1:3|0:0,0:0:0:0:
128,365,16168,1,4,1:3:0:0:
128,365,16589,6,0,L|54:357,1,61.9200015117188,8|0,0:0|0:0,0:0:0:0:
8,282,17010,2,0,L|82:274,1,61.9200015117188
136,193,17431,6,0,B|201:187|194:228|256:213,1,123.840003023438,4|4,1:3|1:3,0:0:0:0:
382,108,18272,2,0,B|346:139|346:139|363:213,1,123.840003023438,8|0,0:0|0:0,0:0:0:0:
457,252,18904,2,0,P|502:197|492:147,1,123.840003023438,8|0,1:3|0:0,0:0:0:0:
460,44,19535,1,4,1:3:0:0:
460,44,19956,6,0,L|380:37,1,61.9200015117188,8|0,0:0|0:0,0:0:0:0:
322,104,20377,2,0,L|260:109,1,61.9200015117188
150,7,20798,6,0,P|183:35|190:88,1,70.5200010760498,6|0,1:2|0:0,0:0:0:0:
91,161,21218,2,0,L|105:84,1,70.5200010760498,8|0,0:2|0:0,0:0:0:0:
181,182,21639,1,0,3:2:0:0:
79,259,21850,1,0,1:2:0:0:
201,174,22060,2,0,P|245:163|291:184,1,70.5200010760498,8|0,0:2|0:0,0:0:0:0:
363,130,22481,6,0,L|333:276,1,141.0400021521,2|8,1:2|0:2,0:0:0:0:
431,348,23112,1,0,0:0:0:0:
502,244,23323,2,0,L|426:252,1,70.5200010760498,0|0,3:2|1:2,0:0:0:0:
329,347,23744,1,8,0:2:0:0:
276,216,23954,1,0,1:2:0:0:
184,310,24165,6,0,P|168:348|169:383,1,70.5200010760498,2|0,1:2|0:0,0:0:0:0:
268,235,24585,2,0,L|253:146,1,70.5200010760498,8|0,0:2|0:0,0:0:0:0:
366,86,25006,1,0,3:2:0:0:
366,86,25217,2,0,L|351:169,1,70.5200010760498,0|8,1:2|0:2,0:0:0:0:
262,59,25638,6,0,P|220:67|183:94,1,70.5200010760498,0|2,0:0|1:2,0:0:0:0:
90,20,26058,1,0,0:0:0:0:
90,20,26269,2,0,L|105:105,1,70.5200010760498,8|0,0:2|0:0,0:0:0:0:
194,176,26690,2,0,L|181:245,1,70.5200010760498,0|0,3:2|1:2,0:0:0:0:
142,360,27111,1,8,0:2:0:0:
66,263,27321,1,0,3:2:0:0:
151,365,27532,6,0,P|196:367|229:349,1,70.5200010760498,6|0,1:2|0:0,0:0:0:0:
272,253,27952,2,0,P|239:241|204:245,1,70.5200010760498,8|0,0:2|0:0,0:0:0:0:
76,185,28373,1,0,3:2:0:0:
108,296,28584,1,0,1:2:0:0:
68,174,28794,2,0,L|78:102,1,70.5200010760498,8|0,0:2|0:0,0:0:0:0:
163,26,29215,6,0,L|245:44,1,70.5200010760498,2|0,1:2|0:0,0:0:0:0:
339,129,29636,2,0,L|271:145,1,70.5200010760498,8|0,0:2|0:0,0:0:0:0:
191,260,30057,1,0,3:2:0:0:
123,163,30267,1,0,1:2:0:0:
196,282,30478,2,0,P|239:293|280:286,1,70.5200010760498,8|0,0:2|1:2,0:0:0:0:
386,337,30899,6,0,L|356:193,1,141.0400021521,2|8,1:2|0:2,0:0:0:0:
384,84,31530,1,0,0:0:0:0:
483,157,31740,1,0,3:2:0:0:
483,157,31951,2,0,L|469:237,1,70.5200010760498,0|8,1:2|0:2,0:0:0:0:
388,99,32372,6,0,L|313:90,1,70.5200010760498,0|2,0:0|1:2,0:0:0:0:
202,47,32792,1,0,0:0:0:0:
202,47,33003,2,0,P|261:80|251:168,1,141.0400021521,8|0,0:2|3:2,0:0:0:0:
191,260,33634,1,8,0:2:0:0:
113,159,33845,1,8,0:2:0:0:
44,248,34055,1,8,1:3:0:0:
121,179,34266,6,0,L|132:347,1,158.239994687988,6|8,1:2|0:2,0:0:0:0:
232,362,34897,1,0,0:0:0:0:
232,362,35107,2,0,P|263:318|266:286,1,79.1199973439942,0|0,3:2|1:2,0:0:0:0:
362,269,35528,2,0,P|348:226|308:194,1,79.1199973439942,8|0,0:2|0:0,0:0:0:0:
228,101,35949,6,0,P|271:123|362:71,1,158.239994687988,2|8,1:2|0:2,0:0:0:0:
440,19,36580,1,0,0:0:0:0:
512,136,36791,2,0,L|422:127,1,79.1199973439942,0|0,3:2|1:2,0:0:0:0:
361,228,37212,2,0,L|451:219,1,79.1199973439942,8|0,0:2|1:2,0:0:0:0:
331,320,37633,6,0,B|251:319|284:269|174:273,1,158.239994687988,2|8,1:2|0:2,0:0:0:0:
98,319,38264,2,0,P|83:268|95:230,1,79.1199973439942,0|0,0:0|3:2,0:0:0:0:
166,111,38685,2,0,P|181:162|169:200,1,79.1199973439942,0|8,1:2|0:2,0:0:0:0:
73,74,39106,5,0,0:0:0:0:
73,74,39316,2,0,L|243:54,1,158.239994687988,2|8,1:2|0:2,0:0:0:0:
322,156,39947,1,0,0:0:0:0:
218,221,40158,2,0,L|232:138,1,79.1199973439942,0|0,3:2|1:2,0:0:0:0:
337,271,40579,2,0,L|323:188,1,79.1199973439942,8|0,0:2|1:2,0:0:0:0:
292,358,41000,6,0,P|341:306|429:317,1,158.239994687988,2|8,1:2|0:2,0:0:0:0:
498,236,41631,2,0,B|510:197|510:197|485:143,1,79.1199973439942,0|0,0:0|3:2,0:0:0:0:
386,141,42052,1,0,1:2:0:0:
406,36,42262,2,0,L|497:46,1,79.1199973439942,8|0,0:2|0:0,0:0:0:0:
308,86,42683,6,0,B|248:78|248:78|212:94|212:94|141:86,1,158.239994687988,2|8,1:2|0:2,0:0:0:0:
24,169,43314,1,0,0:0:0:0:
61,71,43525,2,0,L|52:-13,1,79.1199973439942,0|0,3:2|1:2,0:0:0:0:
128,179,43946,2,0,L|119:257,1,79.1199973439942,8|0,0:2|1:2,0:0:0:0:
25,306,44367,6,0,B|77:294|123:286|123:286|159:338,1,158.239994687988,2|8,1:2|0:2,0:0:0:0:
271,264,44998,1,0,0:0:0:0:
215,147,45208,2,0,P|203:187|193:225,1,79.1199973439942,0|0,3:2|1:2,0:0:0:0:
318,125,45629,2,0,P|307:86|296:48,1,79.1199973439942,8|0,0:2|0:0,0:0:0:0:
382,221,46050,6,0,P|448:208|483:199,1,79.1199973439942,2|0,1:2|1:2,0:0:0:0:
311,287,46471,1,10,0:2:0:0:
412,111,46681,1,0,1:2:0:0:
452,330,46892,1,10,0:2:0:0:
205,34,47734,6,0,P|145:15|59:106,1,175.440001070801,6|10,1:2|0:2,0:0:0:0:
135,217,48365,1,0,0:0:0:0:
135,217,48470,1,8,0:2:0:0:
135,217,48575,2,0,P|151:161|156:111,1,87.7200005354004,0|0,1:2|1:2,0:0:0:0:
193,293,48996,1,8,0:0:0:0:
41,192,49207,1,0,0:0:0:0:
208,306,49417,6,0,P|342:279|391:274,1,175.440001070801,6|10,1:2|0:2,0:0:0:0:
502,191,50048,1,0,0:0:0:0:
502,191,50154,1,8,0:2:0:0:
502,191,50259,2,0,P|490:254|484:295,1,87.7200005354004,0|0,1:2|1:2,0:0:0:0:
358,130,50680,1,8,0:0:0:0:
398,285,50890,1,0,1:2:0:0:
351,110,51101,6,0,P|304:96|241:111,1,87.7200005354004,6|0,1:2|0:0,0:0:0:0:
163,204,51521,2,0,P|211:186|278:247,1,131.580000803101,10|8,0:2|0:2,0:0:0:0:
294,258,51942,2,0,P|277:306|265:349,1,87.7200005354004,0|0,1:2|1:2,0:0:0:0:
224,170,52363,1,8,0:0:0:0:
389,276,52574,1,0,0:0:0:0:
186,295,52784,6,0,B|92:322|104:255|0:292,1,175.440001070801,6|10,1:2|0:2,0:0:0:0:
0,122,53415,1,0,0:0:0:0:
0,122,53521,1,8,0:2:0:0:
0,122,53626,1,0,1:2:0:0:
143,220,53836,1,8,0:2:0:0:
108,39,54047,1,8,0:0:0:0:
44,199,54257,1,0,1:2:0:0:
194,113,54468,6,0,P|261:90|336:170,1,175.440001070801,6|10,1:2|0:2,0:0:0:0:
464,18,55099,1,0,0:0:0:0:
464,18,55204,1,8,0:2:0:0:
464,18,55309,2,0,P|418:34|379:53,1,87.7200005354004,0|0,1:2|1:2,0:0:0:0:
416,223,55730,1,8,0:0:0:0:
495,93,55941,1,0,0:0:0:0:
407,250,56151,6,0,P|334:227|232:209,1,175.440001070801,6|10,1:2|0:2,0:0:0:0:
127,304,56782,1,0,0:0:0:0:
127,304,56888,1,8,0:2:0:0:
127,304,56993,2,0,P|184:291|226:285,1,87.7200005354004,0|0,1:2|1:2,0:0:0:0:
43,241,57414,1,8,0:0:0:0:
172,380,57624,1,0,1:2:0:0:
143,187,57835,6,0,P|174:141|293:149,1,175.440001070801,6|10,1:2|0:2,0:0:0:0:
368,265,58466,1,0,0:0:0:0:
368,265,58571,1,8,0:2:0:0:
368,265,58676,2,0,P|311:249|269:243,1,87.7200005354004,0|0,1:2|1:2,0:0:0:0:
446,177,59097,1,8,0:0:0:0:
288,84,59308,1,0,0:0:0:0:
436,42,59518,5,6,1:2:0:0:
335,168,59728,1,8,0:0:0:0:
335,168,59834,1,8,0:0:0:0:
335,168,59939,2,0,L|317:217,2,43.8600002677002,8|8|4,0:0|0:0|1:2,0:0:0:0:
237,57,60360,2,0,L|221:15,2,43.8600002677002,8|0|4,0:2|0:0|1:2,0:0:0:0:
157,166,60781,2,0,L|109:153,3,43.8600002677002,8|8|8|4,0:2|0:2|1:3|1:3,0:0:0:0:
80,140,61202,6,0,P|44:199|101:281,1,175.440001070801,4|8,1:2|0:2,0:0:0:0:
228,238,61833,2,0,P|208:293|201:328,1,87.7200005354004,0|0,0:0|1:2,0:0:0:0:
339,232,62254,2,0,P|328:189|312:148,1,87.7200005354004,0|8,0:0|0:2,0:0:0:0:
306,328,62675,1,0,0:0:0:0:
306,328,62885,6,0,P|417:353|490:363,2,175.440001070801,0|8|0,1:2|0:2|1:2,0:0:0:0:
209,234,63937,1,0,0:0:0:0:
359,190,64148,1,8,0:2:0:0:
294,54,64358,6,0,P|274:113|266:143,1,87.7200005354004,0|4,0:0|1:2,0:0:0:0:
395,226,64779,2,0,P|382:183|368:142,1,87.7200005354004,0|8,0:0|0:2,0:0:0:0:
285,259,65200,2,0,P|236:220|153:239,1,131.580000803101
138,215,65621,2,0,P|98:249|60:251,1,87.7200005354004,0|8,0:0|0:2,0:0:0:0:
7,101,66042,6,0,B|116:77|82:151|189:121,1,175.440001070801
271,17,66673,1,8,0:2:0:0:
300,188,66883,1,0,0:0:0:0:
300,188,67094,2,0,P|276:130|261:99,1,87.7200005354004,0|0,1:2|0:0,0:0:0:0:
401,38,67515,2,0,L|454:56,3,43.8600002677002,8|8|8|8,0:2|0:2|0:2|0:2,0:0:0:0:
476,60,67936,6,0,P|452:138|431:235,1,175.440001070801,4|8,1:2|0:2,0:0:0:0:
395,356,68567,2,0,P|468:331|502:330,1,87.7200005354004,0|0,0:0|1:2,0:0:0:0:
335,260,68988,2,0,P|291:251|252:234,1,87.7200005354004,0|8,0:0|0:2,0:0:0:0:
152,144,69409,1,0,0:0:0:0:
152,144,69619,6,0,P|97:138|39:238,2,175.440001070801,4|8|0,1:2|0:2|1:2,0:0:0:0:
263,99,70671,2,0,P|275:41|285:9,1,87.7200005354004,0|8,0:0|0:2,0:0:0:0:
211,221,71092,1,0,0:0:0:0:
348,105,71303,5,12,0:2:0:0:
415,288,71513,1,0,1:2:0:0:
512,164,71723,2,0,P|459:174|415:186,1,87.7200005354004,8|0,0:2|1:2,0:0:0:0:
215,338,72144,5,12,0:2:0:0:
291,160,72354,1,0,1:2:0:0:
374,283,72565,2,0,P|321:273|277:261,1,87.7200005354004,8|0,0:2|1:2,0:0:0:0:
99,161,72986,5,12,0:2:0:0:
320,90,73197,1,0,1:2:0:0:
190,254,73407,1,12,0:2:0:0:
204,13,73617,1,0,1:2:0:0:
318,210,73828,6,0,P|374:198|424:195,1,87.7200005354004,12|0,0:2|1:2,0:0:0:0:
218,329,74249,2,0,P|174:324|131:314,1,87.7200005354004,8|4,1:3|1:3,0:0:0:0:
70,224,74670,6,0,P|117:178|169:192,1,106.639995769287,6|0,1:2|0:0,0:0:0:0:
226,109,75301,2,0,P|252:142|317:147,1,106.639995769287,2|0,0:0|0:0,0:0:0:0:
404,105,75932,1,0,0:0:0:0:
404,105,76143,2,0,P|387:185|383:217,2,106.639995769287,2|0|0,0:0|0:0|0:0,0:0:0:0:
354,24,77195,2,0,P|319:13|293:10,1,53.3199978846436,2|0,0:0|0:0,0:0:0:0:
233,72,77616,2,0,P|198:83|172:86,1,53.3199978846436
91,57,78037,6,0,P|126:79|145:143,1,106.639995769287,2|0,0:0|0:0,0:0:0:0:
73,209,78668,2,0,P|51:248|53:310,2,106.639995769287,2|0|2,0:0|0:0|0:0,0:0:0:0:
166,244,79720,2,0,P|261:268|286:272,1,106.639995769287
341,215,80351,1,0,0:0:0:0:
406,290,80562,2,0,P|393:327|390:347,1,53.3199978846436,2|0,0:0|0:0,0:0:0:0:
491,248,80983,2,0,P|485:221|475:197,1,53.3199978846436
481,101,81404,6,0,P|458:82|379:92,1,106.639995769287,2|0,0:0|0:0,0:0:0:0:
305,47,82035,2,0,P|262:62|206:32,1,106.639995769287,2|0,0:0|0:0,0:0:0:0:
123,3,82666,1,0,0:0:0:0:
123,3,82875,2,0,P|112:54|87:112,2,106.639995769287,2|0|0,0:0|0:0|0:0,0:0:0:0:
178,114,83965,6,0,P|186:149|191:179,1,53.3199978846436,2|0,0:0|0:0,0:0:0:0:
245,257,84414,1,2,0:0:0:0:
245,257,84685,2,0,P|229:307|213:363,1,86,2|2,0:0|0:0,0:0:0:0:
370,229,85592,5,0,0:0:0:0:
370,229,85810,2,0,P|356:188|352:162,1,53.3199978846436,2|0,0:0|0:0,0:0:0:0:
282,97,86331,2,0,P|295:56|300:35,1,53.3199978846436,2|2,0:0|0:0,0:0:0:0:
256,192,87224,12,0,88699,0:0:0:0:
