osu file format v14

[General]
AudioFilename: audio.mp3
AudioLeadIn: 0
PreviewTime: 46366
Countdown: 0
SampleSet: Soft
StackLeniency: 0.7
Mode: 0
LetterboxInBreaks: 0
WidescreenStoryboard: 1

[Editor]
Bookmarks: 14418,75028
DistanceSpacing: 1.5
BeatDivisor: 4
GridSize: 8
TimelineZoom: 2.4

[Metadata]
Title:Angel With A Shotgun (Sped Up Ver.)
TitleUnicode:Angel With A Shotgun (Sped Up Ver.)
Artist:The Cab
ArtistUnicode:The Cab
Creator:Sotarks
Version:Insane
Source:
Tags:speed up version cut short english pop symphony soldier armin a_r_m_i_n akitoshi corinn -laura- ayyri eiri- browiec fieryrage kowari lon log_off_now log off now nevo snownino_ reform kujinn elinor eli [_eli_] nightcore mix
BeatmapID:2449788
BeatmapSetID:1174505

[Difficulty]
HPDrainRate:5
CircleSize:3.5
OverallDifficulty:7.8
ApproachRate:8
SliderMultiplier:1.92
SliderTickRate:1

[Events]
//Background and Video events
0,0,"bg.jpg",0,0
//Break Periods
//Storyboard Layer 0 (Background)
//Storyboard Layer 1 (Fail)
//Storyboard Layer 2 (Pass)
//Storyboard Layer 3 (Foreground)
//Storyboard Layer 4 (Overlay)
//Storyboard Sound Samples

[TimingPoints]
596,420.875420875421,4,2,22,72,1,0
14064,-138.888888888889,4,2,22,72,0,0
20798,-121.951219512195,4,2,22,62,0,0
34266,-108.695652173913,4,2,22,72,0,0
47734,-98.0392156862745,4,2,22,82,0,0
74670,-161.290322580645,4,2,22,52,0,0
74775,-161.290322580645,4,2,22,42,0,0
82875,436.205016357688,4,2,22,42,1,0
82875,-161.290322580645,4,2,22,42,0,0
83965,449.269936353426,4,2,22,42,1,0
83965,-161.290322580645,4,2,22,42,0,0
84414,542.740841248304,4,2,22,42,1,0
84414,-161.290322580645,4,2,22,42,0,0
84685,815.771583956492,4,2,22,42,1,0
85092,1000,4,2,22,42,1,0
85092,-161.290322580645,4,2,22,42,0,0
85592,437.956204379562,4,2,22,42,1,0
85592,-161.290322580645,4,2,22,42,0,0
85810,521.739130434783,4,2,22,42,1,0
85810,-161.290322580645,4,2,22,42,0,0
86331,594.059405940594,4,2,22,42,1,0
86331,-161.290322580645,4,2,22,42,0,0
86628,685.714285714286,4,2,22,42,1,0
86628,-161.290322580645,4,2,22,42,0,0
86970,508.474576271186,4,2,22,42,1,0
86970,-161.290322580645,4,2,22,42,0,0
87224,491.803278688525,4,2,22,42,1,0
87224,-192.307692307692,4,2,22,42,0,0

[Colours]
Combo1 : 81,136,125
Combo2 : 255,206,250
Combo3 : 253,255,206

[HitObjects]
103,169,14064,6,0,P|119:230|125:258,1,69.1200016875,4|0,1:3|0:0,0:0:0:0:
235,209,14484,2,0,P|219:270|213:298,1,69.1200016875,4|0,1:3|0:0,0:0:0:0:
339,137,14905,2,0,P|350:237|359:305,1,138.240003375,8|0,0:0|0:0,0:0:0:0:
424,76,15537,2,0,P|396:37|306:34,1,138.240003375,8|0,1:3|0:0,0:0:0:0:
234,106,16168,2,0,P|185:90|154:85,1,69.1200016875,4|0,1:3|0:0,0:0:0:0:
53,16,16589,2,0,B|38:88|20:159|20:159|73:220,1,207.3600050625,8|0,0:0|0:0,0:0:0:0:
138,315,17431,6,0,P|192:303|224:298,1,69.1200016875,4|0,1:3|0:0,0:0:0:0:
222,195,17851,2,0,P|255:201|289:209,1,69.1200016875,4|0,1:3|0:0,0:0:0:0:
364,304,18272,2,0,P|419:286|426:194,1,138.240003375,8|0,0:0|0:0,0:0:0:0:
454,112,18904,2,0,B|377:99|399:161|316:142,1,138.240003375,8|0,1:3|0:0,0:0:0:0:
244,68,19535,2,0,P|210:74|176:82,1,69.1200016875,4|0,1:3|0:0,0:0:0:0:
83,27,19956,2,0,P|36:106|63:243,1,207.3600050625,8|0,0:0|0:0,0:0:0:0:
132,302,20798,6,0,P|176:295|219:289,1,78.7200012011719,6|0,1:2|0:0,0:0:0:0:
268,173,21218,2,0,P|229:166|190:161,1,78.7200012011719,8|0,0:2|0:0,0:0:0:0:
348,233,21639,1,0,3:2:0:0:
283,85,21850,1,0,1:2:0:0:
207,239,22060,2,0,P|214:291|221:350,1,78.7200012011719,8|0,0:2|0:0,0:0:0:0:
88,197,22481,6,0,P|82:144|167:74,1,157.440002402344,2|8,1:2|0:2,0:0:0:0:
268,173,23112,1,0,0:0:0:0:
217,317,23323,2,0,P|166:309|125:303,1,78.7200012011719,0|0,3:2|1:2,0:0:0:0:
228,155,23744,1,8,0:2:0:0:
313,279,23954,1,0,1:2:0:0:
132,214,24165,6,0,P|139:146|145:98,1,78.7200012011719,2|0,1:2|0:0,0:0:0:0:
315,89,24585,2,0,P|319:128|323:167,1,78.7200012011719,8|0,0:2|0:0,0:0:0:0:
219,263,25006,1,0,3:2:0:0:
391,203,25217,1,0,1:2:0:0:
228,155,25427,2,0,P|231:115|236:76,1,78.7200012011719,8|0,0:2|0:0,0:0:0:0:
394,5,25848,6,0,P|401:91|406:168,2,157.440002402344,2|8|0,1:2|0:2|3:2,0:0:0:0:
319,138,26900,1,0,1:2:0:0:
212,53,27111,1,8,0:2:0:0:
306,5,27321,1,0,3:2:0:0:
219,182,27532,6,0,P|164:171|126:164,1,78.7200012011719,6|0,1:2|0:0,0:0:0:0:
57,28,27952,2,0,P|95:20|134:12,1,78.7200012011719,8|0,0:2|0:0,0:0:0:0:
53,188,28373,1,0,3:2:0:0:
188,80,28584,1,0,1:2:0:0:
225,257,28794,2,0,P|263:249|302:241,1,78.7200012011719,8|0,0:2|0:0,0:0:0:0:
410,111,29215,6,0,B|316:98|356:167|252:155,1,157.440002402344,2|8,1:2|0:2,0:0:0:0:
395,201,29846,1,0,0:0:0:0:
265,66,30057,2,0,P|211:75|165:83,1,78.7200012011719,0|0,3:2|1:2,0:0:0:0:
51,186,30478,1,8,0:2:0:0:
102,43,30688,1,0,1:2:0:0:
206,178,30899,6,0,P|201:231|197:272,1,78.7200012011719,2|0,1:2|0:0,0:0:0:0:
395,201,31319,2,0,P|391:161|387:122,1,78.7200012011719,8|0,0:2|0:0,0:0:0:0:
295,224,31740,1,0,3:2:0:0:
467,153,31951,1,0,1:2:0:0:
336,50,32161,2,0,P|270:71|242:82,1,78.7200012011719,8|0,0:2|0:0,0:0:0:0:
210,262,32582,6,0,P|288:275|396:298,2,157.440002402344,2|8|0,1:2|0:2|3:2,0:0:0:0:
336,141,33634,1,8,0:2:0:0:
261,353,33845,1,8,0:2:0:0:
168,179,34055,1,8,1:3:0:0:
168,179,34266,6,0,P|124:188|82:199,1,88.3199970351563,6|0,1:2|0:0,0:0:0:0:
166,30,34686,2,0,P|209:39|251:50,1,88.3199970351563,8|0,0:2|0:0,0:0:0:0:
254,207,35107,1,0,3:2:0:0:
115,105,35318,1,0,1:2:0:0:
268,23,35528,1,8,0:2:0:0:
209,124,35739,1,0,0:0:0:0:
71,13,35949,6,0,P|62:102|51:205,1,176.639994070313,2|8,1:2|0:2,0:0:0:0:
150,305,36580,1,0,0:0:0:0:
254,207,36791,2,0,P|307:199|376:193,1,88.3199970351563,0|0,3:2|1:2,0:0:0:0:
392,343,37212,2,0,P|348:338|304:331,1,88.3199970351563,8|0,0:2|1:2,0:0:0:0:
348,101,37633,6,0,P|412:113|442:237,1,176.639994070313,2|8,1:2|0:2,0:0:0:0:
278,309,38264,1,0,0:0:0:0:
356,184,38474,1,0,3:2:0:0:
411,328,38685,1,0,1:2:0:0:
240,211,38895,2,0,P|185:222|131:233,1,88.3199970351563,8|0,0:2|0:0,0:0:0:0:
15,315,39316,6,0,P|121:328|210:343,1,176.639994070313,2|8,1:2|0:2,0:0:0:0:
71,217,39947,1,0,0:0:0:0:
181,98,40158,2,0,P|197:176|203:217,1,88.3199970351563,0|0,3:2|1:2,0:0:0:0:
81,73,40579,1,8,0:2:0:0:
278,112,40789,1,0,1:2:0:0:
144,259,41000,6,0,B|208:238|267:217|267:217|315:257,1,176.639994070313,2|8,1:2|0:2,0:0:0:0:
391,351,41631,1,0,0:0:0:0:
450,162,41841,1,0,3:2:0:0:
337,264,42052,1,0,1:2:0:0:
387,84,42262,2,0,P|401:153|410:202,1,88.3199970351563,8|0,0:2|0:0,0:0:0:0:
288,52,42683,6,0,B|181:35|237:124|101:105,1,176.639994070313,2|8,1:2|0:2,0:0:0:0:
0,46,43314,1,0,0:0:0:0:
118,150,43525,2,0,P|110:224|105:276,1,88.3199970351563,0|0,3:2|1:2,0:0:0:0:
9,319,43946,2,0,P|4:275|0:231,1,88.3199970351563,8|0,0:2|1:2,0:0:0:0:
169,340,44367,6,0,P|243:358|307:278,1,176.639994070313,2|8,1:2|0:2,0:0:0:0:
297,104,44998,1,0,0:0:0:0:
197,239,45208,1,0,3:2:0:0:
369,166,45419,1,0,1:2:0:0:
222,50,45629,2,0,P|215:124|213:160,1,88.3199970351563,8|0,0:2|0:0,0:0:0:0:
304,272,46050,5,2,1:2:0:0:
380,80,46260,1,0,1:2:0:0:
418,290,46471,1,10,0:2:0:0:
297,104,46681,1,0,1:2:0:0:
249,335,46892,1,10,0:2:0:0:
249,335,47734,6,0,P|191:327|123:319,1,97.9200005976563,6|0,1:2|0:0,0:0:0:0:
69,215,48154,2,0,P|117:208|166:202,1,97.9200005976563,10|0,0:2|0:0,0:0:0:0:
166,202,48470,1,8,0:2:0:0:
166,202,48575,1,0,1:2:0:0:
326,266,48786,1,0,1:2:0:0:
267,99,48996,1,8,0:0:0:0:
219,298,49207,1,0,0:0:0:0:
362,136,49417,6,0,P|348:68|336:19,1,97.9200005976563,6|0,1:2|0:0,0:0:0:0:
153,0,49838,2,0,P|141:47|132:95,1,97.9200005976563,10|0,0:2|0:0,0:0:0:0:
140,124,50154,1,8,0:2:0:0:
140,124,50259,1,0,1:2:0:0:
288,200,50469,1,0,1:2:0:0:
100,256,50680,1,8,0:0:0:0:
264,184,50890,1,0,1:2:0:0:
178,330,51101,5,6,1:2:0:0:
234,113,51311,1,0,0:0:0:0:
357,295,51521,2,0,P|446:287|474:210,1,146.880000896484,10|8,0:2|0:2,0:0:0:0:
447,173,51942,2,0,P|439:124|431:63,1,97.9200005976563,0|0,1:2|1:2,0:0:0:0:
286,4,52363,2,0,P|279:52|271:100,1,97.9200005976563,8|0,0:0|0:0,0:0:0:0:
212,264,52784,6,0,B|90:288|150:193|18:225,1,195.840001195313,6|10,1:2|0:2,0:0:0:0:
172,155,53415,1,0,0:0:0:0:
172,155,53521,1,8,0:2:0:0:
172,155,53626,1,0,1:2:0:0:
74,304,53836,1,8,0:2:0:0:
159,119,54047,1,8,0:0:0:0:
222,311,54257,1,0,1:2:0:0:
63,179,54468,6,0,P|71:121|81:53,1,97.9200005976563,6|0,1:2|0:0,0:0:0:0:
244,40,54888,2,0,P|250:88|257:136,1,97.9200005976563,10|0,0:2|0:0,0:0:0:0:
257,137,55204,1,8,0:2:0:0:
257,137,55309,1,0,1:2:0:0:
166,231,55520,1,0,1:2:0:0:
352,166,55730,1,8,0:0:0:0:
159,119,55941,1,0,0:0:0:0:
301,310,56151,6,0,P|363:318|444:218,1,195.840001195313,6|10,1:2|0:2,0:0:0:0:
425,67,56782,1,0,0:0:0:0:
425,67,56888,1,8,0:2:0:0:
425,67,56993,2,0,P|362:74|305:85,1,97.9200005976563,0|0,1:2|1:2,0:0:0:0:
336,227,57414,2,0,P|273:220|216:209,1,97.9200005976563,8|0,0:0|1:2,0:0:0:0:
128,54,57835,6,0,P|121:142|114:271,1,195.840001195313,6|10,1:2|0:2,0:0:0:0:
84,358,58466,1,0,0:0:0:0:
84,358,58571,1,8,0:2:0:0:
84,358,58676,2,0,P|162:346|208:341,1,97.9200005976563,0|0,1:2|1:2,0:0:0:0:
345,238,59097,1,8,0:0:0:0:
288,371,59308,1,0,0:0:0:0:
195,232,59518,6,0,P|201:174|208:101,1,97.9200005976563,6|8,1:2|0:0,0:0:0:0:
219,103,59834,1,8,0:0:0:0:
219,103,59939,2,0,L|157:119,2,48.9600002988281,8|8|4,0:0|0:0|1:2,0:0:0:0:
353,21,60360,1,8,0:2:0:0:
296,195,60570,1,4,1:2:0:0:
175,27,60781,1,8,0:2:0:0:
141,20,60886,1,8,0:2:0:0:
109,32,60991,1,8,1:3:0:0:
88,58,61096,1,4,1:3:0:0:
83,92,61202,6,0,B|138:93|180:124|180:124|237:96|283:108,2,195.840001195313,4|8|0,1:2|0:2|1:2,0:0:0:0:
149,211,62254,1,0,0:0:0:0:
66,295,62464,2,0,P|130:309|181:324,1,97.9200005976563,8|0,0:2|0:0,0:0:0:0:
255,194,62885,6,0,B|315:165|362:202|345:212|395:247|467:210,2,195.840001195313,0|8|0,1:2|0:2|1:2,0:0:0:0:
412,125,63937,1,0,0:0:0:0:
291,279,64148,1,8,0:2:0:0:
382,99,64358,1,0,0:0:0:0:
383,304,64569,6,0,P|311:319|268:329,1,97.9200005976563,4|0,1:2|0:0,0:0:0:0:
216,157,64989,2,0,P|263:166|311:177,1,97.9200005976563,8|0,0:2|0:0,0:0:0:0:
195,271,65410,1,0,1:2:0:0:
283,84,65621,1,0,0:0:0:0:
377,256,65831,2,0,P|369:320|361:384,1,97.9200005976563,8|0,0:2|0:0,0:0:0:0:
216,157,66252,6,0,P|151:162|105:289,1,195.840001195313,0|8,1:2|0:2,0:0:0:0:
238,363,66883,1,0,0:0:0:0:
316,229,67094,2,0,P|305:159|296:112,1,97.9200005976563,0|0,1:2|0:0,0:0:0:0:
128,40,67515,1,8,0:2:0:0:
111,64,67620,1,8,0:2:0:0:
104,92,67725,1,8,0:2:0:0:
108,121,67830,1,8,0:2:0:0:
118,143,67936,6,0,B|243:161|179:60|338:92,1,195.840001195313,4|8,1:2|0:2,0:0:0:0:
425,162,68567,1,0,0:0:0:0:
268,269,68777,2,0,P|277:186|285:134,1,97.9200005976563,0|0,1:2|0:0,0:0:0:0:
446,78,69198,2,0,P|452:126|457:175,1,97.9200005976563,8|0,0:2|0:0,0:0:0:0:
346,303,69619,6,0,P|226:322|126:341,2,195.840001195313,4|8|0,1:2|0:2|1:2,0:0:0:0:
191,214,70671,1,0,0:0:0:0:
270,101,70882,2,0,P|344:109|410:115,1,97.9200005976563,8|0,0:2|0:0,0:0:0:0:
262,273,71303,5,12,0:2:0:0:
184,97,71513,1,0,1:2:0:0:
365,152,71723,1,8,0:2:0:0:
191,214,71934,1,0,1:2:0:0:
291,67,72144,1,12,0:2:0:0:
346,241,72355,1,0,1:2:0:0:
183,128,72565,1,8,0:2:0:0:
327,43,72776,1,0,1:2:0:0:
228,209,72986,5,12,0:2:0:0:
252,0,73197,1,0,1:2:0:0:
353,277,73407,1,12,0:2:0:0:
327,43,73618,1,0,1:2:0:0:
185,303,73828,1,12,0:2:0:0:
211,69,74039,1,0,1:2:0:0:
341,359,74249,1,8,1:3:0:0:
312,166,74460,1,4,1:3:0:0:
151,374,74670,6,0,P|145:309|138:236,1,119.039995277344,6|0,1:2|0:0,0:0:0:0:
72,189,75301,2,0,P|103:137|230:152,1,178.559992916016,2|0,0:0|0:0,0:0:0:0:
264,214,76143,2,0,P|295:266|451:227,1,238.079990554688,2|0,0:0|0:0,0:0:0:0:
475,128,77195,2,0,P|429:134|390:141,1,59.519997638672,2|0,0:0|0:0,0:0:0:0:
371,65,77616,2,0,P|341:60|312:56,1,59.519997638672
255,118,78037,6,0,P|192:126|123:137,1,119.039995277344,2|0,0:0|0:0,0:0:0:0:
54,84,78668,2,0,P|48:128|43:163,1,59.519997638672,2|0,0:0|0:0,0:0:0:0:
0,211,79089,2,0,P|3:240|8:269,1,59.519997638672
63,346,79510,2,0,B|200:376|136:253|304:289,1,238.079990554688,2|0,0:0|0:0,0:0:0:0:
359,350,80562,2,0,P|364:309|368:281,1,59.519997638672,2|0,0:0|0:0,0:0:0:0:
451,299,80983,2,0,P|447:269|443:239,1,59.519997638672
472,163,81404,6,0,P|420:205|358:192,1,119.039995277344,2|0,0:0|0:0,0:0:0:0:
305,138,82035,2,0,B|201:124|248:206|134:194,1,178.559992916016,2|0,0:0|0:0,0:0:0:0:
73,112,82875,2,0,P|55:246|41:365,1,238.079990554688,2|0,0:0|0:0,0:0:0:0:
129,314,83965,2,0,P|172:304|209:296,1,59.519997638672,2|0,0:0|0:0,0:0:0:0:
256,356,84414,2,0,P|285:362|314:369,1,59.519997638672,2|2,0:0|0:0,0:0:0:0:
314,369,85092,6,0,L|304:288,1,59.519997638672,2|0,0:0|0:0,0:0:0:0:
241,261,85810,2,0,L|254:191,1,59.519997638672,2|0,0:0|0:0,0:0:0:0:
343,180,86331,2,0,L|330:110,1,59.519997638672,2|2,0:0|0:0,0:0:0:0:
332,121,87224,6,0,B|172:86|224:246|55:208,1,299.519998171875,2|0,0:0|0:0,0:0:0:0:
