osu file format v14

[General]
AudioFilename: audio.mp3
AudioLeadIn: 0
PreviewTime: 46366
Countdown: 0
SampleSet: Soft
StackLeniency: 0.7
Mode: 0
LetterboxInBreaks: 0
WidescreenStoryboard: 1

[Editor]
Bookmarks: 75028
DistanceSpacing: 1.5
BeatDivisor: 4
GridSize: 8
TimelineZoom: 2.4

[Metadata]
Title:Angel With A Shotgun (Sped Up Ver.)
TitleUnicode:Angel With A Shotgun (Sped Up Ver.)
Artist:The Cab
ArtistUnicode:The Cab
Creator:Sotarks
Version:Hard
Source:
Tags:speed up version cut short english pop symphony soldier armin a_r_m_i_n akitoshi corinn -laura- ayyri eiri- browiec fieryrage kowari lon log_off_now log off now nevo snownino_ reform kujinn elinor eli [_eli_] nightcore mix
BeatmapID:2449786
BeatmapSetID:1174505

[Difficulty]
HPDrainRate:4
CircleSize:3.5
OverallDifficulty:6.5
ApproachRate:7
SliderMultiplier:1.72
SliderTickRate:1

[Events]
//Background and Video events
0,0,"bg.jpg",0,0
//Break Periods
//Storyboard Layer 0 (Background)
//Storyboard Layer 1 (Fail)
//Storyboard Layer 2 (Pass)
//Storyboard Layer 3 (Foreground)
//Storyboard Layer 4 (Overlay)
//Storyboard Sound Samples

[TimingPoints]
596,420.875420875421,4,2,22,72,1,0
14064,-138.888888888889,4,2,22,72,0,0
20798,-121.951219512195,4,2,22,62,0,0
34266,-108.695652173913,4,2,22,72,0,0
46892,-161.290322580645,4,2,22,72,0,0
47734,-98.0392156862745,4,2,22,82,0,0
74670,-161.290322580645,4,2,22,52,0,0
74775,-161.290322580645,4,2,22,42,0,0
82875,436.205016357688,4,2,22,42,1,0
82875,-161.290322580645,4,2,22,42,0,0
83965,449.269936353426,4,2,22,42,1,0
83965,-161.290322580645,4,2,22,42,0,0
84414,542.740841248304,4,2,22,42,1,0
84414,-100,4,2,22,42,0,0
84685,815.771583956492,4,2,22,42,1,0
84685,-100,4,2,22,42,0,0
85092,1000,4,2,22,42,1,0
85092,-100,4,2,22,42,0,0
85592,437.956204379562,4,2,22,42,1,0
85592,-100,4,2,22,42,0,0
85810,521.739130434783,4,2,22,42,1,0
85810,-161.290322580645,4,2,22,42,0,0
86331,594.059405940594,4,2,22,42,1,0
86331,-161.290322580645,4,2,22,42,0,0
86628,685.714285714286,4,2,22,42,1,0
86628,-100,4,2,22,42,0,0
86970,508.474576271186,4,2,22,42,1,0
86970,-100,4,2,22,42,0,0
87224,491.803278688525,4,2,22,42,1,0
87224,-192.307692307692,4,2,22,42,0,0

[Colours]
Combo1 : 81,136,125
Combo2 : 255,206,250
Combo3 : 253,255,206

[HitObjects]
42,153,14064,6,0,P|97:162|122:166,1,61.9200015117188,4|0,1:3|0:0,0:0:0:0:
162,207,14484,2,0,P|192:202|223:197,1,61.9200015117188,4|0,1:3|0:0,0:0:0:0:
261,133,14905,2,0,P|314:139|400:151,1,123.840003023438,8|0,0:0|0:0,0:0:0:0:
451,115,15537,2,0,P|416:153|429:242,1,123.840003023438,8|0,1:3|0:0,0:0:0:0:
448,289,16168,2,0,P|417:294|386:298,1,61.9200015117188,4|0,1:3|0:0,0:0:0:0:
327,254,16589,2,0,B|216:226|268:322|147:295,1,185.760004535156,8|0,0:0|0:0,0:0:0:0:
90,327,17431,6,0,P|84:283|79:251,1,61.9200015117188,4|0,1:3|0:0,0:0:0:0:
38,204,17851,2,0,P|44:160|49:128,1,61.9200015117188,4|0,1:3|0:0,0:0:0:0:
23,72,18272,2,0,P|78:112|143:93,1,123.840003023438,8|0,0:0|0:0,0:0:0:0:
204,101,18904,2,0,P|259:61|324:80,1,123.840003023438,8|0,1:3|0:0,0:0:0:0:
383,56,19535,2,0,P|379:114|376:143,1,61.9200015117188,4|0,1:3|0:0,0:0:0:0:
429,172,19956,2,0,B|362:152|311:135|311:135|240:182,1,185.760004535156,8|0,0:0|0:0,0:0:0:0:
185,211,20798,6,0,P|144:205|92:200,1,70.5200010760498,6|0,1:2|0:0,0:0:0:0:
72,128,21218,2,0,P|107:124|141:118,1,70.5200010760498,8|0,0:2|0:0,0:0:0:0:
213,54,21639,1,0,3:2:0:0:
282,102,21850,1,0,1:2:0:0:
357,65,22060,2,0,P|364:123|368:153,1,70.5200010760498,8|0,0:2|0:0,0:0:0:0:
443,101,22481,6,0,P|435:193|429:271,1,141.0400021521,2|8,1:2|0:2,0:0:0:0:
447,324,23112,1,0,0:0:0:0:
365,299,23323,2,0,P|316:307|272:316,1,70.5200010760498,0|0,3:2|1:2,0:0:0:0:
227,361,23744,1,8,0:2:0:0:
167,300,23954,1,0,1:2:0:0:
99,351,24165,6,0,P|76:309|108:215,1,141.0400021521,2|8,1:2|0:2,0:0:0:0:
175,186,24796,1,0,0:0:0:0:
115,126,25006,1,0,3:2:0:0:
179,70,25217,1,0,1:2:0:0:
239,129,25427,2,0,P|288:137|318:141,1,70.5200010760498,8|0,0:2|0:0,0:0:0:0:
345,63,25848,6,0,P|356:136|367:217,1,141.0400021521,2|8,1:2|0:2,0:0:0:0:
343,284,26479,1,0,0:0:0:0:
370,364,26690,2,0,P|305:314|230:345,1,141.0400021521,0|8,3:2|0:2,0:0:0:0:
181,372,27321,1,0,3:2:0:0:
107,329,27532,6,0,P|113:277|121:232,1,70.5200010760498,6|0,1:2|0:0,0:0:0:0:
200,257,27952,2,0,P|196:221|191:187,1,70.5200010760498,8|0,0:2|0:0,0:0:0:0:
214,105,28373,1,0,3:2:0:0:
152,46,28584,1,0,1:2:0:0:
95,108,28794,2,0,P|89:142|86:177,1,70.5200010760498,8|0,0:2|0:0,0:0:0:0:
21,232,29215,6,0,B|78:215|120:202|120:202|168:243,1,141.0400021521,2|8,1:2|0:2,0:0:0:0:
209,286,29846,1,0,0:0:0:0:
285,248,30057,2,0,P|291:202|296:150,1,70.5200010760498,0|0,3:2|1:2,0:0:0:0:
332,102,30478,1,8,0:2:0:0:
259,58,30688,1,0,1:2:0:0:
331,13,30899,6,0,P|404:18|437:96,1,141.0400021521,2|8,1:2|0:2,0:0:0:0:
400,146,31530,1,0,0:0:0:0:
483,134,31740,1,0,3:2:0:0:
408,174,31951,1,0,1:2:0:0:
492,165,32161,2,0,P|495:200|500:234,1,70.5200010760498,8|0,0:2|0:0,0:0:0:0:
422,267,32582,6,0,P|470:275|482:368,2,141.0400021521,2|8|0,1:2|0:2|3:2,0:0:0:0:
352,315,33634,1,8,0:2:0:0:
274,279,33845,1,8,0:2:0:0:
208,332,34055,1,8,1:3:0:0:
119,296,34266,6,0,B|89:203|156:238|123:129,1,158.239994687988,6|8,1:2|0:2,0:0:0:0:
77,61,34897,1,0,0:0:0:0:
152,4,35107,2,0,P|206:11|251:19,1,79.1199973439942,0|0,3:2|1:2,0:0:0:0:
227,110,35528,2,0,P|281:103|326:95,1,79.1199973439942,8|0,0:2|0:0,0:0:0:0:
367,26,35949,6,0,P|428:55|429:148,1,158.239994687988,2|8,1:2|0:2,0:0:0:0:
381,216,36580,1,0,0:0:0:0:
291,183,36791,2,0,P|288:233|286:281,1,79.1199973439942,0|0,3:2|1:2,0:0:0:0:
201,303,37212,2,0,P|199:263|196:224,1,79.1199973439942,8|0,0:2|1:2,0:0:0:0:
224,132,37633,6,0,P|168:188|90:162,1,158.239994687988,2|8,1:2|0:2,0:0:0:0:
33,100,38264,1,0,0:0:0:0:
81,18,38474,2,0,P|143:27|174:33,1,79.1199973439942,0|0,3:2|1:2,0:0:0:0:
251,53,38895,2,0,P|289:46|329:40,1,79.1199973439942,8|0,0:2|0:0,0:0:0:0:
420,13,39316,6,0,P|410:122|402:204,1,158.239994687988,2|8,1:2|0:2,0:0:0:0:
426,263,39947,1,0,0:0:0:0:
342,217,40158,1,0,3:2:0:0:
426,173,40368,1,0,1:2:0:0:
414,267,40579,1,8,0:2:0:0:
342,204,40789,1,0,1:2:0:0:
324,297,41000,6,0,B|229:328|267:244|150:293,1,158.239994687988,2|8,1:2|0:2,0:0:0:0:
94,337,41631,1,0,0:0:0:0:
24,272,41841,2,0,P|32:212|41:164,1,79.1199973439942,0|0,3:2|1:2,0:0:0:0:
130,199,42262,2,0,P|125:159|118:120,1,79.1199973439942,8|0,0:2|0:0,0:0:0:0:
43,62,42683,6,0,P|119:74|208:88,1,158.239994687988,2|8,1:2|0:2,0:0:0:0:
282,41,43314,1,0,0:0:0:0:
367,82,43525,2,0,P|358:133|353:189,1,79.1199973439942,0|0,3:2|1:2,0:0:0:0:
259,161,43946,2,0,P|266:199|271:239,1,79.1199973439942,8|0,0:2|1:2,0:0:0:0:
315,323,44367,6,0,P|261:277|159:318,1,158.239994687988,2|8,1:2|0:2,0:0:0:0:
105,350,44998,1,0,0:0:0:0:
33,287,45208,2,0,P|44:235|55:196,1,79.1199973439942,0|0,3:2|1:2,0:0:0:0:
144,223,45629,2,0,P|136:184|126:145,1,79.1199973439942,8|0,0:2|0:0,0:0:0:0:
64,75,46050,5,2,1:2:0:0:
145,38,46260,1,0,1:2:0:0:
47,154,46471,1,10,0:2:0:0:
2,23,46681,1,0,1:2:0:0:
163,122,46892,2,0,B|260:129|214:73|319:82,1,159.959993653931,10|0,0:2|0:0,0:0:0:0:
400,23,47734,6,0,P|410:93|416:135,1,87.7200005354004,6|0,1:2|0:0,0:0:0:0:
488,181,48154,2,0,P|478:251|472:293,1,87.7200005354004,10|0,0:2|0:0,0:0:0:0:
475,267,48470,1,8,0:2:0:0:
475,267,48575,1,0,1:2:0:0:
375,233,48786,1,0,1:2:0:0:
342,332,48996,2,0,P|269:323|229:317,1,87.7200005354004,8|0,0:0|0:0,0:0:0:0:
156,357,49417,6,0,P|149:279|136:165,1,175.440001070801,6|10,1:2|0:2,0:0:0:0:
82,92,50048,1,0,0:0:0:0:
82,92,50154,1,8,0:2:0:0:
82,92,50259,2,0,P|155:83|195:77,1,87.7200005354004,0|0,1:2|1:2,0:0:0:0:
253,17,50680,1,8,0:0:0:0:
279,118,50890,1,0,1:2:0:0:
379,84,51101,6,0,P|371:146|366:199,1,87.7200005354004,6|0,1:2|0:0,0:0:0:0:
452,234,51521,2,0,P|365:213|314:250,1,131.580000803101,10|8,0:2|0:2,0:0:0:0:
289,262,51942,2,0,P|246:287|191:280,1,87.7200005354004,0|0,1:2|1:2,0:0:0:0:
131,214,52363,2,0,P|167:190|210:189,1,87.7200005354004,8|0,0:0|0:0,0:0:0:0:
306,143,52784,6,0,P|211:137|116:132,1,175.440001070801,6|10,1:2|0:2,0:0:0:0:
36,112,53415,1,0,0:0:0:0:
36,112,53521,1,8,0:2:0:0:
36,112,53626,1,0,1:2:0:0:
122,51,53836,1,8,0:2:0:0:
111,155,54047,2,0,P|102:209|95:268,1,87.7200005354004,8|0,0:0|1:2,0:0:0:0:
154,330,54468,6,0,P|231:316|265:311,1,87.7200005354004,6|0,1:2|0:0,0:0:0:0:
225,210,54888,2,0,P|268:217|311:225,1,87.7200005354004,10|0,0:2|0:0,0:0:0:0:
311,225,55204,1,8,0:2:0:0:
311,225,55309,1,0,1:2:0:0:
386,299,55520,1,0,1:2:0:0:
467,232,55730,2,0,P|458:176|449:126,1,87.7200005354004,8|0,0:0|0:0,0:0:0:0:
471,41,56151,6,0,B|361:27|421:108|288:88,1,175.440001070801,6|10,1:2|0:2,0:0:0:0:
216,44,56782,1,0,0:0:0:0:
216,44,56888,1,8,0:2:0:0:
216,44,56993,2,0,P|208:87|201:130,1,87.7200005354004,0|0,1:2|1:2,0:0:0:0:
98,108,57414,2,0,P|105:151|112:194,1,87.7200005354004,8|0,0:0|1:2,0:0:0:0:
39,271,57835,6,0,B|100:247|156:224|156:224|175:239|202:258,1,175.440001070801,6|10,1:2|0:2,0:0:0:0:
276,329,58466,1,0,0:0:0:0:
276,329,58571,1,8,0:2:0:0:
276,329,58676,2,0,P|322:322|384:315,1,87.7200005354004,0|0,1:2|1:2,0:0:0:0:
415,225,59097,2,0,P|371:218|328:213,1,87.7200005354004,8|0,0:0|0:0,0:0:0:0:
261,131,59518,5,6,1:2:0:0:
195,212,59728,2,0,L|142:204,1,43.8600002677002,8|8,0:0|0:0,0:0:0:0:
117,165,59939,2,0,L|73:171,1,43.8600002677002,8|8,0:0|0:0,0:0:0:0:
31,203,60149,1,4,1:2:0:0:
70,301,60360,2,0,P|114:315|184:290,1,87.7200005354004,8|4,0:2|1:2,0:0:0:0:
252,271,60781,1,8,0:2:0:0:
281,263,60886,1,8,0:2:0:0:
311,266,60991,1,8,1:3:0:0:
339,280,61096,1,4,1:3:0:0:
360,302,61202,6,0,P|366:223|373:112,2,175.440001070801,4|8|0,1:2|0:2|1:2,0:0:0:0:
282,373,62254,1,0,0:0:0:0:
198,309,62464,2,0,P|149:317|85:329,1,87.7200005354004,8|0,0:2|0:0,0:0:0:0:
28,259,62885,6,0,P|100:281|166:206,2,175.440001070801,0|8|0,1:2|0:2|1:2,0:0:0:0:
57,157,63937,1,0,0:0:0:0:
21,57,64148,2,0,P|64:64|107:71,1,87.7200005354004,8|0,0:2|0:0,0:0:0:0:
199,123,64569,6,0,B|312:134|242:51|374:75,1,175.440001070801,4|8,1:2|0:2,0:0:0:0:
449,121,65200,1,0,0:0:0:0:
422,222,65410,2,0,P|361:214|326:210,1,87.7200005354004,0|0,1:2|0:0,0:0:0:0:
270,294,65831,2,0,P|226:299|182:305,1,87.7200005354004,8|0,0:2|0:0,0:0:0:0:
110,228,66252,6,0,P|148:308|110:383,2,175.440001070801,0|8|0,1:2|0:2|1:2,0:0:0:0:
18,37,67515,1,8,0:2:0:0:
48,40,67620,1,8,0:2:0:0:
78,44,67725,1,8,0:2:0:0:
109,48,67830,1,8,0:2:0:0:
139,52,67936,6,0,B|258:27|193:115|327:88,2,175.440001070801,4|8|0,1:2|0:2|1:2,0:0:0:0:
89,145,68988,1,0,0:0:0:0:
149,230,69198,2,0,P|157:298|161:349,1,87.7200005354004,8|0,0:2|0:0,0:0:0:0:
262,336,69619,6,0,P|147:358|59:375,2,175.440001070801,4|8|0,1:2|0:2|1:2,0:0:0:0:
363,365,70671,1,0,0:0:0:0:
440,293,70882,2,0,P|442:241|445:188,1,87.7200005354004,8|0,0:2|0:0,0:0:0:0:
377,81,71303,6,0,P|311:93|274:99,1,87.7200005354004,12|0,0:2|1:2,0:0:0:0:
174,182,71723,1,8,0:2:0:0:
199,83,71934,1,0,1:2:0:0:
280,235,72144,2,0,P|346:223|383:217,1,87.7200005354004,12|0,0:2|1:2,0:0:0:0:
479,152,72564,1,8,0:2:0:0:
452,254,72775,1,0,1:2:0:0:
361,109,72986,6,0,P|317:116|274:124,1,87.7200005354004,12|0,0:2|1:2,0:0:0:0:
205,287,73407,2,0,P|161:278|118:271,1,87.7200005354004,12|0,0:2|1:2,0:0:0:0:
56,194,73828,1,12,0:2:0:0:
56,194,74038,1,0,1:2:0:0:
137,126,74249,1,8,1:3:0:0:
137,126,74459,1,4,1:3:0:0:
207,192,74670,6,0,P|261:184|324:175,1,106.639995769287,6|0,1:2|0:0,0:0:0:0:
379,132,75301,2,0,P|299:120|220:108,1,159.959993653931,2|0,0:0|0:0,0:0:0:0:
175,42,76143,2,0,P|91:59|80:183,1,213.279991538575,2|0,0:0|0:0,0:0:0:0:
149,190,77195,2,0,P|158:232|162:266,1,53.3199978846436,2|0,0:0|0:0,0:0:0:0:
95,290,77616,2,0,P|86:332|82:366,1,53.3199978846436
159,370,78037,2,0,P|212:328|264:331,1,106.639995769287,2|0,0:0|0:0,0:0:0:0:
319,288,78668,2,0,P|372:330|424:327,2,106.639995769287,2|0|2,0:0|0:0|0:0,0:0:0:0:
112,43,80351,5,0,0:0:0:0:
112,43,80562,2,0,L|105:107,1,53.3199978846436,2|0,0:0|0:0,0:0:0:0:
186,101,80983,2,0,L|193:165,1,53.3199978846436
131,207,81404,2,0,L|240:183,1,106.639995769287,2|0,0:0|0:0,0:0:0:0:
276,115,82035,2,0,L|446:149,1,159.959993653931,2|0,0:0|0:0,0:0:0:0:
451,220,82875,2,0,B|326:224|401:296|255:301,1,213.279991538575,2|0,0:0|0:0,0:0:0:0:
195,262,83965,6,0,L|141:253,1,53.3199978846436,2|0,0:0|0:0,0:0:0:0:
118,319,84414,2,0,L|13:335,1,86,2|2,0:0|0:0,0:0:0:0:
53,228,85092,2,0,L|66:123,1,86,2|0,0:0|0:0,0:0:0:0:
35,70,85810,2,0,P|81:60|96:60,1,53.3199978846436,2|0,0:0|0:0,0:0:0:0:
149,101,86331,2,0,P|195:111|210:111,1,53.3199978846436,2|2,0:0|0:0,0:0:0:0:
256,192,87224,12,0,88699,0:0:0:0:
