osu file format v14

[General]
AudioFilename: audio.mp3
AudioLeadIn: 0
PreviewTime:46366
Countdown: 0
SampleSet: Soft
StackLeniency: 0.4
Mode: 0
LetterboxInBreaks: 0
WidescreenStoryboard: 1

[Editor]
DistanceSpacing: 0.2
BeatDivisor: 4
GridSize: 16
TimelineZoom: 2.4

[Metadata]
Title:Angel With A Shotgun (Sped Up Ver.)
TitleUnicode:Angel With A Shotgun (Sped Up Ver.)
Artist:The Cab
ArtistUnicode:The Cab
Creator:Sotarks
Version:Fiery's Extra
Source:
Tags:speed up version cut short english pop symphony soldier armin a_r_m_i_n akitoshi corinn -laura- ayyri eiri- browiec fieryrage kowari lon log_off_now log off now nevo snownino_ reform kujinn elinor eli [_eli_] nightcore mix
BeatmapID:2477878
BeatmapSetID:1174505

[Difficulty]
HPDrainRate:5.2
CircleSize:4.2
OverallDifficulty:8.8
ApproachRate:8.6
SliderMultiplier:2.1
SliderTickRate:1

[Events]
//Background and Video events
0,0,"bg.jpg"
//Break Periods
//Storyboard Layer 0 (Background)
//Storyboard Layer 1 (Fail)
//Storyboard Layer 2 (Pass)
//Storyboard Layer 3 (Foreground)
//Storyboard Layer 4 (Overlay)
//Storyboard Sound Samples

[TimingPoints]
596,420.875420875421,4,2,22,72,1,0
596,-100,4,2,22,72,0,0
12801,-100,4,2,22,72,0,0
13222,-100,4,2,22,72,0,0
13643,-100,4,2,22,72,0,0
13958,-100,4,2,22,72,0,0
14064,-142.857142857143,4,2,22,72,0,0
20482,-142.857142857143,4,2,22,72,0,0
20798,-117.647058823529,4,2,22,62,0,0
34266,-100,4,2,22,72,0,1
34371,-100,4,2,22,72,0,0
46892,-250,4,2,22,72,0,0
47734,-83.3333333333333,4,2,22,82,0,1
59728,-100,4,2,22,82,0,0
61202,-83.3333333333333,4,2,22,82,0,1
67515,-100,4,2,22,82,0,1
67936,-83.3333333333333,4,2,22,82,0,1
71092,-83.3333333333333,4,2,22,82,0,0
71303,-71.4285714285714,4,2,22,82,0,1
74249,-83.3333333333333,4,2,22,82,0,1
74670,-117.647058823529,4,2,22,52,0,0
74775,-117.647058823529,4,2,22,42,0,0
75301,-137.931034482759,4,2,22,42,0,0
76143,-166.666666666667,4,2,22,42,0,0
82875,436.205016357688,4,2,22,42,1,0
82875,-166.666666666667,4,2,22,42,0,0
83965,449.269936353426,4,2,22,42,1,0
83965,-166.666666666667,4,2,22,42,0,0
84414,542.740841248304,4,2,22,42,1,0
84414,-166.666666666667,4,2,22,42,0,0
84685,815.771583956492,4,2,22,42,1,0
84685,-166.666666666667,4,2,22,42,0,0
85092,1000,4,2,22,42,1,0
85092,-138.888888888889,4,2,22,42,0,0
85592,437.956204379562,4,2,22,42,1,0
85592,-166.666666666667,4,2,22,42,0,0
85810,521.739130434783,4,2,22,42,1,0
85810,-200,4,2,22,42,0,0
86331,594.059405940594,4,2,22,42,1,0
86331,-200,4,2,22,42,0,0
86628,685.714285714286,4,2,22,42,1,0
86628,-166.666666666667,4,2,22,42,0,0
86970,508.474576271186,4,2,22,42,1,0
86970,-166.666666666667,4,2,22,42,0,0
87224,491.803278688525,4,2,22,42,1,0
87224,-333.333333333333,4,2,22,42,0,0
87346,-333.333333333333,4,2,22,42,0,0

[Colours]
Combo1 : 81,136,125
Combo2 : 255,206,250
Combo3 : 253,255,206

[HitObjects]
256,192,12801,12,0,13958,0:0:0:0:
82,133,14064,5,4,1:3:0:0:
78,142,14484,1,4,1:3:0:0:
159,80,14905,2,0,P|176:149|140:227,1,146.999995513916,8|0,0:0|0:0,0:0:0:0:
64,298,15537,1,8,1:3:0:0:
53,311,15747,2,0,L|207:306,1,146.999995513916,0|4,0:0|1:3,0:0:0:0:
452,217,16589,6,0,P|461:251|458:299,1,73.4999977569581,8|0,0:0|0:0,0:0:0:0:
353,97,17010,2,0,P|383:114|415:150,1,73.4999977569581
257,61,17431,5,4,1:3:0:0:
78,142,17851,1,4,1:3:0:0:
252,309,18272,2,0,L|255:151,1,146.999995513916,8|0,0:0|0:0,0:0:0:0:
257,61,18904,1,8,1:3:0:0:
348,119,19114,6,0,P|382:124|433:110,1,73.4999977569581
254,162,19535,2,0,P|220:157|169:171,1,73.4999977569581,4|0,1:3|0:0,0:0:0:0:
387,262,19956,5,8,0:0:0:0:
98,159,20166,1,0,0:0:0:0:
341,346,20377,2,0,P|396:354|462:325,1,110.249996635437
470,314,20798,6,0,L|471:215,1,89.2500017023087,6|0,1:2|0:0,0:0:0:0:
355,25,21218,1,8,0:2:0:0:
278,210,21429,1,0,0:0:0:0:
431,58,21639,1,0,3:2:0:0:
470,224,21850,1,0,1:2:0:0:
318,117,22060,2,0,P|275:109|226:125,1,89.2500017023087,8|0,0:2|0:0,0:0:0:0:
199,151,22376,1,0,0:0:0:0:
199,151,22481,5,2,1:2:0:0:
299,299,22691,1,0,0:0:0:0:
171,278,22902,1,8,0:2:0:0:
323,176,23112,1,0,0:0:0:0:
94,239,23323,2,0,P|88:284|106:336,1,89.2500017023087,0|0,3:2|1:2,0:0:0:0:
304,384,23744,2,0,P|310:340|298:297,1,89.2500017023087,8|0,0:2|1:2,0:0:0:0:
90,152,24165,5,2,1:2:0:0:
323,176,24375,1,0,0:0:0:0:
94,239,24585,2,0,P|84:195|90:151,1,89.2500017023087,8|0,0:2|0:0,0:0:0:0:
232,0,25006,1,0,3:2:0:0:
293,183,25217,1,0,1:2:0:0:
409,28,25427,1,8,0:2:0:0:
179,129,25638,6,0,L|72:132,1,89.2500017023087,0|2,0:0|1:2,0:0:0:0:
312,266,26058,2,0,L|419:269,1,89.2500017023087,0|8,0:0|0:2,0:0:0:0:
126,313,26479,1,0,0:0:0:0:
126,313,26585,1,0,0:0:0:0:
126,313,26690,1,0,3:2:0:0:
274,166,26900,1,0,1:2:0:0:
231,363,27111,1,8,0:2:0:0:
120,193,27321,1,0,3:2:0:0:
312,266,27532,6,0,L|419:269,1,89.2500017023087,6|0,1:2|0:0,0:0:0:0:
450,48,27952,1,8,0:2:0:0:
512,169,28163,1,0,0:0:0:0:
441,31,28373,1,0,3:2:0:0:
393,183,28584,1,0,1:2:0:0:
299,55,28794,2,0,L|209:52,1,89.2500017023087,8|0,0:2|0:0,0:0:0:0:
168,54,29110,1,0,0:0:0:0:
168,54,29215,6,0,L|165:144,1,89.2500017023087,2|0,1:2|0:0,0:0:0:0:
160,339,29636,1,8,0:2:0:0:
87,167,29846,1,0,0:0:0:0:
244,249,30057,1,0,3:2:0:0:
62,315,30267,1,0,1:2:0:0:
261,243,30478,2,0,L|264:333,1,89.2500017023087,8|0,0:2|1:2,0:0:0:0:
77,157,30899,5,2,1:2:0:0:
68,148,31319,2,0,P|60:95|70:54,1,89.2500017023087,8|0,0:2|0:0,0:0:0:0:
206,0,31740,1,0,3:2:0:0:
160,188,31951,1,0,1:2:0:0:
291,64,32161,1,8,0:2:0:0:
68,148,32372,6,0,P|60:199|69:239,1,89.2500017023087,0|2,0:0|1:2,0:0:0:0:
261,331,32792,2,0,P|269:280|260:240,1,89.2500017023087,0|8,0:0|0:2,0:0:0:0:
166,87,33213,1,0,0:0:0:0:
328,146,33424,1,0,3:2:0:0:
67,235,33634,5,8,0:2:0:0:
346,139,33845,1,8,0:2:0:0:
68,148,34055,1,8,1:3:0:0:
350,229,34266,6,0,P|363:278|353:333,1,105,6|0,1:2|0:0,0:0:0:0:
177,210,34686,1,8,0:2:0:0:
382,160,34897,2,0,P|434:186|344:211,1,210,0|0,0:0|1:2,0:0:0:0:
280,54,35528,1,8,0:2:0:0:
177,210,35739,6,0,L|172:331,1,105,0|2,0:0|1:2,0:0:0:0:
48,257,36159,2,0,L|53:378,1,105,0|8,0:0|0:2,0:0:0:0:
103,115,36580,1,0,0:0:0:0:
172,314,36791,1,0,3:2:0:0:
220,79,37001,1,0,1:2:0:0:
348,283,37212,2,0,P|400:291|458:274,1,105,8|0,0:2|1:2,0:0:0:0:
230,170,37633,6,0,P|189:244|205:370,1,210,2|8,1:2|0:2,0:0:0:0:
47,210,38264,2,0,L|42:99,1,105,0|0,0:0|3:2,0:0:0:0:
148,118,38685,2,0,L|153:7,1,105,0|8,1:2|0:2,0:0:0:0:
218,278,39106,1,0,0:0:0:0:
287,71,39316,6,0,P|328:56|400:65,1,105,2|0,1:2|0:0,0:0:0:0:
500,250,39737,1,8,0:2:0:0:
233,160,39947,1,0,0:0:0:0:
372,366,40158,1,0,3:2:0:0:
450,133,40368,1,0,1:2:0:0:
218,278,40579,1,8,0:2:0:0:
465,124,40789,1,0,1:2:0:0:
204,138,41000,6,0,L|84:143,1,105,2|0,1:2|0:0,0:0:0:0:
328,239,41420,1,8,0:2:0:0:
97,60,41631,2,0,L|306:51,1,210,0|0,0:0|1:2,0:0:0:0:
474,43,42262,1,8,0:2:0:0:
252,189,42473,6,0,P|226:240|323:213,1,210
135,119,43104,1,8,0:2:0:0:
188,364,43314,1,0,0:0:0:0:
242,102,43525,1,0,3:2:0:0:
185,381,43735,1,0,1:2:0:0:
328,161,43946,2,0,L|451:157,1,105,8|0,0:2|1:2,0:0:0:0:
135,119,44367,6,0,L|12:123,1,105,2|0,1:2|0:0,0:0:0:0:
255,266,44787,1,8,0:2:0:0:
229,33,44998,1,0,0:0:0:0:
258,286,45208,1,0,3:2:0:0:
138,74,45419,1,0,1:2:0:0:
378,163,45629,1,8,0:2:0:0:
118,257,45840,1,0,0:0:0:0:
340,66,46050,6,0,P|392:63|442:80,1,105,2|0,1:2|1:2,0:0:0:0:
247,353,46471,1,10,0:2:0:0:
138,74,46681,1,0,1:2:0:0:
436,214,46892,5,10,0:2:0:0:
436,214,47734,6,0,L|440:346,1,125.999996154785,6|0,1:2|0:0,0:0:0:0:
281,105,48154,2,0,L|277:230,1,125.999996154785,10|0,0:2|0:0,0:0:0:0:
279,272,48470,1,8,0:2:0:0:
279,272,48575,1,0,1:2:0:0:
413,82,48786,1,0,1:2:0:0:
197,167,48996,1,8,0:0:0:0:
436,214,49207,1,0,0:0:0:0:
129,103,49417,6,0,P|113:165|126:234,1,125.999996154785,6|0,1:2|0:0,0:0:0:0:
324,344,49838,2,0,P|340:282|327:213,1,125.999996154785,10|0,0:2|0:0,0:0:0:0:
318,190,50154,1,8,0:2:0:0:
318,190,50259,1,0,1:2:0:0:
147,315,50469,1,0,1:2:0:0:
198,81,50680,1,8,0:0:0:0:
331,280,50890,1,0,1:2:0:0:
86,193,51101,5,6,1:2:0:0:
331,135,51311,1,0,0:0:0:0:
64,198,51521,2,0,L|57:334,1,125.999996154785,10|0,0:2|0:0,0:0:0:0:
144,382,51837,1,8,0:2:0:0:
144,382,51942,2,0,L|150:256,1,125.999996154785,0|0,1:2|1:2,0:0:0:0:
161,36,52363,1,8,0:0:0:0:
249,264,52574,1,0,0:0:0:0:
6,136,52784,6,0,B|64:109|127:136|127:136|184:160|252:131,1,251.999992309571,6|10,1:2|0:2,0:0:0:0:
389,3,53415,1,0,0:0:0:0:
389,3,53521,1,8,0:2:0:0:
389,3,53626,1,0,1:2:0:0:
423,243,53836,1,8,0:2:0:0:
244,60,54047,1,8,0:0:0:0:
507,92,54257,1,0,1:2:0:0:
274,217,54468,6,0,L|268:365,1,125.999996154785,6|0,1:2|0:0,0:0:0:0:
138,143,54888,2,0,L|144:291,1,125.999996154785,10|0,0:2|0:0,0:0:0:0:
147,310,55204,1,8,0:2:0:0:
147,310,55309,1,0,1:2:0:0:
228,104,55520,1,0,1:2:0:0:
349,288,55730,1,8,0:0:0:0:
226,88,55941,1,0,0:0:0:0:
147,310,56151,6,0,B|69:341|-3:298|-3:298|44:268|98:284,1,251.999992309571,6|10,1:2|0:2,0:0:0:0:
303,372,56782,1,0,0:0:0:0:
303,372,56888,1,8,0:2:0:0:
303,372,56993,1,0,1:2:0:0:
157,147,57203,1,0,1:2:0:0:
344,188,57414,1,8,0:0:0:0:
118,334,57624,1,0,1:2:0:0:
387,85,57835,6,0,B|434:151|434:151|421:342,1,251.999992309571,6|10,1:2|0:2,0:0:0:0:
218,191,58466,1,0,0:0:0:0:
218,191,58571,1,8,0:2:0:0:
218,191,58676,2,0,L|352:187,1,125.999996154785,0|0,1:2|1:2,0:0:0:0:
142,75,59097,1,8,0:0:0:0:
252,325,59308,1,0,0:0:0:0:
387,85,59518,6,0,B|406:54|406:54|416:158,1,125.999996154785,6|8,1:2|0:0,0:0:0:0:
490,103,59834,1,8,0:0:0:0:
490,103,59939,2,0,L|497:172,1,52.5,8|8,0:0|0:0,0:0:0:0:
291,203,60149,1,4,1:2:0:0:
468,315,60360,1,8,0:2:0:0:
397,75,60570,1,4,1:2:0:0:
241,281,60781,1,8,0:2:0:0:
241,281,60886,1,8,0:2:0:0:
241,281,60991,2,0,L|189:279,1,52.5,8|4,1:3|1:3,0:0:0:0:
68,96,61202,6,0,P|53:149|62:223,1,125.999996154785,4|0,1:2|0:0,0:0:0:0:
322,353,61622,2,0,P|337:300|328:226,1,125.999996154785,8|0,0:2|0:0,0:0:0:0:
182,59,62043,1,0,1:2:0:0:
104,306,62254,1,0,0:0:0:0:
299,138,62464,2,0,P|353:131|443:149,1,125.999996154785,8|0,0:2|0:0,0:0:0:0:
138,381,62885,6,0,B|104:304|104:304|122:121,1,251.999992309571,0|8,1:2|0:2,0:0:0:0:
316,17,63516,1,0,0:0:0:0:
245,254,63727,1,0,1:2:0:0:
129,34,63937,1,0,0:0:0:0:
398,122,64148,1,8,0:2:0:0:
112,221,64358,1,0,0:0:0:0:
112,221,64463,1,0,0:0:0:0:
112,221,64569,5,4,1:2:0:0:
221,10,64779,2,0,L|223:143,1,125.999996154785,0|8,0:0|0:2,0:0:0:0:
342,374,65200,2,0,L|343:248,1,125.999996154785,0|0,0:0|1:2,0:0:0:0:
387,8,65621,1,0,0:0:0:0:
215,231,65831,1,8,0:2:0:0:
476,134,66042,1,0,0:0:0:0:
201,74,66252,6,0,L|75:73,1,125.999996154785,0|0,1:2|0:0,0:0:0:0:
333,217,66673,1,8,0:2:0:0:
284,20,66883,1,0,0:0:0:0:
208,250,67094,1,0,1:2:0:0:
290,1,67304,1,0,0:0:0:0:
435,232,67515,1,8,0:2:0:0:
435,232,67620,1,8,0:2:0:0:
435,232,67725,2,0,L|371:201,1,52.5,8|8,0:2|0:2,0:0:0:0:
166,117,67936,6,0,B|111:193|111:193|121:360,2,251.999992309571,4|8|0,1:2|0:2|1:2,0:0:0:0:
391,76,68988,1,0,0:0:0:0:
161,18,69198,1,8,0:2:0:0:
409,81,69409,1,0,0:0:0:0:
166,117,69619,6,0,L|29:121,1,125.999996154785,4|0,1:2|0:0,0:0:0:0:
340,206,70040,2,0,L|477:210,1,125.999996154785,8|0,0:2|0:0,0:0:0:0:
153,241,70461,1,0,1:2:0:0:
327,90,70671,1,0,0:0:0:0:
72,185,70882,2,0,P|62:252|81:308,1,125.999996154785,8|0,0:2|0:0,0:0:0:0:
247,70,71303,5,12,0:2:0:0:
292,312,71513,1,0,1:2:0:0:
247,54,71723,5,8,0:2:0:0:
201,323,71934,1,0,1:2:0:0:
247,38,72144,5,12,0:2:0:0:
295,334,72355,1,0,1:2:0:0:
247,22,72565,5,8,0:2:0:0:
194,351,72776,1,0,1:2:0:0:
417,111,72986,5,12,0:2:0:0:
94,78,73197,1,0,1:2:0:0:
435,112,73407,5,12,0:2:0:0:
78,181,73617,1,0,1:2:0:0:
419,215,73828,5,12,0:2:0:0:
94,78,74038,1,0,1:2:0:0:
435,221,74249,2,0,L|441:350,1,125.999996154785,8|4,1:3|1:3,0:0:0:0:
254,58,74670,6,0,P|206:37|86:80,1,178.500003404617,6|0,1:2|0:0,0:0:0:0:
253,281,75301,2,0,B|270:230|251:176|251:176|231:119|254:57,1,228.375006969452,2|0,0:0|0:0,0:0:0:0:
408,84,76143,6,0,P|421:139|350:87,1,188.999994232178,2|0,0:0|0:0,0:0:0:0:
254,190,76984,1,0,0:0:0:0:
246,199,77195,2,0,L|242:274,1,62.9999980773926,2|0,0:0|0:0,0:0:0:0:
340,248,77616,2,0,L|344:323,1,62.9999980773926
252,73,78037,6,0,L|245:211,1,125.999996154785,2|0,0:0|0:0,0:0:0:0:
158,106,78668,2,0,P|100:84|40:99,2,125.999996154785,2|0|2,0:0|0:0|0:0,0:0:0:0:
343,310,80351,5,0,0:0:0:0:
352,319,80562,2,0,L|423:320,1,62.9999980773926,2|0,0:0|0:0,0:0:0:0:
305,227,80983,2,0,L|367:226,1,62.9999980773926
194,370,81404,6,0,P|179:314|197:241,1,125.999996154785,2|0,0:0|0:0,0:0:0:0:
277,143,82035,2,0,B|233:131|184:147|184:147|142:161|89:144,1,188.999994232178,2|0,0:0|0:0,0:0:0:0:
233,315,82875,2,0,P|276:281|191:252,1,188.999994232178,2|0,0:0|0:0,0:0:0:0:
359,185,83747,5,0,0:0:0:0:
371,181,83965,2,0,L|375:114,1,62.9999980773926,2|0,0:0|0:0,0:0:0:0:
446,242,84414,2,0,L|449:304,1,62.9999980773926,2|2,0:0|0:0,0:0:0:0:
195,173,85092,2,0,L|192:249,1,75.6000018457032,2|0,0:0|0:0,0:0:0:0:
149,106,85810,6,0,P|175:94|208:94,1,52.5,2|0,0:0|0:0,0:0:0:0:
272,133,86331,2,0,P|298:130|321:119,1,52.5,2|2,0:0|0:0,0:0:0:0:
119,219,87224,6,0,P|88:261|189:242,1,251.999992309571,2|0,0:0|0:0,0:0:0:0:
