osu file format v14

[General]
AudioFilename: audio.mp3
AudioLeadIn: 0
PreviewTime: 46366
Countdown: 0
SampleSet: Soft
StackLeniency: 0.7
Mode: 0
LetterboxInBreaks: 0
WidescreenStoryboard: 1

[Editor]
Bookmarks: 14418,75028
DistanceSpacing: 1
BeatDivisor: 4
GridSize: 8
TimelineZoom: 2.4

[Metadata]
Title:Angel With A Shotgun (Sped Up Ver.)
TitleUnicode:Angel With A Shotgun (Sped Up Ver.)
Artist:The Cab
ArtistUnicode:The Cab
Creator:Sotarks
Version:Beginner
Source:
Tags:speed up version cut short english pop symphony soldier armin a_r_m_i_n akitoshi corinn -laura- ayyri eiri- browiec fieryrage kowari lon log_off_now log off now nevo snownino_ reform kujinn elinor eli [_eli_] nightcore mix
BeatmapID:2449783
BeatmapSetID:1174505

[Difficulty]
HPDrainRate:2
CircleSize:2
OverallDifficulty:2
ApproachRate:2
SliderMultiplier:0.92
SliderTickRate:1

[Events]
//Background and Video events
0,0,"bg.jpg",0,0
//Break Periods
//Storyboard Layer 0 (Background)
//Storyboard Layer 1 (Fail)
//Storyboard Layer 2 (Pass)
//Storyboard Layer 3 (Foreground)
//Storyboard Layer 4 (Overlay)
//Storyboard Sound Samples

[TimingPoints]
596,420.875420875421,4,2,22,72,1,0
20798,-100,4,2,22,62,0,0
34266,-100,4,2,22,72,0,0
47734,-100,4,2,22,82,0,0
74670,-100,4,2,22,52,0,0
74775,-100,4,2,22,42,0,0
82875,436.205016357688,4,2,22,42,1,0
83965,449.269936353426,4,2,22,42,1,0
84414,542.740841248304,4,2,22,42,1,0
84685,815.771583956492,4,2,22,42,1,0
85092,1000,4,2,22,42,1,0
85592,437.956204379562,4,2,22,42,1,0
85810,521.739130434783,4,2,22,42,1,0
86331,594.059405940594,4,2,22,42,1,0
86628,685.714285714286,4,2,22,42,1,0
86970,508.474576271186,4,2,22,42,1,0
87224,491.803278688525,4,2,22,42,1,0
87224,-192.307692307692,4,2,22,42,0,0

[Colours]
Combo1 : 81,136,125
Combo2 : 255,206,250
Combo3 : 253,255,206

[HitObjects]
105,91,14064,6,0,B|229:70|146:163|307:144,1,184,4|8,1:3|0:0,0:0:0:0:
381,65,15537,1,8,1:3:0:0:
399,294,16589,1,8,0:0:0:0:
226,361,17431,2,0,P|151:361|143:247,1,184,4|8,1:3|0:0,0:0:0:0:
37,162,18904,1,8,1:3:0:0:
257,97,19956,1,8,0:0:0:0:
435,35,20798,6,0,P|413:174|405:333,1,276,6|8,1:2|0:2,0:0:0:0:
322,349,22481,2,0,B|245:385|180:334|207:305|135:259|28:322,1,276,2|8,1:2|0:2,0:0:0:0:
26,220,24165,2,0,P|56:140|247:168,1,276,2|8,1:2|0:2,0:0:0:0:
261,220,25848,1,2,1:2:0:0:
443,241,26690,1,0,3:2:0:0:
493,63,27532,6,0,B|394:37|315:15|315:15|271:46|233:75,1,276,6|8,1:2|0:2,0:0:0:0:
153,40,29215,2,0,P|73:51|80:227,1,276,2|8,1:2|0:2,0:0:0:0:
21,298,30899,2,0,B|98:334|163:283|136:254|208:208|315:271,1,276,2|8,1:2|0:2,0:0:0:0:
353,302,32582,1,2,1:2:0:0:
431,135,33424,2,0,P|386:109|325:116,1,92,0|8,3:2|0:2,0:0:0:0:
289,180,34266,5,6,1:2:0:0:
233,107,34686,2,0,P|167:58|64:129,1,184,8|8,0:2|0:2,0:0:0:0:
58,182,35949,1,2,1:2:0:0:
105,261,36370,2,0,B|222:273|153:198|301:215,1,184,8|8,0:2|0:2,0:0:0:0:
342,275,37633,5,2,1:2:0:0:
415,219,38053,2,0,L|397:9,1,184,8|8,0:2|0:2,0:0:0:0:
307,33,39316,2,0,B|246:65|190:98|190:98|118:56,1,184,2|0,1:2|3:2,0:0:0:0:
72,18,40579,1,8,0:2:0:0:
19,93,41000,5,2,1:2:0:0:
67,170,41420,2,0,L|83:354,1,184,8|8,0:2|0:2,0:0:0:0:
168,319,42683,1,2,1:2:0:0:
257,341,43104,2,0,P|345:356|422:269,1,184,8|8,0:2|0:2,0:0:0:0:
423,208,44367,5,2,1:2:0:0:
360,141,44787,2,0,B|243:129|312:204|164:187,1,184,8|8,0:2|0:2,0:0:0:0:
130,118,46050,1,2,1:2:0:0:
36,276,46892,1,10,0:2:0:0:
201,356,47734,6,0,B|266:329|326:303|326:303|395:349,1,184,6|0,1:2|1:2,0:0:0:0:
402,245,48996,1,8,0:0:0:0:
417,154,49417,2,0,B|300:142|369:217|221:200,1,184,6|0,1:2|1:2,0:0:0:0:
175,143,50680,1,8,0:0:0:0:
136,226,51101,6,0,L|127:358,1,92,6|10,1:2|0:2,0:0:0:0:
41,344,51942,2,0,L|34:252,1,92,0|8,1:2|0:0,0:0:0:0:
24,160,52784,1,6,1:2:0:0:
161,37,53626,2,0,L|276:54,1,92,0|8,1:2|0:0,0:0:0:0:
316,116,54468,6,0,P|381:76|465:154,1,184,6|0,1:2|1:2,0:0:0:0:
442,221,55730,1,8,0:0:0:0:
368,275,56151,2,0,P|305:259|178:253,1,184,6|0,1:2|1:2,0:0:0:0:
104,294,57414,1,8,0:0:0:0:
22,250,57835,6,0,L|33:143,1,92,6|10,1:2|0:2,0:0:0:0:
112,114,58676,2,0,L|121:205,1,92,0|8,1:2|0:0,0:0:0:0:
205,167,59518,2,0,P|284:106|446:205,1,276,6|8,1:2|0:2,0:0:0:0:
454,259,61202,5,4,1:2:0:0:
376,305,61622,2,0,B|252:327|324:247|186:275,1,184,8|8,0:2|0:2,0:0:0:0:
125,321,62885,2,0,B|101:232|80:137|80:137|146:73,1,276,0|8,1:2|0:2,0:0:0:0:
215,21,64569,5,4,1:2:0:0:
281,84,64989,2,0,L|485:116,1,184,8|8,0:2|0:2,0:0:0:0:
499,197,66252,2,0,L|295:229,1,184,0|0,1:2|1:2,0:0:0:0:
226,241,67515,1,8,0:2:0:0:
161,306,67936,6,0,P|98:236|216:108,1,276,4|8,1:2|0:2,0:0:0:0:
270,67,69619,2,0,L|42:49,1,184,4|0,1:2|1:2,0:0:0:0:
20,117,70882,1,8,0:2:0:0:
53,202,71303,6,0,P|110:217|150:210,1,92,12|8,0:2|0:2,0:0:0:0:
224,171,72144,2,0,P|281:156|321:163,1,92,12|8,0:2|0:2,0:0:0:0:
386,216,72986,2,0,L|376:338,1,92,12|12,0:2|0:2,0:0:0:0:
293,343,73828,2,0,L|285:251,1,92,12|8,0:2|1:3,0:0:0:0:
273,159,74670,5,6,1:2:0:0:
